osu file format v14

[General]
AudioFilename: audio.mp3
AudioLeadIn: 0
PreviewTime: 54245
Countdown: 0
SampleSet: Soft
StackLeniency: 0.4
Mode: 0
LetterboxInBreaks: 0
WidescreenStoryboard: 1

[Editor]
Bookmarks: 10646,13269
DistanceSpacing: 1
BeatDivisor: 4
GridSize: 32
TimelineZoom: 2.799999

[Metadata]
Title:Shiny Ray (TV Size)
TitleUnicode:Shiny Ray (TV Size)
Artist:YURiKA
ArtistUnicode:YURiKA
Creator:Gottagof4st
Version:byd's Extra
Source:リトルウィッチアカデミア
Tags:lwa little witch academia Sotarks Icekalt bite_you_death CelsiusLK ametrin Nextplay Onlybiscuit Yasaija714 Celektus Zelq yaspo Chaoticred Serizawa byd ggf gottagofast Haruki Jack J_a_c_k My_Angel_Kanan Yudragen bite you death
BeatmapID:1847496
BeatmapSetID:584389

[Difficulty]
HPDrainRate:6
CircleSize:3.6
OverallDifficulty:8
ApproachRate:9.2
SliderMultiplier:1.7
SliderTickRate:1

[Events]
//Background and Video events
0,0,"bgbyd.jpg",0,0
Video,-170,"OP.avi"
//Break Periods
2,39699,44175
//Storyboard Layer 0 (Background)
//Storyboard Layer 1 (Fail)
//Storyboard Layer 2 (Pass)
//Storyboard Layer 3 (Foreground)
//Storyboard Sound Samples

[TimingPoints]
155,327.868852459016,4,2,17,60,1,0
2777,-83.3333333333333,4,2,17,60,0,0
3023,-83.3333333333333,4,2,17,5,0,0
3105,-100,4,2,17,60,0,0
3925,-83.3333333333333,4,2,17,60,0,0
4171,-83.3333333333333,4,2,17,5,0,0
4253,-100,4,2,17,60,0,0
5400,-83.3333333333333,4,2,17,60,0,0
5646,-83.3333333333333,4,2,17,5,0,0
5728,-100,4,2,17,60,0,0
9171,-83.3333333333333,4,2,17,60,0,0
9417,-83.3333333333333,4,2,17,5,0,0
9499,-100,4,2,17,60,0,0
13269,-125,4,2,18,40,0,0
23761,-111.111111111111,4,2,17,50,0,0
34253,-105.263157894737,4,2,17,55,0,0
44745,-111.111111111111,4,2,17,55,0,0
49335,-111.111111111111,4,2,17,35,0,0
49991,-125,4,2,17,50,0,0
54581,-100,4,2,17,60,0,0
55073,-90.9090909090909,4,2,17,70,0,1
65564,-111.111111111111,4,2,17,60,0,0
70974,-90.9090909090909,4,2,17,70,0,1
76220,-100,4,2,17,60,0,0
77368,-83.3333333333333,4,2,17,60,0,0
77614,-83.3333333333333,4,2,17,5,0,0
77695,-100,4,2,17,60,0,0
78843,-83.3333333333333,4,2,17,60,0,0
79089,-83.3333333333333,4,2,17,5,0,0
79171,-100,4,2,17,60,0,0

[Colours]
Combo1 : 255,102,204
Combo2 : 0,255,255
Combo3 : 128,0,255

[HitObjects]
80,119,2777,6,0,B|176:114|125:185|256:168,1,152.999995330811,6|0,3:2|0:0,0:0:0:0:
284,116,3104,1,0,3:0:0:0:
79,219,3269,2,0,P|33:199|-32:182,1,85,0|0,0:0|3:0,0:0:0:0:
129,339,3597,1,2,0:0:0:0:
218,170,3761,1,2,3:2:0:0:
230,373,3925,6,0,P|291:368|331:269,1,152.999995330811,6|0,3:2|0:0,0:0:0:0:
297,200,4253,1,2,0:0:0:0:
440,287,4417,1,2,3:2:0:0:
371,133,4581,1,2,0:0:0:0:
335,294,4745,1,2,3:2:0:0:
460,184,4908,1,2,0:0:0:0:
460,184,4991,1,8,0:0:0:0:
460,184,5073,1,2,3:2:0:0:
380,221,5236,1,8,3:0:0:0:
279,76,5400,6,0,P|314:39|421:37,1,152.999995330811,6|0,3:2|0:0,0:0:0:0:
473,93,5728,1,2,3:2:0:0:
371,133,5892,1,2,0:0:0:0:
411,32,6056,1,2,3:2:0:0:
380,221,6220,1,2,0:0:0:0:
279,76,6384,1,2,3:2:0:0:
192,266,6548,6,0,B|231:285|231:285|269:271,1,85,6|0,3:2|0:0,0:0:0:0:
380,221,6876,1,2,0:0:0:0:
212,376,7040,1,2,3:2:0:0:
466,315,7204,1,2,0:0:0:0:
234,191,7368,1,2,3:2:0:0:
366,111,7531,1,0,3:0:0:0:
386,115,7613,1,0,3:0:0:0:
407,120,7695,5,0,3:0:0:0:
424,147,7778,1,0,3:0:0:0:
424,179,7860,1,0,3:0:0:0:
407,206,7942,1,0,3:0:0:0:
379,220,8023,6,0,P|360:265|367:309,1,85,6|0,3:2|0:0,0:0:0:0:
207,172,8351,1,2,3:2:0:0:
207,172,8515,2,0,P|255:165|290:137,1,85,2|0,0:0|3:0,0:0:0:0:
251,344,8843,2,0,P|220:305|179:288,1,85,0|0,0:0|3:0,0:0:0:0:
28,349,9171,6,0,B|68:312|68:312|43:190,1,152.999995330811,6|0,3:2|0:0,0:0:0:0:
26,128,9499,1,0,0:0:0:0:
207,172,9663,1,0,3:0:0:0:
48,215,9827,1,2,0:0:0:0:
229,85,9991,1,2,3:2:0:0:
175,303,10154,1,2,0:0:0:0:
175,303,10236,1,8,0:0:0:0:
175,303,10318,1,2,3:2:0:0:
142,109,10482,1,2,0:0:0:0:
276,364,10646,5,4,3:2:0:0:
379,136,10810,2,0,L|267:152,1,85,10|0,0:0|0:0,0:0:0:0:
468,62,11138,5,4,3:2:0:0:
365,290,11302,2,0,L|477:274,1,85,10|0,0:0|0:0,0:0:0:0:
276,364,11630,5,4,3:2:0:0:
217,118,11794,2,0,P|261:126|301:155,1,85,10|0,0:0|0:0,0:0:0:0:
106,41,12122,5,4,3:2:0:0:
47,287,12286,2,0,P|91:279|131:250,1,85,10|8,0:0|0:0,0:0:0:0:
171,188,12532,1,8,0:0:0:0:
171,188,12614,5,8,0:0:0:0:
394,329,12777,1,8,0:0:0:0:
207,263,12941,1,8,0:0:0:0:
377,232,13105,1,8,0:0:0:0:
301,296,13269,5,0,3:0:0:0:
314,52,13597,1,2,0:0:0:0:
440,178,13925,2,0,P|384:198|301:163,1,136,2|2,1:2|0:0,0:0:0:0:
208,114,14417,2,0,P|229:180|239:263,2,136,2|2|2,0:0|0:0|0:0,0:0:0:0:
156,51,15236,1,0,1:0:0:0:
0,165,15400,2,0,B|80:168|51:119|148:129,1,136,2|2,0:0|0:0,0:0:0:0:
227,259,15892,6,0,P|188:269|122:189,2,136,0|0|0,3:2|0:0|1:0,0:0:0:0:
295,194,16712,1,2,0:0:0:0:
318,286,16876,1,2,0:0:0:0:
204,167,17040,2,0,L|224:23,1,136,2|0,0:0|0:0,0:0:0:0:
113,140,17532,1,2,0:0:0:0:
295,194,17695,1,2,0:0:0:0:
136,233,17859,1,2,1:2:0:0:
318,101,18023,2,0,B|394:99|366:147|453:146,1,136,2|0,0:0|0:0,0:0:0:0:
295,194,18515,6,0,P|267:224|271:318,1,136,2|0,3:2|0:0,0:0:0:0:
92,168,19171,2,0,P|131:176|211:126,1,136,2|2,1:2|0:0,0:0:0:0:
284,71,19663,2,0,B|312:65|337:52|337:52|311:122|289:210,1,204,2|2,0:0|0:0,0:0:0:0:
208,333,20482,2,0,P|246:295|350:303,1,136,2|2,1:2|0:0,0:0:0:0:
417,326,20974,1,2,0:0:0:0:
396,238,21138,6,0,P|403:171|436:86,1,136,2|0,3:2|0:0,0:0:0:0:
473,40,21630,1,2,0:0:0:0:
335,113,21794,2,0,B|257:120|283:69|192:74,1,136,2|0,1:2|0:0,0:0:0:0:
97,163,22286,2,0,B|117:135|114:98|114:98|125:131|155:150,1,136
109,256,22777,2,0,L|35:246,1,68
208,73,23105,2,0,L|282:63,1,68
275,63,23597,1,2,0:0:0:0:
263,76,23678,1,2,0:0:0:0:
255,91,23761,6,0,B|225:169|281:160|255:253,1,152.999995330811,4|2,3:2|0:0,0:0:0:0:
118,289,24417,2,0,P|95:247|183:219,1,152.999995330811,10|2,0:0|0:0,0:0:0:0:
233,328,24909,2,0,P|272:331|322:310,1,76.4999976654053,2|0,3:2|0:0,0:0:0:0:
383,169,25236,2,0,P|360:201|354:255,1,76.4999976654053,2|0,3:2|0:0,0:0:0:0:
445,378,25564,2,0,P|428:342|384:309,1,76.4999976654053,10|0,0:0|0:0,0:0:0:0:
353,237,25892,2,0,P|314:244|271:277,1,76.4999976654053,2|0,0:0|1:0,0:0:0:0:
218,333,26220,1,2,0:0:0:0:
164,149,26384,6,0,B|77:151|115:206|9:205,2,152.999995330811,0|0|8,3:2|0:0|0:0,0:0:0:0:
191,242,27204,1,2,0:0:0:0:
256,173,27368,1,2,0:0:0:0:
143,75,27532,2,0,L|169:168,1,76.4999976654053,2|0,3:2|0:0,0:0:0:0:
297,39,27859,1,0,3:0:0:0:
297,39,28023,2,0,L|203:15,1,76.4999976654053,2|8,3:0|0:0,0:0:0:0:
304,135,28351,1,0,3:0:0:0:
383,80,28515,1,0,3:0:0:0:
399,270,28679,2,0,L|481:250,1,76.4999976654053,8|0,1:2|0:0,0:0:0:0:
299,353,29007,6,0,P|238:341|221:243,1,152.999995330811,6|0,3:2|0:0,0:0:0:0:
266,95,29663,2,0,B|281:89|302:79|302:79|287:132|274:202,1,152.999995330811,10|2,0:0|0:0,0:0:0:0:
212,261,30154,2,0,B|120:243|158:316|31:288,1,152.999995330811,2|0,3:2|3:0,0:0:0:0:
22,156,30646,2,0,P|67:187|91:219,1,76.4999976654053,2|8,3:2|0:0,0:0:0:0:
96,14,30974,2,0,P|46:37|6:42,1,76.4999976654053,2|0,0:0|3:0,0:0:0:0:
182,150,31302,2,0,P|186:95|202:58,1,76.4999976654053,10|0,0:0|0:0,0:0:0:0:
230,257,31630,6,0,B|285:286|285:286|382:231,1,152.999995330811,2|0,3:2|0:0,0:0:0:0:
442,184,32122,1,2,0:0:0:0:
372,52,32286,2,0,B|327:41|327:41|358:162,1,152.999995330811,10|0,0:0|0:0,0:0:0:0:
281,233,32777,2,0,P|245:208|205:198,1,76.4999976654053,0|0,3:0|0:0,0:0:0:0:
128,346,33105,1,8,0:0:0:0:
128,346,33269,2,0,P|164:334|195:311,1,76.4999976654053,0|0,3:0|0:0,0:0:0:0:
55,203,33597,6,0,P|46:240|50:278,1,76.4999976654053,2|0,3:2|3:0,0:0:0:0:
215,211,33925,2,0,P|186:185|152:169,1,76.4999976654053,10|0,0:0|0:0,0:0:0:0:
362,47,34253,6,0,P|343:114|322:211,1,161.499995687485,6|0,3:2|3:0,0:0:0:0:
312,297,34745,1,2,0:0:0:0:
252,128,34910,2,0,P|242:94|231:45,1,80.7499978437424,2|0,3:0|0:0,0:0:0:0:
403,211,35236,1,0,3:2:0:0:
403,211,35400,6,0,P|411:171|422:132,1,80.7499978437424,2|0,0:0|3:0,0:0:0:0:
289,311,35728,1,0,0:0:0:0:
289,311,35892,2,0,P|246:322|209:308,1,80.7499978437424,2|0,3:2|0:0,0:0:0:0:
126,165,36220,1,0,3:0:0:0:
131,286,36383,1,2,0:0:0:0:
145,272,36465,1,8,0:0:0:0:
149,252,36547,1,2,3:2:0:0:
31,342,36712,1,2,0:0:0:0:
143,153,36876,6,0,L|244:171,1,80.7499978437424,6|0,3:2|0:0,0:0:0:0:
101,55,37204,1,2,3:2:0:0:
69,266,37368,2,0,L|170:248,1,80.7499978437424,2|0,0:0|3:0,0:0:0:0:
260,84,37695,2,0,L|159:66,1,80.7499978437424,2|0,0:0|3:0,0:0:0:0:
291,265,38023,6,0,L|371:251,1,80.7499978437424,2|0,0:0|3:0,0:0:0:0:
222,167,38351,1,2,0:0:0:0:
229,347,38515,2,0,L|308:361,1,80.7499978437424,2|0,3:2|0:0,0:0:0:0:
387,375,38762,1,8,0:0:0:0:
387,375,38844,1,0,3:2:0:0:
189,252,39007,1,8,0:3:0:0:
427,280,39171,1,8,0:3:0:0:
229,347,39335,1,0,0:0:0:0:
291,265,39499,5,2,3:2:0:0:
282,295,44745,6,0,L|311:123,1,152.999995330811,2|0,3:2|0:0,0:0:0:0:
170,57,45236,2,0,L|199:229,1,152.999995330811,2|0,3:2|0:0,0:0:0:0:
295,59,45728,2,0,B|381:53|346:113|461:105,1,152.999995330811,2|0,3:2|0:0,0:0:0:0:
512,53,46220,5,0,3:0:0:0:
383,209,46384,2,0,L|403:292,1,76.4999976654053,8|0,0:0|0:0,0:0:0:0:
436,105,46712,1,0,3:0:0:0:
436,105,46876,1,0,3:0:0:0:
307,261,47041,2,0,L|224:241,1,76.4999976654053,8|0,0:0|0:0,0:0:0:0:
0,328,47368,6,0,P|52:300|90:211,1,152.999995330811,2|0,3:2|0:0,0:0:0:0:
232,243,47859,2,0,P|181:211|85:222,1,152.999995330811,2|0,3:2|0:0,0:0:0:0:
42,85,48351,2,0,P|39:144|97:222,1,152.999995330811,2|0,3:2|3:0,0:0:0:0:
184,40,48843,5,8,0:0:0:0:
215,135,49007,2,0,L|110:117,1,76.4999976654053
291,64,49335,6,0,P|311:73|330:92,5,25.4999992218018,2|2|2|2|2|2,0:0|0:0|0:0|0:0|0:0|0:0,0:0:0:0:
396,95,49663,2,0,P|403:115|403:142,5,25.4999992218018,2|2|2|2|2|2,0:0|0:0|0:0|0:0|0:0|0:0,0:0:0:0:
448,190,49991,6,0,P|341:225|241:175,1,204,2|0,3:2|0:0,0:0:0:0:
157,128,50646,2,0,P|167:187|193:268,1,136,8|0,0:0|0:0,0:0:0:0:
359,41,51302,1,2,3:2:0:0:
359,41,51466,6,0,P|305:42|254:108,1,136,0|0,3:0|0:0,0:0:0:0:
268,233,51958,2,0,B|290:250|310:269|310:269|323:194|343:106,1,204,10|0,0:0|0:0,0:0:0:0:
359,41,52614,5,2,0:0:0:0:
256,192,52695,12,0,54253,0:0:0:0:
408,155,54581,5,8,3:2:0:0:
91,234,54745,1,8,3:2:0:0:
91,234,55073,6,0,P|141:175|269:219,1,187.000005706787,6|0,3:2|0:0,0:0:0:0:
283,276,55564,1,10,0:0:0:0:
185,267,55728,1,2,0:0:0:0:
340,195,55892,1,2,3:2:0:0:
226,357,56056,2,0,L|122:367,1,93.5000028533936,2|8,3:2|0:0,0:0:0:0:
124,201,56384,6,0,P|167:230|186:288,1,93.5000028533936,2|0,0:0|3:0,0:0:0:0:
256,16,56712,2,0,P|209:39|149:26,1,93.5000028533936,2|8,0:0|0:0,0:0:0:0:
350,222,57040,1,2,0:0:0:0:
350,222,57204,2,0,P|353:169|394:123,1,93.5000028533936,2|0,3:2|3:0,0:0:0:0:
433,328,57532,1,8,0:0:0:0:
270,149,57695,6,0,B|168:134|210:216|95:198,1,187.000005706787,2|0,3:2|3:0,0:0:0:0:
1,171,58187,1,8,0:0:0:0:
139,24,58351,2,0,P|141:74|114:126,1,93.5000028533936,2|0,0:0|3:0,0:0:0:0:
15,260,58679,2,0,P|-2:216|0:170,1,93.5000028533936,2|8,3:0|0:0,0:0:0:0:
162,326,59007,1,2,0:0:0:0:
290,125,59171,5,2,3:2:0:0:
98,198,59335,1,0,0:0:0:0:
354,292,59499,1,8,0:0:0:0:
194,162,59663,1,0,0:0:0:0:
411,224,59827,5,2,3:2:0:0:
177,263,59991,1,2,3:2:0:0:
441,307,60154,1,10,0:0:0:0:
290,125,60318,1,2,0:0:0:0:
140,358,60482,6,0,P|91:359|68:242,1,187.000005706787,4|10,3:2|0:0,0:0:0:0:
198,173,60974,2,0,P|189:218|174:263,1,93.5000028533936,2|2,0:0|3:2,0:0:0:0:
36,166,61302,2,0,P|21:124|11:60,1,93.5000028533936,2|8,3:2|0:0,0:0:0:0:
292,283,61630,6,0,P|339:280|390:233,1,93.5000028533936,2|0,0:0|3:0,0:0:0:0:
215,85,61958,2,0,P|194:127|209:194,1,93.5000028533936,2|8,0:0|0:0,0:0:0:0:
424,117,62286,2,0,P|397:77|331:57,1,93.5000028533936,2|0,0:0|3:0,0:0:0:0:
197,172,62614,2,0,P|245:168|295:121,1,93.5000028533936,2|8,3:2|0:0,0:0:0:0:
148,27,62941,1,2,0:0:0:0:
114,200,63105,6,0,L|19:170,1,93.5000028533936,0|0,3:0|0:0,0:0:0:0:
215,85,63433,1,8,0:0:0:0:
249,258,63597,2,0,L|344:228,1,93.5000028533936,2|0,0:0|3:0,0:0:0:0:
197,172,63925,1,0,3:0:0:0:
163,344,64089,1,10,0:0:0:0:
114,200,64253,1,2,0:0:0:0:
338,229,64417,5,14,0:0:0:0:
24,171,64581,1,2,0:0:0:0:
349,60,64745,5,10,0:0:0:0:
114,200,64909,1,2,0:0:0:0:
403,342,65073,5,10,0:0:0:0:
273,116,65236,1,2,0:0:0:0:
273,116,65564,6,0,P|346:92|428:72,1,152.999995330811,6|0,3:2|0:0,0:0:0:0:
469,207,66056,2,0,P|432:195|391:185,1,76.4999976654053,2|2,3:2|0:0,0:0:0:0:
276,209,66384,1,8,0:0:0:0:
343,271,66548,2,0,P|335:315|297:357,1,76.4999976654053,2|0,0:0|0:0,0:0:0:0:
203,222,66876,6,0,P|245:206|300:218,1,76.4999976654053,2|0,0:0|3:0,0:0:0:0:
231,368,67204,2,0,P|195:339|179:285,1,76.4999976654053,2|0,3:2|0:0,0:0:0:0:
223,132,67532,1,0,0:0:0:0:
113,248,67695,1,8,0:0:0:0:
125,150,67859,2,0,P|88:153|40:183,1,76.4999976654053
171,56,68187,1,2,3:2:0:0:
275,208,68351,6,0,L|448:174,1,152.999995330811,4|0,3:2|0:0,0:0:0:0:
487,117,68843,2,0,P|508:149|509:187,1,76.4999976654053,2|8,0:0|0:0,0:0:0:0:
339,159,69171,2,0,P|357:125|389:105,1,76.4999976654053
450,267,69499,1,0,0:0:0:0:
450,266,69663,2,0,P|412:268|378:251,1,76.4999976654053,0|0,3:0|3:0,0:0:0:0:
378,251,70318,6,0,P|412:268|450:267,1,76.4999976654053,8|0,0:0|3:0,0:0:0:0:
339,159,70646,1,8,0:0:0:0:
276,311,70810,1,8,0:0:0:0:
268,328,70891,1,8,0:0:0:0:
261,346,70974,6,0,B|155:359|199:276|70:304,1,187.000005706787,6|10,3:2|0:0,0:0:0:0:
261,209,71466,2,0,P|307:183|364:131,1,93.5000028533936,2|0,0:0|3:0,0:0:0:0:
152,70,71794,2,0,P|151:123|167:198,1,93.5000028533936,2|8,3:2|0:0,0:0:0:0:
326,45,72122,1,2,0:0:0:0:
417,229,72286,6,0,B|441:253|448:280|448:280|492:152,1,187.000005706787,4|10,3:2|0:0,0:0:0:0:
341,315,72777,2,0,P|302:340|256:346,1,93.5000028533936,2|0,0:0|3:0,0:0:0:0:
404,129,73105,2,0,P|449:135|488:160,1,93.5000028533936,2|8,3:0|0:0,0:0:0:0:
232,234,73433,6,0,L|260:15,1,187.000005706787,6|2,3:2|3:2,0:0:0:0:
417,229,73925,1,10,0:0:0:0:
256,346,74089,1,2,0:0:0:0:
404,129,74253,1,2,3:2:0:0:
493,356,74417,2,0,L|401:328,1,93.5000028533936,2|8,0:0|0:0,0:0:0:0:
242,246,74745,6,0,P|194:263|170:316,1,93.5000028533936,2|0,0:0|3:0,0:0:0:0:
32,149,75073,2,0,P|80:166|104:219,1,93.5000028533936,2|8,0:0|0:0,0:0:0:0:
242,52,75400,2,0,P|194:69|170:122,1,93.5000028533936,2|0,0:0|3:0,0:0:0:0:
341,276,75728,6,0,L|353:211,1,46.7500014266968,10|8,0:0|0:0,0:0:0:0:
382,46,75893,1,0,3:0:0:0:
214,333,76056,6,0,L|202:268,1,46.7500014266968,8|8,0:0|0:0,0:0:0:0:
172,103,76220,6,0,B|272:86|237:160|350:132,1,170,6|8,3:2|0:0,0:0:0:0:
196,194,76712,1,0,0:0:0:0:
392,80,76876,1,0,3:0:0:0:
341,276,77040,2,0,P|293:278|246:254,1,85,0|8,3:0|0:0,0:0:0:0:
434,153,77368,6,0,B|470:195|470:195|441:312,1,152.999995330811,4|0,3:2|0:0,0:0:0:0:
422,377,77695,1,0,0:0:0:0:
358,265,77859,1,8,0:0:0:0:
434,153,78023,1,0,0:0:0:0:
334,353,78187,1,0,3:0:0:0:
290,156,78351,1,0,3:0:0:0:
446,289,78515,1,8,0:0:0:0:
358,60,78679,1,0,0:0:0:0:
222,252,78843,6,0,B|131:262|170:187|41:219,1,152.999995330811,4|0,3:2|0:0,0:0:0:0:
0,244,79171,1,8,0:0:0:0:
207,168,79335,1,0,0:0:0:0:
96,296,79498,1,0,3:0:0:0:
64,127,79663,1,0,3:0:0:0:
2,353,79827,1,8,0:0:0:0:
157,88,79991,6,0,L|137:0,1,85,0|0,3:0|0:0,0:0:0:0:
79,211,80318,1,0,3:0:0:0:
280,105,80482,2,0,L|300:17,1,85,8|0,0:0|0:0,0:0:0:0:
353,259,80810,1,0,3:0:0:0:
207,167,80974,5,0,3:0:0:0:
444,113,81138,1,8,0:0:0:0:
298,22,81302,1,0,0:0:0:0:
353,259,81466,2,0,L|327:356,1,85,4|0,3:2|0:0,0:0:0:0:
280,104,81794,1,8,0:0:0:0:
225,262,81958,1,0,0:0:0:0:
225,262,82040,1,0,0:0:0:0:
225,262,82122,2,0,L|128:288,1,85,0|0,3:0|0:0,0:0:0:0:
181,142,82450,1,8,0:0:0:0:
153,374,82614,6,0,P|109:369|69:333,1,85,0|0,3:0|0:0,0:0:0:0:
295,210,82941,1,0,0:0:0:0:
295,210,83105,2,0,P|312:249|301:303,1,85,8|0,0:0|0:0,0:0:0:0:
81,169,83433,2,0,P|106:134|158:116,1,85,0|0,3:0|3:0,0:0:0:0:
153,374,83761,2,0,P|109:369|69:333,1,85,8|0,0:0|0:0,0:0:0:0:
253,94,84089,5,6,3:2:0:0:
144,290,84253,2,0,L|229:278,1,85,8|0,0:0|0:0,0:0:0:0:
278,96,84581,5,6,3:2:0:0:
123,258,84745,2,0,L|207:268,1,85,8|0,0:0|0:0,0:0:0:0:
302,105,85072,5,6,3:2:0:0:
110,221,85236,2,0,L|189:252,1,85,8|0,0:0|0:0,0:0:0:0:
323,120,85564,5,6,3:2:0:0:
107,183,85728,1,8,0:0:0:0:
399,282,85892,5,8,0:0:0:0:
