osu file format v14

[General]
AudioFilename: audio.mp3
AudioLeadIn: 0
PreviewTime: 54245
Countdown: 0
SampleSet: Soft
StackLeniency: 0.5
Mode: 0
LetterboxInBreaks: 0
WidescreenStoryboard: 1

[Editor]
Bookmarks: 2769
DistanceSpacing: 1.1
BeatDivisor: 4
GridSize: 4
TimelineZoom: 1.9

[Metadata]
Title:Shiny Ray (TV Size)
TitleUnicode:Shiny Ray (TV Size)
Artist:YURiKA
ArtistUnicode:YURiKA
Creator:Gottagof4st
Version:Zelq's Insane
Source:リトルウィッチアカデミア
Tags:lwa little witch academia Sotarks Icekalt bite_you_death CelsiusLK ametrin Nextplay Onlybiscuit Yasaija714 Celektus Zelq yaspo Chaoticred Serizawa byd ggf gottagofast Haruki Jack J_a_c_k My_Angel_Kanan Yudragen bite you death
BeatmapID:1864235
BeatmapSetID:584389

[Difficulty]
HPDrainRate:5.5
CircleSize:3
OverallDifficulty:8
ApproachRate:8.8
SliderMultiplier:1.7
SliderTickRate:1

[Events]
//Background and Video events
0,0,"lwa bg.jpg",0,0
Video,-170,"OP.avi"
//Break Periods
//Storyboard Layer 0 (Background)
//Storyboard Layer 1 (Fail)
//Storyboard Layer 2 (Pass)
//Storyboard Layer 3 (Foreground)
//Storyboard Sound Samples

[TimingPoints]
155,327.868852459016,4,2,4,10,1,0
2777,-99.9999999999999,4,2,4,60,0,0
7450,-99.9999999999999,4,2,4,5,0,0
7532,-99.9999999999999,4,2,4,60,0,0
13269,-166.666666666667,4,2,4,30,0,0
23761,-125,4,2,4,45,0,0
34253,-111.111111111111,4,2,4,50,0,0
39499,-249.999999999999,4,2,4,20,0,0
42122,-249.999999999999,4,2,4,25,0,0
42777,-249.999999999999,4,2,4,30,0,0
43433,-249.999999999999,4,2,4,35,0,0
44089,-249.999999999999,4,2,4,40,0,0
44745,-125,4,2,4,30,0,0
49991,-142.857142857143,4,2,4,40,0,0
52614,-142.857142857143,4,2,4,25,0,0
54417,-142.857142857143,4,2,4,25,0,0
54581,-111.111111111111,4,2,4,50,0,0
55073,-83.3333333333333,4,2,4,70,0,1
65564,-100,4,2,4,70,0,0
70974,-83.3333333333333,4,2,4,70,0,1
76220,-100,4,2,4,60,0,0

[Colours]
Combo1 : 255,102,204
Combo2 : 0,255,255
Combo3 : 128,0,255

[HitObjects]
22,73,2777,6,0,L|136:75,1,85,6|0,3:2|0:0,0:0:0:0:
170,183,3105,2,0,L|284:180,1,85,2|2,3:2|0:2,0:0:0:0:
338,43,3433,1,2,3:2:0:0:
209,78,3597,1,2,0:2:0:0:
379,180,3761,1,2,3:2:0:0:
167,276,3925,6,0,P|88:238|74:152,1,170,2|2,0:3|0:2,0:0:0:0:
209,78,4417,2,0,L|323:85,1,85,0|2,3:2|0:2,0:0:0:0:
482,173,4745,1,2,3:2:0:0:
292,250,4909,1,2,0:2:0:0:
292,250,4991,1,0,1:2:0:0:
292,250,5073,1,2,1:2:0:0:
398,91,5236,1,8,0:3:0:0:
479,307,5400,6,0,B|492:345|492:345|362:332,1,170,6|2,3:2|3:2,0:0:0:0:
203,309,5892,1,2,0:2:0:0:
349,178,6056,1,2,3:2:0:0:
155,185,6220,2,0,L|45:192,1,85,2|2,0:2|3:2,0:0:0:0:
217,45,6548,6,0,P|289:92|315:180,1,170,2|2,1:2|0:2,0:0:0:0:
203,309,7040,2,0,P|245:283|293:277,1,85,2|8,3:2|0:3,0:0:0:0:
454,316,7368,2,0,L|462:375,1,42.5,4|0,3:3|0:0,0:0:0:0:
375,221,7532,2,0,L|366:280,1,42.5,2|0,1:2|1:2,0:0:0:0:
506,152,7695,2,0,L|514:211,2,42.5,2|8|8,1:2|0:3|0:3,0:0:0:0:
354,20,8023,6,0,P|309:12|264:25,1,85,6|2,3:2|0:2,0:0:0:0:
170,103,8351,1,2,3:2:0:0:
29,33,8515,2,0,P|115:23|186:77,1,170,2|0,0:2|0:0,0:0:0:0:
223,199,9007,1,2,3:2:0:0:
66,300,9171,6,0,B|45:245|45:245|83:140,1,170,2|0,0:3|0:0,0:0:0:0:
214,235,9663,2,0,L|312:235,1,85,2|2,3:2|0:2,0:0:0:0:
422,163,9991,1,2,3:2:0:0:
340,335,10154,1,8,0:3:0:0:
340,335,10236,1,8,0:3:0:0:
340,335,10318,1,4,0:3:0:0:
293,133,10482,1,4,0:3:0:0:
246,357,10646,5,6,1:2:0:0:
397,254,10810,2,0,L|499:256,1,85,2|0,1:2|3:2,0:0:0:0:
354,358,11138,5,6,1:2:0:0:
214,235,11302,2,0,L|111:237,1,85,2|2,1:2|0:2,0:0:0:0:
225,384,11630,5,6,1:2:0:0:
304,222,11794,1,0,1:2:0:0:
304,222,12122,5,0,1:2:0:0:
139,130,12286,1,0,1:2:0:0:
373,64,12450,1,0,0:0:0:0:
373,64,12532,1,0,1:2:0:0:
373,64,12614,1,2,1:2:0:0:
418,233,12777,1,2,1:2:0:0:
258,112,12941,1,2,1:2:0:0:
209,262,13105,1,2,1:2:0:0:
304,222,13269,5,0,3:2:0:0:
225,107,13597,1,2,0:2:0:0:
90,146,13925,1,2,1:2:0:0:
84,286,14253,1,2,0:2:0:0:
84,286,14417,2,0,P|132:323|195:326,1,101.999996887207,2|2,3:2|0:2,0:0:0:0:
304,222,15073,1,2,0:2:0:0:
304,222,15236,2,0,P|337:219|364:227,2,50.9999984436036,0|2|0,1:2|0:2|0:0,0:0:0:0:
175,242,15728,1,2,0:2:0:0:
175,242,15892,6,0,P|162:170|212:89,1,152.999995330811,0|0,3:2|0:0,0:0:0:0:
290,112,16548,2,0,P|286:147|272:165,2,50.9999984436036,0|2|2,1:2|0:2|0:2,0:0:0:0:
259,12,17040,2,0,L|381:15,1,101.999996887207,2|0,3:2|0:0,0:0:0:0:
467,20,17532,1,2,3:2:0:0:
467,20,17695,1,2,0:2:0:0:
418,106,17859,1,2,1:2:0:0:
417,106,18023,2,0,P|379:191|400:253,1,152.999995330811,2|6,0:2|3:2,0:0:0:0:
394,244,19171,6,0,P|352:211|299:212,1,101.999996887207,2|2,1:2|0:2,0:0:0:0:
234,296,19663,1,2,3:2:0:0:
56,250,20154,1,2,3:2:0:0:
162,162,20482,1,2,1:2:0:0:
191,291,20810,2,0,L|192:356,1,50.9999984436036,2|2,0:2|0:2,0:0:0:0:
278,238,21138,6,0,P|323:214|477:262,2,203.999993774414,2|2|0,3:2|1:2|0:0,0:0:0:0:
191,291,22614,1,2,0:2:0:0:
90,237,22777,1,2,3:2:0:0:
110,108,22941,1,2,0:2:0:0:
203,193,23105,5,2,0:2:0:0:
0,163,23269,1,2,0:2:0:0:
228,51,23761,6,0,B|279:42|279:42|364:81,1,136,6|2,3:2|0:2,0:0:0:0:
467,63,24253,1,2,0:2:0:0:
404,181,24417,2,0,P|362:192|269:149,1,136,2|2,1:2|0:2,0:0:0:0:
207,254,24909,2,0,P|247:260|290:248,1,68,2|0,3:2|0:0,0:0:0:0:
154,184,25236,2,0,P|128:215|116:259,1,68,2|0,3:2|0:0,0:0:0:0:
214,350,25564,1,2,1:2:0:0:
207,254,25728,1,0,0:0:0:0:
115,349,25892,1,2,3:2:0:0:
25,242,26056,2,0,L|22:162,1,68,2|2,0:3|0:2,0:0:0:0:
109,52,26384,6,0,L|114:220,1,136,0|0,3:2|0:0,0:0:0:0:
114,304,26876,1,0,0:0:0:0:
208,233,27040,2,0,P|250:222|298:228,2,68,0|2|2,1:2|0:2|0:2,0:0:0:0:
313,311,27532,2,0,P|348:286|363:191,1,136,2|0,3:2|3:2,0:0:0:0:
325,112,28023,1,2,3:2:0:0:
211,102,28187,1,0,1:2:0:0:
274,222,28351,1,2,0:2:0:0:
339,80,28515,1,2,3:2:0:0:
179,208,28679,2,0,P|159:272|170:338,1,136,2|6,1:3|3:2,0:0:0:0:
170,338,29663,6,0,L|312:335,1,136,2|2,1:2|0:2,0:0:0:0:
398,244,30154,2,0,L|256:241,1,136,2|0,3:2|3:2,0:0:0:0:
129,237,30646,1,2,0:2:0:0:
245,157,30810,1,0,1:2:0:0:
141,131,30974,2,0,P|99:129|62:133,1,68,2|0,0:2|3:2,0:0:0:0:
215,62,31302,2,0,P|257:60|294:64,1,68,2|0,0:3|0:0,0:0:0:0:
426,147,31630,6,0,P|451:104|431:18,1,136,2|0,3:2|0:0,0:0:0:0:
326,151,32122,1,2,0:2:0:0:
326,151,32204,1,0,0:0:0:0:
326,151,32286,2,0,P|305:209|346:297,1,136,2|0,1:2|0:0,0:0:0:0:
431,343,32777,2,0,P|441:311|436:277,1,68,0|0,3:2|0:0,0:0:0:0:
301,360,33105,1,0,1:2:0:0:
301,360,33269,1,0,0:0:0:0:
354,239,33433,1,0,3:2:0:0:
201,188,33597,2,0,L|133:188,1,68,2|0,1:2|3:2,0:0:0:0:
328,148,33925,2,0,L|396:148,1,68,2|0,1:2|0:0,0:0:0:0:
199,45,34253,6,0,P|177:96|211:199,1,152.999995330811,6|0,3:2|3:2,0:0:0:0:
240,282,34745,1,2,0:2:0:0:
136,251,34909,2,0,P|91:248|55:258,1,76.4999976654053,2|0,3:2|0:0,0:0:0:0:
173,358,35236,1,2,3:2:0:0:
269,266,35400,1,2,0:2:0:0:
387,365,35564,6,0,P|373:322|393:213,1,152.999995330811,0|2,3:2|3:2,0:0:0:0:
471,140,36056,1,0,0:0:0:0:
378,53,36220,2,0,P|340:45|303:53,1,76.4999976654053,0|2,3:2|0:2,0:0:0:0:
232,124,36466,1,0,1:2:0:0:
232,124,36548,2,0,P|181:130|140:114,1,76.4999976654053,2|2,1:2|0:2,0:0:0:0:
65,38,36876,6,0,P|34:98|59:200,1,152.999995330811,6|2,3:2|3:2,0:0:0:0:
118,273,37368,2,0,P|142:223|142:179,2,76.4999976654053,2|0|2,0:2|3:2|0:2,0:0:0:0:
184,365,37859,2,0,L|99:361,1,76.4999976654053,0|2,3:2|0:2,0:0:0:0:
281,320,38187,6,0,L|366:316,1,76.4999976654053,2|2,3:3|0:2,0:0:0:0:
449,250,38515,1,2,3:3:0:0:
323,134,38679,1,2,0:2:0:0:
323,134,38761,1,0,1:0:0:0:
323,134,38843,1,2,1:2:0:0:
474,79,39007,1,8,0:3:0:0:
361,213,39171,1,8,0:3:0:0:
283,46,39335,1,4,0:3:0:0:
227,128,39499,6,0,P|132:141|40:77,1,203.999993774414,2|2,0:2|0:2,0:0:0:0:
30,205,40810,2,0,P|125:218|217:154,1,203.999993774414,2|2,0:2|0:2,0:0:0:0:
276,234,42122,2,0,P|296:291|276:374,2,136,2|2|2,0:2|0:2|0:2,0:0:0:0:
167,284,44089,2,0,L|124:288,1,34,2|0,0:2|0:0,0:0:0:0:
227,344,44417,2,0,L|270:348,1,34,0|0,0:0|0:0,0:0:0:0:
274,262,44745,6,0,P|292:208|259:122,1,136,2|0,0:2|0:0,0:0:0:0:
296,21,45236,2,0,P|333:63|424:78,1,136,2|0,0:2|0:0,0:0:0:0:
494,161,45728,2,0,P|438:172|380:243,1,136,2|0,0:2|0:0,0:0:0:0:
434,319,46220,1,0,3:0:0:0:
283,256,46384,2,0,P|302:300|322:321,1,68,0|0,1:0|0:0,0:0:0:0:
315,157,46712,1,0,3:0:0:0:
315,157,46876,1,0,3:0:0:0:
189,222,47040,2,0,P|182:255|185:289,1,68,0|0,1:0|0:0,0:0:0:0:
39,99,47368,6,0,B|79:121|79:121|173:94,1,136,2|0,0:2|0:0,0:0:0:0:
260,2,47859,2,0,P|306:42|299:129,1,136,2|0,0:2|0:0,0:0:0:0:
197,198,48351,2,0,P|269:186|327:221,1,136,2|0,0:2|3:0,0:0:0:0:
362,361,48843,1,0,1:0:0:0:
295,299,49007,1,0,3:0:0:0:
231,369,49171,1,0,3:0:0:0:
159,304,49335,2,0,P|159:270|166:237,1,68,8|4,3:3|3:3,0:0:0:0:
225,182,49581,1,0,0:0:0:0:
225,182,49663,2,0,P|222:132|207:93,1,68,6|0,1:2|3:0,0:0:0:0:
123,77,49991,6,0,P|113:107|113:142,2,59.4999981842042,6|0|2,3:2|0:0|0:3,0:0:0:0:
227,90,50482,1,0,3:0:0:0:
227,90,50646,2,0,L|304:95,1,59.4999981842042,2|0,1:3|0:0,0:0:0:0:
354,26,50974,2,0,L|431:21,1,59.4999981842042,2|0,0:3|0:0,0:0:0:0:
493,100,51302,5,2,3:3:0:0:
389,236,51466,1,0,1:0:0:0:
367,137,51630,2,0,P|396:138|425:144,1,59.4999981842042,2|0,0:3|3:0,0:0:0:0:
370,265,51958,2,0,P|323:269|246:172,1,178.499994552612,2|0,1:3|0:0,0:0:0:0:
354,26,52614,5,0,0:0:0:0:
256,192,52695,12,0,54417,0:0:0:0:
114,175,54581,5,4,1:3:0:0:
431,136,54745,1,4,1:3:0:0:
105,73,55073,6,0,P|16:113|8:210,1,203.999993774414,6|0,3:2|0:0,0:0:0:0:
134,327,55564,2,0,P|85:349|32:343,1,101.999996887207,2|2,1:2|0:2,0:0:0:0:
194,240,55892,2,0,P|243:218|296:224,1,101.999996887207,2|2,3:2|3:2,0:0:0:0:
387,351,56220,1,0,1:2:0:0:
260,310,56384,1,2,0:2:0:0:
423,204,56548,6,0,P|431:149|300:85,1,203.999993774414,0|0,3:2|1:2,0:0:0:0:
209,173,57040,1,2,3:2:0:0:
204,19,57204,1,2,0:2:0:0:
307,110,57368,1,2,3:2:0:0:
125,76,57532,2,0,P|63:77|13:101,1,101.999996887207,0|2,1:2|0:2,0:0:0:0:
172,243,57859,6,0,P|214:160|201:44,1,203.999993774414,0|2,3:2|1:2,0:0:0:0:
303,193,58351,2,0,P|355:199|411:180,1,101.999996887207,2|0,3:2|0:0,0:0:0:0:
462,72,58679,2,0,P|410:66|354:85,1,101.999996887207,2|0,3:2|1:2,0:0:0:0:
295,223,59007,1,2,0:2:0:0:
102,103,59171,5,2,3:2:0:0:
271,64,59335,1,2,3:2:0:0:
102,199,59499,1,2,1:2:0:0:
287,255,59663,1,2,3:2:0:0:
135,104,59827,2,0,P|125:54|141:2,1,101.999996887207,2|2,0:2|3:2,0:0:0:0:
208,170,60154,1,2,1:2:0:0:
281,30,60318,1,2,0:2:0:0:
436,140,60482,6,0,P|427:218|303:252,1,203.999993774414,4|2,3:2|1:2,0:0:0:0:
253,95,60974,2,0,P|302:66|360:64,1,101.999996887207,2|2,3:2|0:2,0:0:0:0:
248,202,61302,2,0,L|143:203,1,101.999996887207,2|0,3:2|1:2,0:0:0:0:
39,153,61630,1,2,0:2:0:0:
5,294,61794,6,0,P|55:312|117:296,1,101.999996887207,0|2,3:2|3:2,0:0:0:0:
221,233,62122,1,0,1:2:0:0:
349,324,62286,2,0,B|379:347|379:347|393:177,1,203.999993774414,2|2,3:2|3:2,0:0:0:0:
430,27,62777,2,0,P|482:77|494:106,1,101.999996887207,0|2,1:2|0:2,0:0:0:0:
326,64,63105,6,0,L|100:57,1,203.999993774414,2|2,3:2|1:2,0:0:0:0:
58,204,63597,2,0,L|174:198,1,101.999996887207,2|0,3:2|0:0,0:0:0:0:
111,90,63925,1,0,3:2:0:0:
115,279,64089,2,0,P|172:287|222:265,1,101.999996887207,2|2,1:2|0:2,0:0:0:0:
322,83,64417,5,2,1:2:0:0:
360,310,64581,1,2,3:2:0:0:
185,161,64745,5,2,1:2:0:0:
435,219,64909,1,2,3:2:0:0:
115,279,65073,5,2,1:2:0:0:
463,105,65236,1,2,3:2:0:0:
157,54,65564,6,0,P|96:67|48:176,1,170,6|0,3:2|0:0,0:0:0:0:
159,244,66056,2,0,P|167:215|156:154,1,85,2|2,3:2|0:2,0:0:0:0:
41,292,66384,2,0,B|78:336|78:336|217:335,1,170,2|0,1:2|0:0,0:0:0:0:
331,331,66876,1,2,0:2:0:0:
286,169,67040,5,0,3:2:0:0:
255,278,67204,1,2,1:2:0:0:
391,224,67368,2,0,L|405:107,1,85,0|2,3:2|0:2,0:0:0:0:
355,29,67695,2,0,B|319:67|319:67|175:52,1,170,2|0,1:2|0:0,0:0:0:0:
86,43,68187,1,2,3:2:0:0:
29,156,68351,6,0,P|103:148|177:220,1,170,4|2,3:2|3:2,0:0:0:0:
74,311,68843,2,0,P|72:247|93:211,1,85,2|0,0:2|1:2,0:0:0:0:
185,329,69171,2,0,L|100:334,1,85,2|0,0:2|0:0,0:0:0:0:
201,221,69499,1,2,0:2:0:0:
292,352,69663,5,0,3:2:0:0:
212,308,69827,1,0,1:2:0:0:
350,272,69991,2,0,P|391:265|432:275,1,85,0|0,0:0|3:2,0:0:0:0:
478,128,70318,1,2,1:2:0:0:
408,184,70482,1,2,1:2:0:0:
333,91,70646,1,2,0:2:0:0:
286,180,70810,1,2,1:2:0:0:
133,42,70974,6,0,P|188:15|302:105,1,203.999993774414,4|2,3:2|1:2,0:0:0:0:
146,203,71466,2,0,L|29:193,1,101.999996887207,2|0,0:2|3:2,0:0:0:0:
206,109,71794,1,2,3:2:0:0:
221,262,71958,1,0,1:2:0:0:
99,118,72122,1,2,0:2:0:0:
52,306,72286,6,0,B|91:347|91:347|262:340,1,203.999993774414,4|2,3:2|1:2,0:0:0:0:
383,333,72777,1,2,0:2:0:0:
308,213,72941,2,0,P|257:211|209:229,1,101.999996887207,0|2,3:2|3:2,0:0:0:0:
366,300,73269,2,0,P|399:261|411:206,1,101.999996887207,0|2,1:2|0:2,0:0:0:0:
356,44,73597,5,4,3:2:0:0:
308,213,73761,1,2,0:2:0:0:
338,15,73925,1,2,1:2:0:0:
386,184,74089,1,2,0:2:0:0:
238,75,74253,2,0,P|169:68|106:102,1,101.999996887207,2|2,3:2|3:2,0:0:0:0:
191,189,74581,2,0,P|240:198|289:185,1,101.999996887207,0|2,1:2|0:2,0:0:0:0:
398,77,74909,5,4,3:2:0:0:
452,308,75073,1,2,0:2:0:0:
480,33,75236,1,0,3:2:0:0:
361,273,75400,2,0,P|310:290|240:288,1,101.999996887207,2|0,0:2|3:2,0:0:0:0:
93,178,75728,2,0,L|96:230,1,50.9999984436036,2|0,1:2|1:2,0:0:0:0:
173,361,75892,2,0,L|176:309,1,50.9999984436036,0|0,3:2|3:2,0:0:0:0:
234,149,76056,2,0,L|231:201,1,50.9999984436036,8|4,0:3|0:3,0:0:0:0:
37,331,76220,6,0,B|17:317|17:317|11:170,1,170,6|2,3:2|1:2,0:0:0:0:
5,45,76712,1,2,0:2:0:0:
119,101,76876,2,0,P|159:112|201:109,1,85,2|2,3:2|3:2,0:0:0:0:
331,16,77204,1,2,1:2:0:0:
436,183,77368,6,0,P|392:243|296:242,1,170,2|2,3:2|3:2,0:0:0:0:
201,108,77859,1,2,1:2:0:0:
347,164,78023,1,2,0:2:0:0:
173,247,78187,2,0,P|131:255|89:253,1,85,2|2,3:2|3:2,0:0:0:0:
249,343,78515,2,0,P|290:351|332:349,1,85,2|2,1:2|0:2,0:0:0:0:
451,242,78843,6,0,P|400:211|287:272,1,170,2|2,3:2|1:2,0:0:0:0:
221,364,79335,1,2,0:2:0:0:
164,220,79499,2,0,P|160:166|176:113,1,85,2|2,3:2|3:2,0:0:0:0:
281,220,79827,1,2,1:2:0:0:
77,163,79991,6,0,P|74:98|191:56,1,170,2|2,3:2|3:2,0:0:0:0:
270,127,80482,2,0,P|332:134|381:115,1,85,2|2,1:2|0:2,0:0:0:0:
477,22,80810,1,2,3:2:0:0:
463,245,80974,1,2,1:2:0:0:
311,41,81138,1,2,1:2:0:0:
472,117,81302,1,2,3:2:0:0:
353,251,81466,6,0,B|326:276|326:276|192:262,1,170,6|2,3:2|1:2,0:0:0:0:
42,243,81958,1,2,0:2:0:0:
42,243,82040,1,0,1:2:0:0:
42,243,82122,1,0,3:2:0:0:
147,151,82286,1,0,3:2:0:0:
227,302,82450,1,2,1:2:0:0:
300,144,82614,6,0,P|276:60|178:12,1,170,2|2,3:2|3:2,0:0:0:0:
124,177,83105,2,0,P|164:189|206:187,1,85,2|2,1:2|0:2,0:0:0:0:
333,126,83433,1,2,3:2:0:0:
435,216,83597,1,2,3:2:0:0:
493,56,83761,1,2,1:2:0:0:
345,242,83925,1,2,3:2:0:0:
249,0,84089,5,6,1:2:0:0:
126,174,84253,2,0,L|41:173,1,85,2|2,1:2|3:2,0:0:0:0:
211,91,84581,5,6,1:2:0:0:
345,242,84745,2,0,L|429:241,1,85,2|2,1:2|3:2,0:0:0:0:
235,176,85073,5,6,1:2:0:0:
187,361,85236,1,0,1:2:0:0:
187,361,85564,5,4,1:3:0:0:
211,91,85728,1,4,1:3:0:0:
266,288,85892,1,4,1:3:0:0:
