osu file format v14

[General]
AudioFilename: audio.mp3
AudioLeadIn: 0
PreviewTime: 54245
Countdown: 0
SampleSet: Soft
StackLeniency: 0.4
Mode: 0
LetterboxInBreaks: 0
WidescreenStoryboard: 1

[Editor]
Bookmarks: 10646,13269,71466
DistanceSpacing: 0.4
BeatDivisor: 4
GridSize: 4
TimelineZoom: 4.499998

[Metadata]
Title:Shiny Ray (TV Size)
TitleUnicode:Shiny Ray (TV Size)
Artist:YURiKA
ArtistUnicode:YURiKA
Creator:Gottagof4st
Version:Yudragen's Extra: Noctu Orfei Aude Fraetor
Source:リトルウィッチアカデミア
Tags:lwa little witch academia Sotarks Icekalt bite_you_death CelsiusLK ametrin Nextplay Onlybiscuit Yasaija714 Celektus Zelq yaspo Chaoticred Serizawa byd ggf gottagofast Haruki Jack J_a_c_k My_Angel_Kanan Yudragen bite you death
BeatmapID:1847503
BeatmapSetID:584389

[Difficulty]
HPDrainRate:6
CircleSize:4
OverallDifficulty:8
ApproachRate:9.3
SliderMultiplier:1.8
SliderTickRate:1

[Events]
//Background and Video events
0,0,"Konachan.com_-_241470_sample.jpg",0,0
Video,-170,"OP.avi"
//Break Periods
//Storyboard Layer 0 (Background)
//Storyboard Layer 1 (Fail)
//Storyboard Layer 2 (Pass)
//Storyboard Layer 3 (Foreground)
//Storyboard Sound Samples

[TimingPoints]
155,327.868852459016,4,2,4,20,1,0
2777,-83.3333333333333,4,2,4,60,0,0
13269,-83.3333333333333,4,2,4,30,0,0
13597,-117.647058823529,4,2,4,30,0,0
23761,-100,4,2,4,45,0,0
34253,-100,4,2,4,50,0,0
39499,-200,4,2,4,20,0,0
42122,-200,4,2,4,25,0,0
42777,-200,4,2,4,30,0,0
43433,-200,4,2,4,35,0,0
44089,-200,4,2,4,40,0,0
44745,-200,4,2,4,30,0,0
49991,-117.647058823529,4,2,4,40,0,0
52614,-117.647058823529,4,2,4,25,0,0
54581,-117.647058823529,4,2,4,50,0,0
55073,-83.3333333333333,4,2,4,70,0,1
65564,-90.9090909090909,4,2,4,70,0,0
70974,-76.9230769230769,4,2,4,70,0,1
76220,-86.9565217391304,4,2,4,60,0,0

[Colours]
Combo1 : 192,192,192
Combo2 : 147,77,251
Combo3 : 164,0,0

[HitObjects]
112,62,155,5,2,0:2:0:0:
103,91,482,1,2,0:2:0:0:
94,120,810,1,2,0:2:0:0:
85,149,1138,1,2,0:2:0:0:
129,232,1302,1,2,0:2:0:0:
394,114,1794,5,2,0:2:0:0:
361,105,2122,1,2,0:2:0:0:
328,96,2450,1,2,0:2:0:0:
83,142,2777,6,0,B|185:126|142:208|264:183,1,161.999995056153,6|0,3:2|0:0,0:0:0:0:
260,174,3105,1,2,3:2:0:0:
106,342,3269,2,0,L|93:234,1,107.999996704102,2|2,0:2|3:2,0:0:0:0:
204,379,3597,1,2,0:2:0:0:
260,174,3761,1,2,3:2:0:0:
404,344,3925,6,0,P|323:327|254:337,1,107.999996704102,2|0,0:3|3:2,0:0:0:0:
204,379,4253,1,2,0:2:0:0:
375,248,4417,1,0,3:2:0:0:
246,200,4581,1,2,0:2:0:0:
280,345,4745,1,2,3:2:0:0:
341,158,4909,1,2,0:2:0:0:
341,158,4991,1,0,1:2:0:0:
341,158,5073,1,2,1:2:0:0:
182,273,5236,1,8,0:3:0:0:
207,56,5400,6,0,P|291:68|434:55,1,215.999993408203,6|2,3:2|3:2,0:0:0:0:
309,182,5892,1,2,0:2:0:0:
410,250,6056,1,2,3:2:0:0:
265,297,6220,1,2,0:2:0:0:
423,384,6384,1,2,3:2:0:0:
277,179,6548,6,0,P|201:157|138:170,1,107.999996704102,2|2,1:2|3:2,0:0:0:0:
51,230,6876,1,2,0:2:0:0:
241,276,7040,1,2,3:2:0:0:
51,342,7204,1,8,0:3:0:0:
154,178,7368,1,4,3:3:0:0:
176,376,7532,1,2,1:2:0:0:
211,362,7614,1,0,1:2:0:0:
248,358,7695,1,2,1:2:0:0:
284,366,7777,1,8,0:3:0:0:
317,383,7859,1,8,0:3:0:0:
249,98,8023,6,0,B|306:113|306:113|449:99,1,161.999995056153,6|0,3:2|0:0,0:0:0:0:
439,100,8351,1,2,3:2:0:0:
288,200,8515,2,0,L|165:184,2,107.999996704102,2|0|0,0:2|3:2|0:0,0:0:0:0:
403,307,9007,1,2,3:2:0:0:
252,346,9171,6,0,B|148:295|150:382|43:342,1,215.999993408203,2|0,0:3|0:0,0:0:0:0:
192,244,9663,1,2,3:2:0:0:
29,174,9827,1,2,0:2:0:0:
24,362,9991,1,2,3:2:0:0:
142,159,10154,1,8,0:3:0:0:
142,159,10236,1,8,0:3:0:0:
142,159,10318,1,4,0:3:0:0:
252,346,10482,2,0,L|271:287,1,53.9999983520508,4|0,0:3|0:0,0:0:0:0:
321,120,10646,5,6,1:2:0:0:
383,355,10810,1,2,1:2:0:0:
383,355,10974,1,0,3:2:0:0:
431,86,11138,5,6,1:2:0:0:
292,284,11302,1,2,1:2:0:0:
292,284,11466,1,2,0:2:0:0:
227,24,11630,5,6,1:2:0:0:
407,205,11794,1,0,1:2:0:0:
407,205,11958,1,0,3:2:0:0:
156,273,12122,5,0,1:2:0:0:
293,113,12286,1,0,1:2:0:0:
328,318,12450,1,0,0:0:0:0:
328,318,12532,1,0,1:2:0:0:
328,318,12614,1,2,1:2:0:0:
186,267,12777,1,2,1:2:0:0:
307,221,12941,1,2,1:2:0:0:
228,159,13105,1,2,1:2:0:0:
293,113,13269,1,0,3:2:0:0:
130,363,13597,6,0,P|71:314|37:246,1,153.000002918243,2|2,0:2|1:2,0:0:0:0:
37,246,14253,1,2,0:2:0:0:
98,169,14417,2,0,B|188:148|170:200|261:164,1,153.000002918243,2|2,3:2|0:2,0:0:0:0:
247,168,15073,2,0,B|231:209|231:209|262:340,2,153.000002918243,2|2|2,0:2|0:2|0:2,0:0:0:0:
328,115,15892,6,0,L|413:108,1,76.5000014591217,0|0,3:2|0:0,0:0:0:0:
477,163,16220,2,0,P|461:233|460:335,1,153.000002918243,0|0,0:0|1:2,0:0:0:0:
512,384,16712,1,2,0:2:0:0:
458,313,16876,1,2,0:2:0:0:
365,372,17040,6,0,P|292:365|203:332,1,153.000002918243,2|0,3:2|0:0,0:0:0:0:
144,275,17532,1,2,3:2:0:0:
236,245,17695,1,2,0:2:0:0:
216,339,17859,1,2,1:2:0:0:
117,264,18023,2,0,P|85:212|119:116,1,153.000002918243,2|0,0:2|0:0,0:0:0:0:
174,47,18515,6,0,B|216:61|216:61|349:53,1,153.000002918243,6|0,3:2|0:0,0:0:0:0:
324,54,19171,2,0,P|297:101|324:197,1,153.000002918243,2|2,1:2|0:2,0:0:0:0:
389,252,19663,2,0,P|421:243|484:349,1,153.000002918243,2|0,3:2|0:0,0:0:0:0:
412,370,20154,2,0,L|241:353,1,153.000002918243,2|2,3:2|1:2,0:0:0:0:
259,354,20810,1,2,0:2:0:0:
162,307,20974,1,2,0:2:0:0:
285,264,21138,6,0,P|325:229|219:111,1,229.500004377365,2|2,3:2|0:2,0:0:0:0:
177,158,21794,2,0,B|96:161|139:225|26:219,2,153.000002918243,2|0|0,1:2|0:0|0:0,0:0:0:0:
45,133,22614,1,2,0:2:0:0:
150,68,22777,1,2,3:2:0:0:
22,30,22941,1,2,0:2:0:0:
130,72,23105,1,2,0:2:0:0:
19,140,23269,1,2,0:2:0:0:
464,339,23761,5,6,3:2:0:0:
464,339,24089,2,0,P|435:286|435:248,1,90,2|2,0:2|0:2,0:0:0:0:
467,160,24417,2,0,L|325:151,1,135,2|0,1:2|0:0,0:0:0:0:
298,149,24745,1,2,0:2:0:0:
286,268,24909,2,0,P|240:244|186:239,1,90,2|0,3:2|0:0,0:0:0:0:
129,370,25236,2,0,P|175:346|229:341,1,90,2|0,3:2|0:0,0:0:0:0:
106,190,25564,2,0,L|100:308,1,90,2|0,1:2|0:0,0:0:0:0:
174,129,25892,2,0,L|180:11,1,90,2|2,3:2|0:3,0:0:0:0:
254,194,26220,1,2,0:2:0:0:
254,194,26384,6,0,P|311:162|445:156,1,180,0|0,3:2|0:0,0:0:0:0:
478,216,26876,2,0,P|469:269|467:310,1,90,0|0,0:0|1:2,0:0:0:0:
394,380,27204,1,2,0:2:0:0:
486,324,27368,1,2,0:2:0:0:
372,271,27532,2,0,P|293:260|186:305,1,180,2|0,3:2|3:2,0:0:0:0:
101,369,28023,2,0,P|107:307|102:260,1,90,2|0,3:2|1:2,0:0:0:0:
66,183,28351,1,2,0:2:0:0:
134,104,28515,1,2,3:2:0:0:
134,104,28679,2,0,P|177:139|273:158,1,135,2|0,1:3|0:0,0:0:0:0:
286,157,29007,6,0,B|268:265|331:208|309:343,1,180,6|0,3:2|0:0,0:0:0:0:
310,329,29663,2,0,P|359:292|455:275,1,135,2|0,1:2|0:0,0:0:0:0:
457,280,29991,1,2,0:2:0:0:
231,291,30154,2,0,L|31:285,1,180,2|0,3:2|3:2,0:0:0:0:
5,199,30646,2,0,P|34:163|49:122,1,90,2|0,0:2|1:2,0:0:0:0:
109,26,30974,2,0,P|124:68|153:103,1,90,2|0,0:2|3:2,0:0:0:0:
229,150,31302,2,0,P|263:121|305:106,1,90,2|0,0:3|0:0,0:0:0:0:
375,178,31630,6,0,P|369:246|361:397,1,180,2|0,3:2|0:0,0:0:0:0:
229,371,32122,1,2,0:2:0:0:
229,371,32204,1,0,0:0:0:0:
229,371,32286,2,0,B|134:302|154:389|30:318,1,180,2|0,1:2|0:0,0:0:0:0:
87,180,32777,2,0,P|110:232|114:280,1,90,0|0,3:2|0:0,0:0:0:0:
173,156,33105,2,0,P|180:111|200:71,2,90,0|0|0,1:2|0:0|3:2,0:0:0:0:
228,242,33597,1,2,1:2:0:0:
288,24,33761,1,0,3:2:0:0:
345,214,33925,2,0,L|354:187,1,22.5,0|0,1:0|1:0,0:0:0:0:
58,332,34253,6,0,P|143:329|250:346,1,180,6|0,3:2|3:2,0:0:0:0:
335,382,34745,1,2,0:2:0:0:
325,191,34909,2,0,L|316:298,1,90,2|0,3:2|0:0,0:0:0:0:
243,125,35236,1,2,3:2:0:0:
419,178,35400,1,2,0:2:0:0:
419,178,35482,1,0,0:0:0:0:
419,178,35564,5,0,3:2:0:0:
358,15,35728,1,2,0:2:0:0:
231,143,35892,2,0,P|183:150|124:144,2,90,2|0|0,3:2|0:0|3:2,0:0:0:0:
57,87,36384,1,2,0:2:0:0:
57,87,36466,1,0,1:2:0:0:
57,87,36548,1,2,1:2:0:0:
167,245,36712,1,2,0:2:0:0:
257,24,36876,6,0,L|374:21,1,90,6|0,3:2|0:0,0:0:0:0:
472,17,37204,1,2,3:2:0:0:
467,198,37368,2,0,P|457:154|433:116,1,90,2|0,0:2|3:2,0:0:0:0:
339,282,37695,2,0,P|348:239|372:201,1,90,2|0,0:2|3:2,0:0:0:0:
379,367,38023,6,0,B|289:389|283:325|204:361,1,180,2|2,0:2|0:2,0:0:0:0:
34,278,38515,1,2,3:3:0:0:
214,180,38679,1,2,0:2:0:0:
214,180,38761,1,0,1:0:0:0:
214,180,38843,1,2,1:2:0:0:
115,370,39007,1,8,0:3:0:0:
38,148,39171,1,8,0:3:0:0:
128,265,39335,1,4,0:3:0:0:
214,180,39499,6,0,P|298:179|397:231,1,180,2|0,0:2|0:0,0:0:0:0:
455,314,40482,1,2,0:2:0:0:
455,314,40810,6,0,B|335:290|407:344|259:327,1,180,2|0,0:2|0:0,0:0:0:0:
174,301,41794,1,2,0:2:0:0:
174,301,42122,6,0,P|200:245|164:165,1,135,2|0,0:2|0:0,0:0:0:0:
98,134,42777,2,0,P|101:78|160:8,1,135,2|0,0:2|0:0,0:0:0:0:
242,41,43433,2,0,B|272:57|272:57|391:56,1,135,2|0,0:2|0:0,0:0:0:0:
470,8,44089,2,0,B|458:96|493:61|480:152,1,135,2|0,0:2|0:0,0:0:0:0:
374,278,44745,6,0,P|420:279|436:281,2,45,2|0|0,0:2|0:0|0:0,0:0:0:0:
324,350,45236,2,0,P|278:351|261:353,2,45,2|0|0,0:2|0:0|0:0,0:0:0:0:
336,200,45728,5,2,0:2:0:0:
74,322,46220,5,0,3:0:0:0:
117,123,46384,1,0,1:0:0:0:
117,123,46548,1,0,0:0:0:0:
182,314,46712,5,0,3:0:0:0:
1,234,46876,1,0,3:0:0:0:
231,141,47040,1,0,1:0:0:0:
231,141,47204,1,0,0:0:0:0:
315,305,47368,6,0,P|269:304|252:301,2,45,2|0|0,0:2|0:0|0:0,0:0:0:0:
365,233,47859,2,0,P|411:232|427:229,2,45,2|0|0,0:2|0:0|0:0,0:0:0:0:
317,149,48351,5,2,0:2:0:0:
317,149,48679,5,0,3:0:0:0:
116,231,48843,1,0,1:0:0:0:
208,86,49007,1,0,3:0:0:0:
221,316,49171,1,0,3:0:0:0:
28,160,49335,1,8,3:3:0:0:
217,224,49499,1,4,3:3:0:0:
41,322,49663,1,6,1:2:0:0:
129,133,49827,1,0,3:0:0:0:
129,133,49909,1,0,0:0:0:0:
129,133,49991,6,0,P|211:129|300:128,1,153.000002918243,6|2,3:2|0:3,0:0:0:0:
367,182,50482,1,0,3:0:0:0:
367,182,50646,2,0,P|363:245|440:327,1,153.000002918243,2|2,1:3|0:3,0:0:0:0:
484,123,51138,1,0,0:0:0:0:
484,123,51220,1,0,0:0:0:0:
484,123,51302,5,2,3:3:0:0:
461,225,51466,1,0,1:0:0:0:
461,225,51630,1,2,0:3:0:0:
365,61,51794,1,0,3:0:0:0:
300,325,51958,2,0,P|264:308|168:297,1,114.750002188683,2|0,1:3|0:0,0:0:0:0:
163,307,52286,1,2,3:3:0:0:
265,106,52614,5,0,0:0:0:0:
265,106,52941,1,0,0:0:0:0:
265,106,53269,1,0,0:0:0:0:
265,106,53597,1,0,0:0:0:0:
265,106,53925,1,0,0:0:0:0:
265,106,54253,1,0,0:0:0:0:
461,162,54581,5,4,1:3:0:0:
62,247,54745,1,4,1:3:0:0:
62,247,55073,6,0,B|183:233|137:311|267:290,1,215.999993408203,6|0,3:2|0:0,0:0:0:0:
435,189,55564,1,2,1:2:0:0:
230,199,55728,1,2,0:2:0:0:
417,366,55892,1,2,3:2:0:0:
322,153,56056,2,0,P|311:95|335:30,1,107.999996704102,2|0,3:2|1:2,0:0:0:0:
426,220,56384,1,2,0:2:0:0:
200,178,56548,5,0,3:2:0:0:
404,99,56712,2,0,L|528:90,1,107.999996704102,2|0,3:2|1:2,0:0:0:0:
323,48,57040,1,2,3:2:0:0:
426,220,57204,1,2,0:2:0:0:
229,69,57368,2,0,P|158:68|99:116,1,107.999996704102,2|0,3:2|1:2,0:0:0:0:
128,307,57695,1,2,0:2:0:0:
140,324,57777,1,0,0:0:0:0:
149,343,57859,6,0,P|167:235|186:157,1,161.999995056153,0|0,3:2|0:0,0:0:0:0:
192,157,58187,1,2,1:2:0:0:
361,325,58351,2,0,P|303:333|244:361,1,107.999996704102,2|0,3:2|0:0,0:0:0:0:
468,182,58679,2,0,P|410:173|351:145,1,107.999996704102,2|0,3:2|1:2,0:0:0:0:
188,0,59007,1,2,0:2:0:0:
172,247,59171,5,2,3:2:0:0:
345,142,59335,1,2,3:2:0:0:
95,77,59499,1,2,1:2:0:0:
259,198,59663,1,2,3:2:0:0:
33,301,59827,5,2,0:2:0:0:
86,101,59991,1,2,3:2:0:0:
152,342,60154,1,2,1:2:0:0:
341,196,60318,1,2,0:2:0:0:
355,213,60400,1,0,0:0:0:0:
369,229,60482,6,0,B|265:187|264:288|161:239,1,215.999993408203,4|2,3:2|1:2,0:0:0:0:
324,312,60974,1,2,3:2:0:0:
208,160,61138,1,2,0:2:0:0:
457,274,61302,2,0,L|477:140,1,107.999996704102,2|0,3:2|1:2,0:0:0:0:
410,42,61630,1,2,0:2:0:0:
348,227,61794,5,0,3:2:0:0:
482,134,61958,1,2,3:2:0:0:
288,4,62122,1,0,1:2:0:0:
369,214,62286,2,0,P|352:136|325:88,1,107.999996704102,2|0,3:2|0:0,0:0:0:0:
447,379,62614,2,0,P|464:301|491:253,1,107.999996704102,2|0,3:2|1:2,0:0:0:0:
171,196,62941,1,2,0:2:0:0:
162,215,63023,1,0,0:0:0:0:
153,234,63105,6,0,P|215:216|275:312,1,161.999995056153,2|0,3:2|0:0,0:0:0:0:
266,304,63433,1,2,1:2:0:0:
122,115,63597,2,0,B|228:71|226:157|338:111,1,215.999993408203,2|0,3:2|3:2,0:0:0:0:
499,17,64089,1,2,1:2:0:0:
451,207,64253,1,2,0:2:0:0:
279,15,64417,5,2,1:2:0:0:
189,249,64581,1,2,3:2:0:0:
154,1,64745,5,2,1:2:0:0:
338,248,64909,1,2,3:2:0:0:
30,92,65073,5,2,1:2:0:0:
464,27,65236,1,2,3:2:0:0:
183,11,65564,6,0,P|181:104|29:272,1,297.000009063721,6|2,3:2|3:2,0:0:0:0:
22,169,66220,1,2,0:2:0:0:
79,354,66384,1,2,1:2:0:0:
160,293,66548,2,0,P|208:290|260:320,1,99.0000030212403,2|0,0:2|0:0,0:0:0:0:
318,382,66876,1,2,0:2:0:0:
318,382,66958,1,0,0:0:0:0:
318,382,67040,1,0,3:2:0:0:
335,280,67204,6,0,L|335:158,1,99.0000030212403,2|0,1:2|3:2,0:0:0:0:
285,88,67532,1,2,0:2:0:0:
436,234,67695,1,2,1:2:0:0:
335,181,67859,2,0,P|267:174|228:186,1,99.0000030212403,2|0,0:2|0:0,0:0:0:0:
129,88,68187,1,2,3:2:0:0:
129,88,68351,6,0,P|136:171|115:287,1,198.000006042481,4|2,3:2|3:2,0:0:0:0:
82,381,68843,2,0,P|149:360|178:357,1,99.0000030212403,2|0,0:2|1:2,0:0:0:0:
247,291,69171,2,0,P|295:283|342:267,1,99.0000030212403,2|0,0:2|0:0,0:0:0:0:
410,178,69499,1,2,0:2:0:0:
410,178,69663,5,0,3:2:0:0:
464,266,69827,1,0,1:2:0:0:
511,179,69991,1,0,0:0:0:0:
511,179,70154,1,0,3:2:0:0:
416,357,70318,5,2,1:2:0:0:
304,173,70482,1,2,1:2:0:0:
294,384,70646,1,2,0:2:0:0:
500,281,70810,1,2,1:2:0:0:
203,208,70974,6,0,P|169:198|71:200,1,116.999994644165,4|0,3:2|0:0,0:0:0:0:
270,303,71302,1,2,1:2:0:0:
292,142,71466,2,0,L|305:23,1,116.999994644165,2|0,0:2|3:2,0:0:0:0:
402,249,71794,2,0,L|389:130,1,116.999994644165,2|0,3:2|1:2,0:0:0:0:
210,27,72122,1,2,0:2:0:0:
210,27,72204,1,0,0:0:0:0:
210,27,72286,6,0,P|165:68|-14:72,1,233.999989288331,4|2,3:2|1:2,0:0:0:0:
186,278,72777,2,0,P|198:222|203:152,1,116.999994644165,2|0,0:2|3:2,0:0:0:0:
87,356,73105,2,0,P|74:300|70:230,1,116.999994644165,2|0,3:2|1:2,0:0:0:0:
210,27,73433,1,2,0:2:0:0:
287,342,73597,6,0,P|365:317|425:321,1,116.999994644165,4|2,3:2|0:2,0:0:0:0:
186,278,73925,1,2,1:2:0:0:
388,189,74089,1,2,0:2:0:0:
267,384,74253,1,2,3:2:0:0:
163,149,74417,2,0,P|159:67|178:10,1,116.999994644165,2|0,3:2|1:2,0:0:0:0:
264,225,74745,1,2,0:2:0:0:
354,4,74909,5,4,3:2:0:0:
409,221,75073,1,2,0:2:0:0:
259,94,75236,1,0,3:2:0:0:
221,334,75400,1,2,0:2:0:0:
383,236,75564,1,0,3:2:0:0:
132,183,75728,1,2,1:2:0:0:
132,183,75810,1,0,1:2:0:0:
132,183,75892,1,0,3:2:0:0:
326,301,76056,1,8,0:3:0:0:
335,336,76138,1,4,0:3:0:0:
341,368,76220,6,0,P|387:336|492:330,1,155.250002961159,6|0,3:2|0:0,0:0:0:0:
508,346,76548,1,2,1:2:0:0:
421,225,76712,2,0,P|404:177|411:99,1,103.500001974106,2|2,0:2|3:2,0:0:0:0:
446,5,77040,1,2,3:2:0:0:
512,156,77204,1,2,1:2:0:0:
320,32,77368,6,0,P|246:21|105:31,1,207.000003948212,2|2,3:2|3:2,0:0:0:0:
43,195,77859,1,2,1:2:0:0:
212,120,78023,1,2,0:2:0:0:
32,86,78187,5,2,3:2:0:0:
83,299,78351,1,2,3:2:0:0:
201,146,78515,1,2,1:2:0:0:
11,212,78679,1,2,0:2:0:0:
224,327,78843,6,0,B|325:355|313:251|422:288,1,207.000003948212,2|2,3:2|1:2,0:0:0:0:
504,326,79335,1,2,0:2:0:0:
245,245,79499,1,2,3:2:0:0:
386,376,79663,1,2,3:2:0:0:
324,176,79827,1,2,1:2:0:0:
148,376,79991,6,0,P|177:289|77:185,1,207.000003948212,2|2,3:2|3:2,0:0:0:0:
0,366,80482,1,2,1:2:0:0:
144,178,80646,1,2,0:2:0:0:
161,382,80810,1,2,3:2:0:0:
22,196,80974,1,2,1:2:0:0:
264,157,81138,1,2,1:2:0:0:
72,298,81302,1,2,3:2:0:0:
327,265,81466,6,0,P|362:249|503:250,1,155.250002961159,6|0,3:2|0:0,0:0:0:0:
506,263,81794,1,2,1:2:0:0:
295,378,81958,1,2,0:2:0:0:
295,378,82040,1,0,1:2:0:0:
295,378,82122,2,0,P|225:352|171:353,1,103.500001974106,0|0,3:2|3:2,0:0:0:0:
398,355,82450,1,2,1:2:0:0:
232,269,82614,6,0,B|204:154|298:148|239:43,1,207.000003948212,2|2,3:2|3:2,0:0:0:0:
318,227,83105,1,2,1:2:0:0:
165,103,83269,1,2,0:2:0:0:
135,278,83433,1,2,3:2:0:0:
251,68,83597,1,2,3:2:0:0:
360,301,83761,1,2,1:2:0:0:
143,185,83925,1,2,3:2:0:0:
441,110,84089,5,6,1:2:0:0:
481,329,84253,1,2,1:2:0:0:
481,329,84417,1,2,3:2:0:0:
344,76,84581,5,6,1:2:0:0:
279,309,84745,1,2,1:2:0:0:
279,309,84909,1,2,3:2:0:0:
83,131,85073,5,6,1:2:0:0:
173,371,85237,1,0,1:2:0:0:
173,371,85401,1,0,3:2:0:0:
240,97,85564,5,4,1:3:0:0:
37,275,85728,1,4,1:3:0:0:
323,382,85892,1,4,1:3:0:0:
