osu file format v14

[General]
AudioFilename: audio.mp3
AudioLeadIn: 0
PreviewTime: 54245
Countdown: 0
SampleSet: Soft
StackLeniency: 0.4
Mode: 0
LetterboxInBreaks: 0
WidescreenStoryboard: 1

[Editor]
DistanceSpacing: 1
BeatDivisor: 4
GridSize: 4
TimelineZoom: 2.799999

[Metadata]
Title:Shiny Ray (TV Size)
TitleUnicode:Shiny Ray (TV Size)
Artist:YURiKA
ArtistUnicode:YURiKA
Creator:Gottagof4st
Version:Sotarks' Extra: Phasansheer Shearylla
Source:リトルウィッチアカデミア
Tags:lwa little witch academia Sotarks Icekalt bite_you_death CelsiusLK ametrin Nextplay Onlybiscuit Yasaija714 Celektus Zelq yaspo Chaoticred Serizawa byd ggf gottagofast Haruki Jack J_a_c_k My_Angel_Kanan Yudragen bite you death
BeatmapID:1936782
BeatmapSetID:584389

[Difficulty]
HPDrainRate:5.5
CircleSize:4.2
OverallDifficulty:9.3
ApproachRate:9.4
SliderMultiplier:1.82
SliderTickRate:1

[Events]
//Background and Video events
0,0,"bg.jpg",0,0
Video,-170,"OP.avi"
//Break Periods
//Storyboard Layer 0 (Background)
//Storyboard Layer 1 (Fail)
//Storyboard Layer 2 (Pass)
//Storyboard Layer 3 (Foreground)
//Storyboard Sound Samples

[TimingPoints]
155,327.868852459016,4,2,22,12,1,0
155,-192.307692307692,4,2,22,12,0,0
2777,-108.695652173913,4,2,22,52,0,0
13269,-138.888888888889,4,2,22,32,0,0
23761,-108.695652173913,4,2,22,42,0,0
29007,-108.695652173913,4,2,22,42,0,0
31630,-108.695652173913,4,2,22,42,0,0
34253,-121.951219512195,4,2,22,32,0,0
39499,-192.307692307692,4,2,22,22,0,0
40318,-192.307692307692,4,2,22,12,0,0
40482,-192.307692307692,4,2,22,22,0,0
40646,-192.307692307692,4,2,22,12,0,0
40810,-192.307692307692,4,2,22,22,0,0
41630,-192.307692307692,4,2,22,12,0,0
41794,-192.307692307692,4,2,22,22,0,0
41958,-192.307692307692,4,2,22,12,0,0
42122,-192.307692307692,4,2,22,22,0,0
42614,-192.307692307692,4,2,22,12,0,0
42777,-192.307692307692,4,2,22,22,0,0
43269,-192.307692307692,4,2,22,12,0,0
43433,-192.307692307692,4,2,22,22,0,0
43925,-192.307692307692,4,2,22,12,0,0
44089,-192.307692307692,4,2,22,22,0,0
44745,-161.290322580645,4,2,22,32,0,0
45236,-138.888888888889,4,2,22,32,0,0
45728,-121.951219512195,4,2,22,32,0,0
47859,-108.695652173913,4,2,22,32,0,0
48351,-98.0392156862745,4,2,22,32,0,0
49335,-121.951219512195,4,2,22,32,0,0
49991,-121.951219512195,4,2,22,42,0,0
52614,-121.951219512195,4,2,22,22,0,0
54581,-121.951219512195,4,2,22,42,0,0
55073,-98.0392156862744,4,2,22,62,0,0
65564,-108.695652173913,4,2,22,42,0,0
70974,-98.0392156862745,4,2,22,62,0,0
72286,-98.0392156862745,4,2,22,52,0,0
85892,-161.290322580645,4,2,22,52,0,0
85974,-161.290322580645,4,2,22,5,0,0

[Colours]
Combo1 : 15,237,255
Combo2 : 255,251,85
Combo3 : 255,108,0
Combo4 : 122,235,162
SliderBorder : 254,255,198

[HitObjects]
159,80,155,6,0,P|173:131|184:187,1,94.6399994223633,2|0,0:2|0:2,0:2:0:0:
376,30,810,2,0,P|362:81|351:137,1,94.6399994223633,2|0,0:2|0:2,0:2:0:0:
445,241,1302,2,0,B|365:244|395:193|304:195,1,141.959999133545,2|2,0:2|0:2,0:2:0:0:
438,158,2122,1,2,0:2:0:0:
229,227,2450,1,2,0:2:0:0:
376,30,2777,5,6,1:2:0:0:
315,281,2941,1,0,0:2:0:0:
161,94,3105,1,2,1:2:0:0:
406,172,3269,1,2,0:2:0:0:
149,255,3433,1,0,1:2:0:0:
268,57,3597,1,2,0:2:0:0:
352,288,3761,1,2,1:2:0:0:
139,52,3925,6,0,P|125:107|120:142,1,83.7199971895753,6|0,0:2|1:2,0:2:0:0:
182,339,4253,1,2,0:2:0:0:
317,201,4417,1,0,1:2:0:0:
185,263,4581,1,2,0:2:0:0:
368,318,4745,1,2,1:2:0:0:
188,186,4909,1,2,0:2:0:0:
188,186,4991,1,8,0:2:0:0:
188,186,5073,1,10,0:2:0:0:
340,94,5236,1,10,3:2:0:0:
85,33,5400,6,0,P|104:83|111:116,1,83.7199971895753,6|0,1:2|0:2,0:2:0:0:
296,17,5728,1,2,1:2:0:0:
163,199,5892,1,2,0:2:0:0:
408,267,6056,1,2,1:2:0:0:
270,135,6220,1,2,0:2:0:0:
240,295,6384,1,2,1:2:0:0:
417,110,6548,6,0,P|428:56|431:18,1,83.7199971895753,10|0,0:2|1:2,0:2:0:0:
310,224,6876,1,2,0:2:0:0:
171,46,7040,1,2,1:2:0:0:
129,269,7204,2,0,P|94:294|76:299,1,41.8599985947876,0|0,0:2|0:2,0:2:0:0:
86,118,7368,1,2,1:2:0:0:
120,95,7449,1,0,1:2:0:0:
161,92,7531,1,0,1:2:0:0:
198,110,7613,1,0,1:2:0:0:
221,145,7695,1,8,3:2:0:0:
244,179,7777,1,0,1:2:0:0:
282,197,7859,1,0,1:2:0:0:
323,195,7941,1,0,1:2:0:0:
357,172,8022,5,6,1:2:0:0:
141,182,8187,1,2,0:2:0:0:
304,90,8351,1,2,1:2:0:0:
359,315,8515,1,2,0:2:0:0:
244,179,8679,1,0,1:2:0:0:
176,269,8843,1,2,0:2:0:0:
395,166,9007,1,2,1:2:0:0:
159,34,9171,6,0,P|171:92|179:124,1,83.7199971895753,6|0,0:2|1:2,0:2:0:0:
272,284,9499,1,2,0:2:0:0:
304,90,9663,1,0,1:2:0:0:
299,302,9827,1,2,0:2:0:0:
111,184,9991,1,2,1:2:0:0:
273,191,10154,1,2,0:2:0:0:
273,191,10236,1,8,0:2:0:0:
273,191,10318,1,10,0:2:0:0:
97,328,10482,1,2,1:2:0:0:
227,38,10646,5,10,0:2:0:0:
321,319,10810,1,10,0:2:0:0:
383,130,10974,1,0,1:2:0:0:
183,364,11138,1,10,0:2:0:0:
305,87,11302,1,10,0:2:0:0:
408,250,11466,1,0,1:2:0:0:
227,38,11630,5,10,0:2:0:0:
189,329,11794,2,0,P|174:273|165:234,1,83.7199971895753,8|0,0:2|1:2,0:2:0:0:
323,61,12122,1,8,0:2:0:0:
291,217,12286,1,0,1:2:0:0:
153,89,12450,5,0,1:2:0:0:
153,89,12532,1,8,0:2:0:0:
153,89,12614,1,10,0:2:0:0:
400,175,12777,1,10,0:2:0:0:
89,313,12941,1,10,0:2:0:0:
310,137,13105,1,10,0:2:0:0:
143,190,13269,6,0,P|89:175|54:103,2,131.040003199219,2|2|0,3:2|0:2|3:2,0:2:0:0:
143,190,14253,1,0,0:2:0:0:
219,145,14417,2,0,B|287:143|258:188|354:195,1,131.040003199219,2|2,3:2|0:2,0:2:0:0:
449,98,14909,1,0,3:2:0:0:
449,98,15236,1,0,3:2:0:0:
410,198,15400,1,0,0:2:0:0:
350,68,15564,1,0,0:2:0:0:
419,175,15728,1,0,0:2:0:0:
261,101,15892,6,0,B|130:72|157:218|19:222,1,262.080006398438,2|0,3:2|3:2,0:2:0:0:
58,117,16712,1,2,0:2:0:0:
120,227,16876,1,0,0:2:0:0:
161,64,17040,2,0,P|152:139|145:225,1,131.040003199219,2|0,3:2|0:2,0:2:0:0:
258,115,17532,2,0,P|266:158|274:186,1,65.5200015996094,2|0,3:2|0:2,0:2:0:0:
351,67,17859,1,2,3:2:0:0:
351,250,18023,2,0,P|378:193|439:171,1,131.040003199219,2|0,0:2|0:2,0:2:0:0:
451,348,18515,6,0,B|310:350|366:228|190:252,1,262.080006398438,2|2,3:2|3:2,0:2:0:0:
219,249,19499,1,0,0:2:0:0:
116,227,19663,2,0,P|104:174|165:112,1,131.040003199219,2|0,3:2|0:2,0:2:0:0:
272,135,20154,2,0,P|253:85|251:51,1,65.5200015996094,2|0,3:2|0:2,0:2:0:0:
371,195,20482,2,0,P|384:166|391:134,1,65.5200015996094,0|0,3:2|0:2,0:2:0:0:
257,257,20810,1,0,0:2:0:0:
360,318,20974,1,2,0:2:0:0:
174,336,21138,6,0,B|282:344|233:266|369:283,1,196.560004798828,2|0,3:2|0:2,0:2:0:0:
191,240,21794,2,0,P|175:186|164:161,1,65.5200015996094,2|0,3:2|0:2,0:2:0:0:
300,247,22122,1,0,0:2:0:0:
131,88,22286,2,0,P|79:107|59:189,1,131.040003199219,2|2,0:2|0:2,0:2:0:0:
306,141,22777,1,2,3:2:0:0:
193,18,22941,1,0,0:2:0:0:
288,217,23105,1,2,0:2:0:0:
408,76,23269,1,2,0:2:0:0:
422,106,23597,5,0,0:2:0:0:
422,106,23679,1,0,0:2:0:0:
422,106,23761,2,0,P|369:85|329:77,1,83.7199971895753,6|0,1:2|0:2,0:2:0:0:
195,219,24089,2,0,P|235:208|273:192,1,83.7199971895753,2|0,0:2|0:2,0:2:0:0:
111,47,24417,2,0,P|100:104|87:142,1,83.7199971895753,10|0,0:2|0:2,0:2:0:0:
226,14,24745,1,2,3:2:0:0:
10,117,24909,6,0,P|16:158|28:198,1,83.7199971895753,2|0,1:2|0:2,0:2:0:0:
202,323,25236,2,0,P|213:282|220:241,1,83.7199971895753,2|0,1:2|0:2,0:2:0:0:
131,63,25564,1,10,0:2:0:0:
296,138,25728,1,0,0:2:0:0:
133,203,25892,1,2,1:2:0:0:
305,111,26056,2,0,P|349:95|392:88,1,83.7199971895753,0|2,0:2|0:2,0:2:0:0:
482,237,26384,6,0,B|333:203|371:340|229:321,1,251.159991568726,0|0,1:2|0:2,0:2:0:0:
106,185,27040,1,8,0:2:0:0:
269,218,27204,1,2,0:2:0:0:
120,326,27368,1,2,3:2:0:0:
266,184,27532,2,0,P|272:132|271:91,1,83.7199971895753,2|0,1:2|0:2,0:2:0:0:
171,247,27859,1,0,1:2:0:0:
95,101,28023,1,2,1:2:0:0:
272,289,28187,1,8,0:2:0:0:
352,134,28351,1,2,1:2:0:0:
191,232,28515,1,2,1:2:0:0:
460,311,28679,1,8,0:2:0:0:
460,311,29007,6,0,B|327:283|405:206|243:181,1,251.159991568726,6|0,1:2|0:2,0:2:0:0:
66,224,29663,2,0,P|124:199|145:182,1,83.7199971895753,10|0,0:2|0:2,0:2:0:0:
63,324,29991,1,2,3:2:0:0:
201,111,30154,2,0,P|223:194|234:279,1,167.439994379151,2|0,1:2|1:2,0:2:0:0:
340,81,30646,1,2,0:2:0:0:
419,286,30810,1,8,0:2:0:0:
308,178,30974,1,2,0:2:0:0:
222,304,31138,1,0,1:2:0:0:
342,181,31302,2,0,P|397:161|434:151,1,83.7199971895753,2|0,3:2|0:2,0:2:0:0:
165,221,31630,6,0,P|102:192|84:91,1,167.439994379151,2|0,1:2|0:2,0:2:0:0:
234,24,32122,1,2,0:2:0:0:
331,149,32286,2,0,P|307:246|303:321,1,167.439994379151,10|0,0:2|0:2,0:2:0:0:
224,138,32777,2,0,P|213:96|196:46,1,83.7199971895753,0|0,1:2|0:2,0:2:0:0:
146,251,33105,1,8,0:2:0:0:
305,178,33269,1,0,0:2:0:0:
117,108,33433,1,0,1:2:0:0:
277,304,33597,1,10,0:2:0:0:
374,104,33761,1,0,1:2:0:0:
117,237,33925,1,10,0:2:0:0:
92,225,34253,6,0,B|172:231|145:177|250:182,1,149.240002277222,6|0,1:2|1:2,0:2:0:0:
419,215,34745,1,2,0:2:0:0:
354,108,34909,2,0,P|342:172|337:197,1,74.6200011386109,2|0,1:2|0:2,0:2:0:0:
212,260,35236,1,2,1:2:0:0:
277,367,35400,2,0,P|289:303|294:278,1,74.6200011386109,2|0,0:2|1:2,0:2:0:0:
113,351,35728,1,2,0:2:0:0:
159,211,35892,2,0,P|166:247|172:284,1,74.6200011386109,2|0,1:2|0:2,0:2:0:0:
75,165,36220,2,0,P|81:128|88:91,1,74.6200011386109,0|2,1:2|0:2,0:2:0:0:
115,77,36466,1,8,0:2:0:0:
115,77,36548,1,10,0:2:0:0:
193,200,36712,1,2,0:2:0:0:
261,37,36876,6,0,P|319:40|358:133,1,149.240002277222,6|2,1:2|1:2,0:2:0:0:
229,214,37368,2,0,P|242:159|245:129,1,74.6200011386109,2|0,0:2|1:2,0:2:0:0:
361,230,37695,2,0,P|366:266|376:302,1,74.6200011386109,2|0,0:2|1:2,0:2:0:0:
463,131,38023,2,0,P|408:91|369:85,1,74.6200011386109,2|0,0:2|1:2,0:2:0:0:
264,190,38351,1,2,0:2:0:0:
371,72,38515,1,2,1:2:0:0:
191,38,38679,5,0,1:2:0:0:
191,38,38761,1,8,0:2:0:0:
191,38,38843,1,10,0:2:0:0:
355,188,39007,1,10,3:0:0:0:
134,251,39171,1,6,3:0:0:0:
206,129,39335,1,6,3:0:0:0:
338,309,39499,6,0,P|413:314|449:177,1,236.599998555908,2|0,0:2|0:2,0:2:0:0:
313,81,40482,2,0,P|272:91|246:93,1,47.3199997111816,2|0,0:2|0:2,0:2:0:0:
114,39,40810,2,0,B|169:159|84:138|152:281,1,236.599998555908,2|0,0:2|0:2,0:2:0:0:
270,349,41794,2,0,P|285:307|289:285,1,47.3199997111816,2|0,0:2|0:2,0:2:0:0:
236,157,42122,6,0,P|263:111|356:109,1,141.959999133545,2|0,0:2|0:2,0:2:0:0:
452,258,42777,2,0,P|396:241|305:233,1,141.959999133545,2|0,0:2|0:2,0:2:0:0:
153,298,43433,2,0,P|111:292|116:194,1,141.959999133545,2|0,0:2|0:2,0:2:0:0:
242,127,44089,2,0,P|236:166|230:190,1,47.3199997111816,2|0,0:2|0:2,0:2:0:0:
134,100,44417,2,0,P|129:76|126:53,1,47.3199997111816,0|0,0:2|0:2,0:2:0:0:
380,27,44745,6,0,P|370:83|361:152,1,112.839995523316,2|0,0:2|0:2,0:2:0:0:
290,278,45236,2,0,P|282:222|267:147,1,131.040003199219,2|0,0:2|0:2,0:2:0:0:
140,20,45728,2,0,P|134:107|117:192,1,149.240002277222,2|0,0:2|0:2,0:2:0:0:
196,311,46220,1,0,1:2:0:0:
294,128,46384,1,8,0:2:0:0:
195,203,46548,1,0,0:2:0:0:
378,293,46712,1,0,1:2:0:0:
285,171,46876,1,0,1:2:0:0:
191,349,47040,1,8,0:2:0:0:
216,363,47368,6,0,B|196:281|236:308|215:203,1,149.240002277222,2|0,0:2|0:2,0:2:0:0:
118,51,47859,2,0,B|134:148|73:124|95:232,1,167.439994379151,2|0,0:2|0:2,0:2:0:0:
267,45,48351,2,0,B|368:49|334:128|439:139,1,185.640001133057,2|0,0:2|1:2,0:2:0:0:
259,143,48843,1,8,0:2:0:0:
440,41,49007,1,0,1:2:0:0:
296,148,49171,1,0,1:2:0:0:
432,215,49335,2,0,L|440:262,3,37.3100005693054,8|0|4|0,3:2|0:2|3:0|0:2,0:2:0:0:
324,190,49663,2,0,L|330:153,3,37.3100005693054,10|0|0|0,0:2|0:2|1:2|0:2,0:2:0:0:
234,257,49991,6,0,B|154:239|187:197|83:182,1,149.240002277222,6|0,1:2|0:2,0:2:0:0:
239,164,50482,1,0,1:2:0:0:
102,269,50646,2,0,P|89:204|62:111,1,149.240002277222,8|0,0:2|0:2,0:2:0:0:
66,124,51302,1,2,1:2:0:0:
139,64,51466,2,0,P|214:47|277:100,1,149.240002277222,8|0,0:2|1:2,0:2:0:0:
340,232,51958,2,0,P|326:188|323:148,1,74.6200011386109,10|0,0:2|0:2,0:2:0:0:
437,87,52286,2,0,P|432:123|419:159,1,74.6200011386109,0|0,1:2|0:2,0:2:0:0:
354,45,52614,5,2,0:2:0:0:
383,30,52941,5,2,0:2:0:0:
277,38,53269,5,2,0:2:0:0:
430,121,53597,5,2,0:2:0:0:
210,178,53925,5,2,0:2:0:0:
453,148,54253,5,2,0:2:0:0:
214,324,54581,5,0,1:2:0:0:
125,34,54745,1,0,1:2:0:0:
65,319,55073,6,0,B|159:304|125:232|242:236,1,185.640001133057,6|0,1:2|0:2,0:2:0:0:
435,339,55564,1,10,0:2:0:0:
328,138,55728,1,2,0:2:0:0:
214,324,55892,1,2,1:2:0:0:
349,175,56056,1,2,1:2:0:0:
140,132,56220,1,8,0:2:0:0:
302,333,56384,6,0,P|308:271|314:223,1,92.8200005665283,2|0,0:2|1:2,0:2:0:0:
189,53,56712,1,2,1:2:0:0:
111,251,56876,1,8,0:2:0:0:
311,101,57040,1,2,1:2:0:0:
60,147,57204,1,2,0:2:0:0:
311,240,57368,1,2,1:2:0:0:
156,40,57532,2,0,P|150:102|142:154,1,92.8200005665283,8|2,0:2|0:2,0:2:0:0:
336,3,57859,6,0,P|396:38|408:149,1,185.640001133057,0|8,1:2|0:2,0:2:0:0:
225,257,58351,2,0,P|247:193|253:151,1,92.8200005665283,2|0,1:2|0:2,0:2:0:0:
52,71,58679,2,0,P|61:116|78:159,1,92.8200005665283,2|8,1:2|0:2,0:2:0:0:
259,45,59007,1,2,0:2:0:0:
132,227,59171,5,0,1:2:0:0:
354,183,59335,1,0,1:2:0:0:
95,84,59499,1,8,0:2:0:0:
262,272,59663,1,0,1:2:0:0:
218,55,59827,1,2,0:2:0:0:
144,260,59991,1,2,1:2:0:0:
308,76,60154,1,10,0:2:0:0:
416,293,60318,1,2,0:2:0:0:
172,132,60482,6,0,P|117:112|66:104,1,92.8200005665283,6|0,1:2|0:2,0:2:0:0:
310,183,60810,1,10,0:2:0:0:
117,273,60974,1,0,0:2:0:0:
334,337,61138,1,2,1:2:0:0:
179,178,61302,1,2,1:2:0:0:
387,85,61466,1,8,0:2:0:0:
251,294,61630,6,0,P|230:229|222:187,1,92.8200005665283,2|0,0:2|1:2,0:2:0:0:
319,24,61958,1,2,1:2:0:0:
391,224,62122,1,8,0:2:0:0:
210,74,62286,2,0,P|149:50|105:47,1,92.8200005665283,2|0,1:2|0:2,0:2:0:0:
82,278,62614,1,2,1:2:0:0:
252,163,62777,2,0,P|294:143|339:135,1,92.8200005665283,8|2,0:2|0:2,0:2:0:0:
222,306,63105,5,0,1:2:0:0:
270,26,63269,1,0,0:2:0:0:
344,328,63433,1,8,0:2:0:0:
163,38,63597,2,0,P|152:100|146:152,1,92.8200005665283,2|0,1:2|0:2,0:2:0:0:
254,313,63925,1,0,1:2:0:0:
351,85,64089,1,10,0:2:0:0:
145,296,64253,1,2,0:2:0:0:
412,163,64417,5,8,0:2:0:0:
52,111,64581,1,2,1:2:0:0:
470,232,64745,1,10,0:2:0:0:
19,315,64909,1,2,1:2:0:0:
298,19,65073,1,8,0:2:0:0:
240,384,65236,1,0,1:2:0:0:
216,82,65564,6,0,B|251:181|196:151|241:263,1,167.439994379151,6|0,1:2|0:2,0:2:0:0:
144,125,66056,2,0,P|122:58|119:28,1,83.7199971895753,2|0,1:2|0:2,0:2:0:0:
302,194,66384,1,10,0:2:0:0:
108,306,66548,2,0,P|116:265|131:226,1,83.7199971895753,2|0,0:2|0:2,0:2:0:0:
355,119,66876,5,2,0:2:0:0:
245,272,67040,1,0,1:2:0:0:
195,49,67204,1,10,0:2:0:0:
362,254,67368,2,0,P|364:303|360:346,1,83.7199971895753,0|2,1:2|0:2,0:2:0:0:
182,164,67695,1,10,0:2:0:0:
386,48,67859,2,0,P|388:89|385:131,1,83.7199971895753,2|0,0:2|0:2,0:2:0:0:
196,20,68187,1,2,1:2:0:0:
170,257,68351,6,0,B|260:253|223:187|335:191,1,167.439994379151,4|2,1:2|1:2,0:2:0:0:
158,151,68843,2,0,P|106:136|69:132,1,83.7199971895753,2|8,0:2|0:2,0:2:0:0:
324,286,69171,2,0,P|365:279|405:267,1,83.7199971895753,2|0,0:2|0:2,0:2:0:0:
272,94,69499,1,2,0:2:0:0:
155,279,69663,5,0,1:2:0:0:
94,58,69827,1,8,0:2:0:0:
240,223,69991,1,0,0:2:0:0:
272,94,70154,1,0,1:2:0:0:
71,178,70318,5,10,0:2:0:0:
424,272,70482,1,10,0:2:0:0:
76,329,70646,1,10,0:2:0:0:
222,21,70810,1,10,0:2:0:0:
374,340,70974,6,0,P|388:270|389:231,1,92.8200005665283,6|0,1:2|0:2,0:2:0:0:
143,101,71302,1,8,0:2:0:0:
467,187,71466,2,0,P|450:143|428:102,1,92.8200005665283,2|0,0:2|1:2,0:2:0:0:
284,279,71794,1,2,1:2:0:0:
222,21,71958,1,8,0:2:0:0:
376,210,72122,1,2,3:2:0:0:
103,32,72286,6,0,P|97:91|83:154,1,92.8200005665283,4|0,1:2|0:2,0:2:0:0:
211,337,72614,1,8,0:2:0:0:
338,40,72777,2,0,P|342:86|350:131,1,92.8200005665283,2|0,0:2|1:2,0:2:0:0:
149,273,73105,1,2,1:2:0:0:
252,38,73269,1,8,0:2:0:0:
312,301,73433,1,2,3:2:0:0:
137,38,73597,5,4,1:2:0:0:
384,172,73761,1,2,0:2:0:0:
62,255,73925,1,10,0:2:0:0:
277,120,74089,1,2,0:2:0:0:
152,361,74253,1,2,1:2:0:0:
120,75,74417,1,2,1:2:0:0:
278,292,74581,1,8,0:2:0:0:
368,81,74745,1,2,3:2:0:0:
97,251,74909,6,0,P|44:231|15:203,1,92.8200005665283,4|2,1:2|0:2,0:2:0:0:
255,50,75236,2,0,P|308:70|337:98,1,92.8200005665283,12|2,0:2|0:2,0:2:0:0:
207,362,75564,1,0,1:2:0:0:
182,322,75645,1,0,1:2:0:0:
179,277,75727,1,10,0:2:0:0:
196,234,75809,1,8,0:2:0:0:
231,203,75891,1,8,0:2:0:0:
247,168,75974,1,4,3:0:0:0:
258,119,76056,1,4,3:0:0:0:
241,76,76138,1,4,3:0:0:0:
206,46,76220,5,4,1:2:0:0:
278,292,76384,1,0,0:2:0:0:
157,132,76548,1,10,0:2:0:0:
379,202,76712,1,2,0:2:0:0:
103,252,76876,1,0,1:2:0:0:
341,104,77040,1,2,1:2:0:0:
207,362,77204,1,10,0:2:0:0:
61,140,77368,6,0,P|68:73|188:42,1,185.640001133057,6|2,1:2|1:2,0:2:0:0:
302,283,77859,2,0,P|361:295|402:283,1,92.8200005665283,10|0,0:2|0:2,0:2:0:0:
283,46,78187,1,2,1:2:0:0:
193,251,78351,1,2,1:2:0:0:
365,129,78515,1,10,0:2:0:0:
91,160,78679,1,2,0:2:0:0:
285,335,78843,5,2,1:2:0:0:
243,148,79007,1,0,0:2:0:0:
139,360,79171,1,10,0:2:0:0:
326,226,79335,1,2,0:2:0:0:
64,141,79499,1,2,1:2:0:0:
183,272,79663,1,2,1:2:0:0:
289,57,79827,1,10,0:2:0:0:
45,254,79991,6,0,B|148:238|99:164|239:167,1,185.640001133057,2|2,1:2|1:2,0:2:0:0:
356,267,80482,1,10,0:2:0:0:
301,97,80646,1,0,0:2:0:0:
241,283,80810,1,2,1:2:0:0:
355,7,80974,1,10,0:2:0:0:
114,172,81138,1,10,0:2:0:0:
392,284,81302,1,10,0:2:0:0:
166,65,81466,6,0,P|150:125|147:174,1,92.8200005665283,6|0,1:2|0:2,0:2:0:0:
269,314,81794,1,10,0:2:0:0:
377,125,81958,1,2,0:2:0:0:
377,125,82040,1,8,0:2:0:0:
377,125,82122,2,0,P|371:78|358:34,1,92.8200005665283,0|0,1:2|1:2,0:2:0:0:
242,218,82450,1,10,0:2:0:0:
82,22,82614,6,0,P|38:67|34:190,1,185.640001133057,6|2,1:2|1:2,0:2:0:0:
193,329,83105,1,10,0:2:0:0:
293,107,83269,1,2,0:2:0:0:
116,258,83433,1,2,1:2:0:0:
365,170,83597,1,2,1:2:0:0:
114,48,83761,1,10,0:2:0:0:
277,257,83925,1,2,1:2:0:0:
375,12,84089,5,14,0:2:0:0:
146,234,84253,1,10,0:2:0:0:
199,34,84417,1,0,1:2:0:0:
314,335,84581,1,10,0:2:0:0:
81,135,84745,1,10,0:2:0:0:
330,182,84909,1,0,1:2:0:0:
64,342,85073,1,10,0:2:0:0:
274,75,85236,1,10,0:2:0:0:
240,286,85400,1,0,1:2:0:0:
68,36,85564,5,8,0:2:0:0:
219,380,85728,1,10,0:2:0:0:
454,34,85892,2,0,B|134:28|356:316|4:335,1,564.199977616578,10|0,0:0|0:0,0:0:0:0:
