osu file format v14

[General]
AudioFilename: audio.mp3
AudioLeadIn: 0
PreviewTime: 54245
Countdown: 0
SampleSet: Soft
StackLeniency: 0.4
Mode: 0
LetterboxInBreaks: 0
WidescreenStoryboard: 1

[Editor]
Bookmarks: 10646,13269,32286
DistanceSpacing: 0.4
BeatDivisor: 4
GridSize: 4
TimelineZoom: 2.799999

[Metadata]
Title:Shiny Ray (TV Size)
TitleUnicode:Shiny Ray (TV Size)
Artist:YURiKA
ArtistUnicode:YURiKA
Creator:Gottagof4st
Version:Onlybiscuit's Extra: Mayenab Dysheebudo
Source:リトルウィッチアカデミア
Tags:lwa little witch academia Sotarks Icekalt bite_you_death CelsiusLK ametrin Nextplay Onlybiscuit Yasaija714 Celektus Zelq yaspo Chaoticred Serizawa byd ggf gottagofast Haruki Jack J_a_c_k My_Angel_Kanan Yudragen bite you death
BeatmapID:1847502
BeatmapSetID:584389

[Difficulty]
HPDrainRate:6
CircleSize:3.8
OverallDifficulty:8.7
ApproachRate:9.3
SliderMultiplier:1.8
SliderTickRate:1

[Events]
//Background and Video events
0,0,"biscuit.jpg",0,0
Video,-170,"OP.avi"
//Break Periods
//Storyboard Layer 0 (Background)
//Storyboard Layer 1 (Fail)
//Storyboard Layer 2 (Pass)
//Storyboard Layer 3 (Foreground)
//Storyboard Sound Samples

[TimingPoints]
155,327.868852459016,4,2,4,10,1,0
2777,-100,4,2,4,60,0,0
13269,-100,4,2,4,30,0,0
13597,-166.666666666667,4,2,4,30,0,0
23761,-99.9999999999999,4,2,4,45,0,0
34253,-99.9999999999999,4,2,4,50,0,0
39499,-200,4,2,4,20,0,0
42122,-200,4,2,4,25,0,0
42777,-142.857142857143,4,2,4,30,0,0
43433,-111.111111111111,4,2,4,35,0,0
44089,-111.111111111111,4,2,4,40,0,0
44745,-111.111111111111,4,2,4,30,0,0
49335,-111.111111111111,4,2,4,30,0,0
49991,-90.9090909090908,4,2,4,40,0,0
52614,-333.333333333333,4,2,4,25,0,0
54581,-200,4,2,4,50,0,1
54745,-200,4,2,4,50,0,0
55073,-76.9230769230769,4,2,4,70,0,1
65564,-100,4,2,4,70,0,0
70974,-83.3333333333333,4,2,4,70,0,1
76220,-100,4,2,4,60,0,0

[Colours]
Combo1 : 255,102,204
Combo2 : 0,255,255
Combo3 : 128,0,255

[HitObjects]
401,159,2777,6,0,P|392:208|388:256,1,90,6|0,3:2|0:0,0:0:0:0:
382,288,3023,1,0,0:0:0:0:
382,288,3105,1,2,3:2:0:0:
297,125,3269,1,2,0:2:0:0:
473,285,3433,1,2,3:2:0:0:
274,229,3597,1,2,0:2:0:0:
479,102,3761,1,2,3:2:0:0:
237,30,3925,6,0,B|158:27|189:99|69:94,1,180,2|2,0:3|0:2,0:0:0:0:
260,127,4417,1,0,3:2:0:0:
121,263,4581,1,2,0:2:0:0:
147,38,4745,1,2,3:2:0:0:
282,259,4909,1,2,0:2:0:0:
282,259,4991,1,0,1:2:0:0:
282,259,5073,1,2,1:2:0:0:
164,129,5236,1,8,0:3:0:0:
26,358,5400,6,0,P|34:264|35:169,1,180,6|2,3:2|3:2,0:0:0:0:
128,360,5892,1,2,0:2:0:0:
218,188,6056,1,2,3:2:0:0:
341,344,6220,1,2,0:2:0:0:
118,260,6384,1,2,3:2:0:0:
328,126,6548,1,2,1:2:0:0:
209,293,6712,6,0,P|194:339|187:394,1,90,2|2,3:2|0:2,0:0:0:0:
359,207,7040,2,0,P|374:253|381:308,1,90,2|8,3:2|0:3,0:0:0:0:
185,140,7368,1,4,3:3:0:0:
167,134,7450,1,0,0:0:0:0:
149,131,7532,1,2,1:2:0:0:
131,131,7614,1,0,1:2:0:0:
113,134,7695,2,0,P|89:142|61:161,3,45,2|8|8|4,1:2|0:3|0:3|0:3,0:0:0:0:
184,50,8023,5,6,3:2:0:0:
272,218,8187,1,2,0:2:0:0:
46,73,8351,1,2,3:2:0:0:
276,83,8515,1,2,0:2:0:0:
128,220,8679,2,0,P|86:247|35:253,1,90,0|0,3:2|0:0,0:0:0:0:
181,74,9007,1,2,3:2:0:0:
305,298,9171,6,0,P|374:280|377:183,1,180,2|0,0:3|0:0,0:0:0:0:
242,8,9663,1,2,3:2:0:0:
300,218,9827,1,2,0:2:0:0:
490,0,9991,1,2,3:2:0:0:
268,117,10154,1,8,0:3:0:0:
268,117,10236,1,8,0:3:0:0:
268,117,10318,1,4,0:3:0:0:
466,245,10482,1,4,0:3:0:0:
466,245,10564,1,0,0:0:0:0:
466,245,10646,5,6,1:2:0:0:
242,8,10810,1,2,1:2:0:0:
171,233,10974,1,0,3:2:0:0:
442,116,11138,5,6,1:2:0:0:
141,68,11302,1,2,1:2:0:0:
173,270,11466,1,2,0:2:0:0:
356,28,11630,5,6,1:2:0:0:
296,338,11794,1,0,1:2:0:0:
128,164,11958,1,0,3:2:0:0:
394,269,12122,5,0,1:2:0:0:
122,373,12286,1,0,1:2:0:0:
272,106,12450,1,0,0:0:0:0:
272,106,12532,1,0,1:2:0:0:
272,106,12614,5,2,1:2:0:0:
213,384,12777,1,2,1:2:0:0:
37,92,12941,1,2,1:2:0:0:
258,253,13105,1,2,1:2:0:0:
385,102,13269,1,0,3:2:0:0:
385,102,13597,6,0,P|397:132|405:170,1,53.9999983520508,2|0,0:2|0:0,0:0:0:0:
258,253,13925,2,0,P|293:211|352:201,1,107.999996704102,2|2,1:2|0:2,0:0:0:0:
454,292,14417,2,0,B|404:275|406:321|338:289,1,107.999996704102,2|2,3:2|0:2,0:0:0:0:
218,335,14909,2,0,P|250:345|291:341,1,53.9999983520508,0|2,3:2|0:2,0:0:0:0:
148,251,15236,2,0,P|105:238|74:243,2,53.9999983520508,0|2|0,1:2|0:2|0:0,0:0:0:0:
227,172,15728,1,2,0:2:0:0:
127,93,15892,2,0,P|118:127|113:167,1,53.9999983520508,0|0,3:2|0:0,0:0:0:0:
96,238,16220,1,0,0:0:0:0:
196,27,16548,2,0,P|205:61|210:101,1,53.9999983520508,0|2,1:2|0:2,0:0:0:0:
227,172,16876,1,2,0:2:0:0:
334,28,17040,6,0,P|392:35|406:91,1,107.999996704102,2|0,3:2|0:0,0:0:0:0:
370,208,17532,1,2,3:2:0:0:
288,119,17695,1,2,0:2:0:0:
462,193,17859,1,2,1:2:0:0:
265,234,18023,2,0,P|236:230|207:216,2,53.9999983520508,2|0|0,0:2|0:0|0:0,0:0:0:0:
366,353,18515,2,0,P|368:296|374:243,1,107.999996704102,6|0,3:2|0:0,0:0:0:0:
170,337,19171,2,0,B|115:324|124:361|62:345,1,107.999996704102,2|2,1:2|0:2,0:0:0:0:
37,214,19663,6,0,P|26:185|6:160,2,53.9999983520508,2|0|0,3:2|0:0|0:0,0:0:0:0:
151,130,20154,2,0,P|139:157|131:188,1,53.9999983520508,2|0,3:2|0:0,0:0:0:0:
262,73,20482,2,0,P|274:100|282:131,1,53.9999983520508,2|0,1:2|0:0,0:0:0:0:
119,29,20810,1,2,0:2:0:0:
151,130,20974,1,2,0:2:0:0:
297,17,21138,6,0,P|286:55|280:131,1,107.999996704102,2|0,3:2|0:0,0:0:0:0:
315,213,21630,1,2,0:2:0:0:
409,100,21794,2,0,P|432:84|461:74,2,53.9999983520508,2|0|0,1:2|0:0|0:0,0:0:0:0:
326,200,22286,2,0,P|349:216|378:226,1,53.9999983520508,2|0,3:2|0:0,0:0:0:0:
242,92,22614,1,2,0:2:0:0:
178,214,22777,1,2,3:2:0:0:
322,121,22941,1,2,0:2:0:0:
126,145,23105,1,2,0:2:0:0:
236,286,23269,1,2,0:2:0:0:
49,73,23597,1,0,0:0:0:0:
49,73,23679,1,0,0:0:0:0:
49,73,23761,6,0,B|23:154|75:155|41:253,1,180,6|2,3:2|0:2,0:0:0:0:
93,346,24253,1,2,0:2:0:0:
241,192,24417,2,0,P|197:200|159:224,1,90,2|0,1:2|0:0,0:0:0:0:
320,225,24745,1,2,0:2:0:0:
130,105,24909,2,0,P|92:80|48:72,1,90,2|0,3:2|0:0,0:0:0:0:
246,165,25236,2,0,P|289:156|327:132,1,90,2|0,3:2|0:0,0:0:0:0:
198,292,25564,1,2,1:2:0:0:
125,138,25728,1,0,0:0:0:0:
199,315,25892,1,2,3:2:0:0:
246,165,26056,2,0,P|254:102|247:66,1,90,2|2,0:3|0:2,0:0:0:0:
453,292,26384,6,0,P|428:237|313:229,1,180,0|0,3:2|0:0,0:0:0:0:
359,326,26876,1,0,0:0:0:0:
491,189,27040,2,0,P|503:146|506:90,1,90,0|2,1:2|0:2,0:0:0:0:
453,292,27368,1,2,0:2:0:0:
305,194,27532,6,0,B|199:176|256:238|112:213,1,180,2|0,3:2|3:2,0:0:0:0:
291,110,28023,1,2,3:2:0:0:
235,308,28187,1,0,1:2:0:0:
166,137,28351,1,2,0:2:0:0:
378,250,28515,1,2,3:2:0:0:
128,323,28679,2,0,P|69:299|106:243,1,135,2|0,1:3|0:0,0:0:0:0:
131,215,29007,6,0,P|137:148|146:114,1,90,6|0,3:2|0:0,0:0:0:0:
280,21,29335,2,0,B|297:71|291:109,1,90,0|0,0:0|0:0,0:0:0:0:
86,69,29663,2,0,P|128:45|179:52,1,90,2|0,1:2|0:0,0:0:0:0:
290,109,29991,1,2,0:2:0:0:
131,215,30154,6,0,P|113:251|97:310,1,90,2|0,3:2|0:0,0:0:0:0:
210,151,30482,1,0,3:2:0:0:
298,324,30646,1,2,0:2:0:0:
386,96,30810,1,0,1:2:0:0:
474,232,30974,2,0,P|492:268|508:327,1,90,2|0,0:2|3:2,0:0:0:0:
298,128,31302,2,0,P|280:164|264:223,1,90,2|0,0:3|0:0,0:0:0:0:
477,28,31630,6,0,B|375:12|418:89|290:50,1,180,2|0,3:2|0:0,0:0:0:0:
265,211,32122,1,2,0:2:0:0:
265,211,32204,1,0,0:0:0:0:
265,211,32286,2,0,P|283:247|299:306,1,90,2|0,1:2|0:0,0:0:0:0:
169,163,32614,1,0,0:0:0:0:
393,192,32777,2,0,P|434:200|473:234,1,90,0|0,3:2|0:0,0:0:0:0:
306,54,33105,1,0,1:2:0:0:
265,211,33269,1,0,0:0:0:0:
157,54,33433,1,0,3:2:0:0:
378,180,33597,1,2,1:2:0:0:
170,260,33761,1,0,3:2:0:0:
461,344,33925,1,2,1:2:0:0:
461,344,34253,6,0,B|352:316|400:373|262:344,1,180,6|0,3:2|3:2,0:0:0:0:
265,211,34745,1,2,0:2:0:0:
192,345,34909,2,0,P|172:296|170:256,1,90,2|0,3:2|0:0,0:0:0:0:
199,158,35236,1,2,3:2:0:0:
337,277,35400,6,0,P|357:228|359:188,1,90,2|0,0:2|3:2,0:0:0:0:
251,84,35728,1,2,0:2:0:0:
146,235,35892,2,0,P|98:228|55:206,1,90,2|0,3:2|0:0,0:0:0:0:
277,185,36220,1,0,3:2:0:0:
89,70,36384,1,2,0:2:0:0:
89,70,36466,1,0,1:2:0:0:
89,70,36548,1,2,1:2:0:0:
170,239,36712,1,2,0:2:0:0:
373,116,36876,6,0,P|445:125|456:226,1,180,6|2,3:2|3:2,0:0:0:0:
251,84,37368,2,0,P|202:51|154:43,1,90,2|0,0:2|3:2,0:0:0:0:
293,239,37695,2,0,P|335:225|371:198,1,90,2|0,0:2|3:2,0:0:0:0:
188,152,38023,1,2,0:2:0:0:
269,321,38187,6,0,P|304:348|347:361,1,90,2|2,3:3|0:2,0:0:0:0:
165,166,38515,2,0,P|122:179|86:206,1,90,2|2,3:3|0:2,0:0:0:0:
70,245,38761,1,0,1:0:0:0:
70,245,38843,1,2,1:2:0:0:
273,206,39007,1,8,0:3:0:0:
68,68,39171,1,8,0:3:0:0:
225,13,39335,1,4,0:3:0:0:
164,86,39499,6,0,B|161:220|226:186|208:354,1,270,2|2,0:2|0:2,0:0:0:0:
356,89,40810,6,0,B|399:82|430:108|430:108|372:202|270:185,1,270,2|2,0:2|0:2,0:0:0:0:
41,286,42122,6,0,P|91:257|189:296,1,157.5,2|0,0:2|0:0,0:0:0:0:
208,362,42777,6,0,P|228:258|238:137,1,220.499993270874,2|0,0:2|0:0,0:0:0:0:
155,107,43433,6,0,B|302:87|257:190|451:156,1,283.499991348267,2|0,0:2|0:0,0:0:0:0:
484,103,44089,1,2,0:2:0:0:
416,243,44253,1,0,0:0:0:0:
367,82,44417,1,0,0:0:0:0:
498,195,44581,1,0,0:0:0:0:
266,103,44745,5,2,0:2:0:0:
495,328,45236,1,2,0:2:0:0:
129,332,45728,1,2,0:2:0:0:
373,118,46220,5,0,3:0:0:0:
461,212,46384,2,0,P|481:258|492:301,1,80.9999975280763,0|0,1:0|0:0,0:0:0:0:
379,85,46712,1,0,3:0:0:0:
303,235,46876,1,0,3:0:0:0:
165,128,47040,2,0,P|145:82|134:39,1,80.9999975280763,0|0,1:0|0:0,0:0:0:0:
338,316,47368,5,2,0:2:0:0:
216,46,47859,1,2,0:2:0:0:
41,307,48351,1,2,0:2:0:0:
165,128,48679,5,0,3:0:0:0:
249,371,48843,1,0,1:0:0:0:
359,215,49007,1,0,3:0:0:0:
218,364,49171,1,0,3:0:0:0:
94,197,49335,2,0,P|73:184|42:175,1,40.4999987640381,8|0,3:3|0:0,0:0:0:0:
221,271,49499,2,0,P|239:263|256:252,1,40.4999987640381,4|0,3:3|0:0,0:0:0:0:
48,336,49663,1,6,1:2:0:0:
221,188,49827,1,0,3:0:0:0:
221,188,49909,1,0,0:0:0:0:
221,188,49991,6,0,P|271:172|316:297,1,198.000006042481,6|2,3:2|0:3,0:0:0:0:
124,202,50482,1,0,3:0:0:0:
313,149,50646,2,0,P|373:130|415:125,1,99.0000030212403,2|0,1:3|0:0,0:0:0:0:
168,87,50974,1,2,0:3:0:0:
307,47,51138,1,0,0:0:0:0:
257,258,51302,5,2,3:3:0:0:
143,113,51466,2,0,P|114:53|91:24,1,99.0000030212403,0|2,1:0|0:3,0:0:0:0:
143,217,51794,1,0,3:0:0:0:
298,85,51958,2,0,P|327:25|350:-4,1,99.0000030212403,2|0,1:3|0:0,0:0:0:0:
408,125,52286,1,2,3:3:0:0:
241,270,52614,5,0,0:0:0:0:
256,192,52695,12,0,54253,0:0:0:0:
59,88,54581,5,4,1:3:0:0:
379,96,54745,2,0,P|348:79|316:72,1,67.5,4|0,1:3|0:0,0:0:0:0:
264,18,55073,6,0,B|262:115|326:108|317:243,1,233.999989288331,6|0,3:2|0:0,0:0:0:0:
99,245,55564,2,0,P|151:205|206:193,1,116.999994644165,2|2,1:2|0:2,0:0:0:0:
21,148,55892,1,2,3:2:0:0:
216,303,56056,2,0,P|261:339|317:354,1,116.999994644165,2|0,3:2|1:2,0:0:0:0:
84,353,56384,1,2,0:2:0:0:
317,241,56548,5,0,3:2:0:0:
134,174,56712,1,2,3:2:0:0:
317,105,56876,1,0,1:2:0:0:
214,280,57040,1,2,3:2:0:0:
140,70,57204,1,2,0:2:0:0:
307,256,57368,1,2,3:2:0:0:
400,65,57532,2,0,P|448:24|517:12,1,116.999994644165,0|2,1:2|0:2,0:0:0:0:
297,244,57859,6,0,P|227:212|244:57,1,233.999989288331,0|2,3:2|1:2,0:0:0:0:
426,168,58351,2,0,L|313:140,1,116.999994644165,2|0,3:2|0:0,0:0:0:0:
134,275,58679,1,2,3:2:0:0:
386,272,58843,1,0,1:2:0:0:
202,139,59007,1,2,0:2:0:0:
273,360,59171,5,2,3:2:0:0:
297,129,59335,1,2,3:2:0:0:
137,333,59499,1,2,1:2:0:0:
43,134,59663,1,2,3:2:0:0:
230,252,59827,2,0,P|256:299|273:364,1,116.999994644165,2|2,0:2|3:2,0:0:0:0:
123,139,60154,1,2,1:2:0:0:
42,288,60318,1,2,0:2:0:0:
297,129,60482,6,0,B|411:128|381:223|534:204,1,233.999989288331,4|2,3:2|1:2,0:0:0:0:
298,30,60974,1,2,3:2:0:0:
303,229,61138,1,2,0:2:0:0:
132,113,61302,2,0,P|78:81|16:70,1,116.999994644165,2|0,3:2|1:2,0:0:0:0:
258,124,61630,1,2,0:2:0:0:
81,295,61794,5,0,3:2:0:0:
153,99,61958,1,2,3:2:0:0:
254,270,62122,1,0,1:2:0:0:
48,159,62286,2,0,P|16:230|8:288,1,116.999994644165,2|0,3:2|0:0,0:0:0:0:
215,160,62614,2,0,P|247:231|255:289,1,116.999994644165,2|0,3:2|1:2,0:0:0:0:
347,88,62941,1,2,0:2:0:0:
159,264,63105,6,0,P|175:337|328:340,1,233.999989288331,2|2,3:2|1:2,0:0:0:0:
431,164,63597,2,0,P|452:91|451:41,1,116.999994644165,2|0,3:2|0:0,0:0:0:0:
348,243,63925,1,0,3:2:0:0:
176,37,64089,1,2,1:2:0:0:
423,165,64253,1,2,0:2:0:0:
143,246,64417,5,2,1:2:0:0:
307,76,64581,1,2,3:2:0:0:
269,317,64745,5,2,1:2:0:0:
124,114,64909,1,2,3:2:0:0:
409,302,65073,5,2,1:2:0:0:
88,358,65236,1,2,3:2:0:0:
300,45,65564,6,0,P|316:116|323:233,1,180,6|0,3:2|0:0,0:0:0:0:
185,336,66056,2,0,P|218:290|259:265,1,90,2|2,3:2|0:2,0:0:0:0:
405,207,66384,1,2,1:2:0:0:
229,110,66548,2,0,P|179:85|133:83,1,90,2|0,0:2|0:0,0:0:0:0:
23,239,66876,6,0,P|67:232|106:210,1,90,2|0,0:2|3:2,0:0:0:0:
230,72,67204,1,2,1:2:0:0:
194,263,67368,1,0,3:2:0:0:
41,150,67532,1,2,0:2:0:0:
202,352,67695,1,2,1:2:0:0:
305,209,67859,2,0,P|317:156|322:110,1,90,2|0,0:2|0:0,0:0:0:0:
414,276,68187,1,2,3:2:0:0:
217,151,68351,6,0,B|119:148|154:218|46:202,1,180,4|2,3:2|3:2,0:0:0:0:
37,61,68843,1,2,0:2:0:0:
212,235,69007,1,0,1:2:0:0:
321,120,69171,2,0,P|371:107|413:103,1,90,2|0,0:2|0:0,0:0:0:0:
260,47,69499,1,2,0:2:0:0:
350,216,69663,5,0,3:2:0:0:
437,49,69827,1,0,1:2:0:0:
321,120,69991,1,0,0:0:0:0:
464,213,70154,1,0,3:2:0:0:
221,226,70318,1,2,1:2:0:0:
454,127,70482,1,2,1:2:0:0:
397,311,70646,1,2,0:2:0:0:
223,133,70810,1,2,1:2:0:0:
79,357,70974,6,0,P|63:240|35:145,1,215.999993408203,4|2,3:2|1:2,0:0:0:0:
214,322,71466,2,0,P|233:257|254:209,1,107.999996704102,2|0,0:2|3:2,0:0:0:0:
93,338,71794,1,2,3:2:0:0:
316,295,71958,1,0,1:2:0:0:
153,187,72122,1,2,0:2:0:0:
356,74,72286,6,0,P|417:88|407:220,1,215.999993408203,4|2,3:2|1:2,0:0:0:0:
254,34,72777,2,0,P|236:89|227:154,1,107.999996704102,2|0,0:2|3:2,0:0:0:0:
28,0,73105,2,0,P|46:55|55:120,1,107.999996704102,2|0,3:2|1:2,0:0:0:0:
54,249,73433,1,2,0:2:0:0:
254,34,73597,5,4,3:2:0:0:
32,134,73761,1,2,0:2:0:0:
283,232,73925,1,2,1:2:0:0:
138,88,74089,1,2,0:2:0:0:
369,156,74253,1,2,3:2:0:0:
164,251,74417,2,0,P|137:302|124:353,1,107.999996704102,2|0,3:2|1:2,0:0:0:0:
48,212,74745,1,2,0:2:0:0:
253,342,74909,5,4,3:2:0:0:
194,155,75073,1,2,0:2:0:0:
86,324,75236,1,0,3:2:0:0:
271,218,75400,1,2,0:2:0:0:
66,142,75564,1,0,3:2:0:0:
278,50,75728,1,2,1:2:0:0:
278,50,75810,1,0,1:2:0:0:
278,50,75892,1,0,3:2:0:0:
80,114,76056,1,8,0:3:0:0:
309,205,76220,6,0,P|340:274|353:381,1,180,6|2,3:2|1:2,0:0:0:0:
417,180,76712,1,2,0:2:0:0:
212,307,76876,1,2,3:2:0:0:
447,341,77040,1,2,3:2:0:0:
222,170,77204,1,2,1:2:0:0:
453,58,77368,6,0,B|361:52|405:109|298:137,1,180,2|2,3:2|3:2,0:0:0:0:
127,0,77859,1,2,1:2:0:0:
303,51,78023,1,2,0:2:0:0:
91,186,78187,1,2,3:2:0:0:
220,0,78351,1,2,3:2:0:0:
118,271,78515,1,2,1:2:0:0:
53,73,78679,1,2,0:2:0:0:
224,265,78843,6,0,P|283:242|288:121,1,180,2|2,3:2|1:2,0:0:0:0:
124,305,79335,1,2,0:2:0:0:
143,110,79499,1,2,3:2:0:0:
317,240,79663,1,2,3:2:0:0:
91,186,79827,1,2,1:2:0:0:
278,347,79991,6,0,P|339:331|460:324,1,180,2|2,3:2|3:2,0:0:0:0:
211,169,80482,1,2,1:2:0:0:
152,331,80646,1,2,0:2:0:0:
312,145,80810,1,2,3:2:0:0:
55,193,80974,1,2,1:2:0:0:
338,253,81138,1,2,1:2:0:0:
107,99,81302,1,2,3:2:0:0:
333,30,81466,6,0,P|396:14|443:10,1,90,6|2,3:2|0:2,0:0:0:0:
448,25,81712,1,0,0:0:0:0:
448,25,81794,1,2,1:2:0:0:
294,149,81958,1,2,0:2:0:0:
294,149,82040,1,0,1:2:0:0:
294,149,82122,1,0,3:2:0:0:
422,216,82286,1,0,3:2:0:0:
308,9,82450,1,2,1:2:0:0:
227,250,82614,6,0,P|175:282|88:213,1,180,2|2,3:2|3:2,0:0:0:0:
59,0,83105,1,2,1:2:0:0:
170,182,83269,1,2,0:2:0:0:
276,3,83433,1,2,3:2:0:0:
37,129,83597,1,2,3:2:0:0:
316,122,83761,1,2,1:2:0:0:
29,14,83925,1,2,3:2:0:0:
175,274,84089,5,6,1:2:0:0:
240,15,84253,1,2,1:2:0:0:
343,163,84417,1,2,3:2:0:0:
66,173,84581,5,6,1:2:0:0:
329,33,84745,1,2,1:2:0:0:
267,266,84909,1,2,3:2:0:0:
122,58,85073,5,6,1:2:0:0:
32,334,85236,1,0,1:2:0:0:
203,185,85400,1,0,3:2:0:0:
384,370,85564,5,4,1:3:0:0:
66,173,85728,1,4,1:3:0:0:
411,29,85892,1,4,1:3:0:0:
