osu file format v14

[General]
AudioFilename: audio.mp3
AudioLeadIn: 0
PreviewTime: 54245
Countdown: 0
SampleSet: Soft
StackLeniency: 0.4
Mode: 0
LetterboxInBreaks: 0
WidescreenStoryboard: 1

[Editor]
Bookmarks: 2777,13269,23761,34253,39499,44745,49991,55073,65728,70974,76220,85892
DistanceSpacing: 0.4
BeatDivisor: 4
GridSize: 4
TimelineZoom: 2.8

[Metadata]
Title:Shiny Ray (TV Size)
TitleUnicode:Shiny Ray (TV Size)
Artist:YURiKA
ArtistUnicode:YURiKA
Creator:Gottagof4st
Version:Collab Insane
Source:リトルウィッチアカデミア
Tags:lwa little witch academia Sotarks Icekalt bite_you_death CelsiusLK ametrin Nextplay Onlybiscuit Yasaija714 Celektus Zelq yaspo Chaoticred Serizawa byd ggf gottagofast Haruki Jack J_a_c_k My_Angel_Kanan Yudragen bite you death
BeatmapID:1847500
BeatmapSetID:584389

[Difficulty]
HPDrainRate:6
CircleSize:3.8
OverallDifficulty:7.4
ApproachRate:8.7
SliderMultiplier:1.5
SliderTickRate:1

[Events]
//Background and Video events
0,0,"lwa bg.jpg",0,0
Video,-170,"OP.avi"
//Break Periods
//Storyboard Layer 0 (Background)
//Storyboard Layer 1 (Fail)
//Storyboard Layer 2 (Pass)
//Storyboard Layer 3 (Foreground)
//Storyboard Sound Samples

[TimingPoints]
155,327.868852459016,4,2,4,10,1,0
2777,-100,4,2,4,60,0,0
13269,-125,4,2,4,30,0,0
13597,-125,4,2,4,30,0,0
23761,-111.111111111111,4,2,4,45,0,0
34253,-111.111111111111,4,2,4,50,0,0
39499,-111.111111111111,4,2,4,20,0,0
42122,-111.111111111111,4,2,4,25,0,0
42777,-111.111111111111,4,2,4,30,0,0
43433,-111.111111111111,4,2,4,35,0,0
44089,-111.111111111111,4,2,4,40,0,0
44745,-142.857142857143,4,2,4,30,0,0
49991,-142.857142857143,4,2,4,40,0,0
52614,-142.857142857143,4,2,4,25,0,0
54581,-142.857142857143,4,2,4,50,0,0
55073,-90.9090909090909,4,2,4,70,0,1
58105,-90.909090909091,4,2,4,70,0,1
58187,-90.909090909091,4,2,4,70,0,1
60728,-90.909090909091,4,2,4,70,0,1
60810,-90.909090909091,4,2,4,70,0,1
65236,-125,4,2,4,70,0,0
70974,-90.909090909091,4,2,4,70,0,1
71220,-90.909090909091,4,2,4,5,0,1
71302,-90.909090909091,4,2,4,70,0,1
72532,-90.909090909091,4,2,4,70,0,1
72614,-90.909090909091,4,2,4,70,0,1
76220,-100,4,2,4,60,0,0

[Colours]
Combo1 : 255,102,204
Combo2 : 0,255,255
Combo3 : 128,0,255

[HitObjects]
49,81,2777,6,0,P|115:58|191:84,1,150,6|2,3:2|3:2,0:0:0:0:
272,163,3269,1,2,0:2:0:0:
360,74,3433,2,0,P|367:34|367:0,1,75,2|2,3:2|0:2,0:0:0:0:
273,80,3760,1,2,3:2:0:0:
347,217,3925,6,0,L|353:388,1,150,2|2,0:3|0:2,0:0:0:0:
192,384,4417,2,0,L|195:281,1,75,0|2,3:2|0:2,0:0:0:0:
262,188,4745,1,2,3:2:0:0:
132,259,4909,1,2,0:2:0:0:
132,259,4991,1,0,1:2:0:0:
132,259,5073,1,2,1:2:0:0:
156,129,5236,1,8,0:3:0:0:
11,266,5400,6,0,P|44:210|28:104,1,150,6|2,3:2|3:2,0:0:0:0:
51,1,5892,1,2,0:2:0:0:
156,129,6056,2,0,L|245:119,1,75,2|2,3:2|0:2,0:0:0:0:
272,19,6384,1,2,3:2:0:0:
355,135,6548,6,0,P|322:191|338:297,1,150,2|2,1:2|0:2,0:0:0:0:
401,326,7040,2,0,L|497:323,1,75,2|8,3:2|0:3,0:0:0:0:
323,382,7368,2,0,L|227:379,1,75,4|2,3:3|1:2,0:0:0:0:
212,356,7614,1,0,1:2:0:0:
197,354,7695,1,2,1:2:0:0:
182,352,7777,1,8,0:3:0:0:
167,350,7859,2,0,L|129:350,1,37.5,8|4,0:3|0:3,0:0:0:0:
20,384,8023,6,0,P|53:328|37:222,1,150,6|2,3:2|3:2,0:0:0:0:
0,146,8515,1,2,0:2:0:0:
110,58,8679,2,0,P|152:52|194:59,1,75,0|0,3:2|0:0,0:0:0:0:
241,151,9007,1,2,3:2:0:0:
330,36,9171,6,0,L|340:192,1,150,2|0,0:3|0:0,0:0:0:0:
269,279,9663,1,2,3:2:0:0:
421,206,9827,1,2,0:2:0:0:
379,349,9991,2,0,L|294:358,1,75,2|8,3:2|0:3,0:0:0:0:
273,384,10236,1,8,0:3:0:0:
273,384,10318,2,0,L|188:375,1,75,4|4,0:3|0:3,0:0:0:0:
72,319,10646,5,6,1:2:0:0:
23,211,10810,2,0,L|22:116,1,75,2|0,1:2|3:2,0:0:0:0:
104,297,11138,5,6,1:2:0:0:
55,189,11302,2,0,L|54:94,1,75,2|2,1:2|0:2,0:0:0:0:
132,274,11630,5,6,1:2:0:0:
185,141,11794,2,0,B|229:118|229:118|334:132,1,150,0|0,1:2|1:2,0:0:0:0:
440,234,12286,2,0,P|448:195|443:148,1,75,0|0,1:2|0:0,0:0:0:0:
445,160,12532,1,0,1:2:0:0:
445,160,12614,1,2,1:2:0:0:
328,131,12777,1,2,1:2:0:0:
479,83,12941,1,2,1:2:0:0:
331,52,13105,1,2,1:2:0:0:
398,0,13269,5,0,3:2:0:0:
398,0,13597,2,0,P|362:15|324:18,1,60,2|0,0:2|0:0,0:0:0:0:
254,62,13925,2,0,P|199:39|118:39,1,120,2|2,1:2|0:2,0:0:0:0:
60,90,14417,2,0,L|50:212,1,120,2|2,3:2|0:2,0:0:0:0:
90,297,14909,1,0,3:2:0:0:
90,297,15073,2,0,L|177:307,1,60,2|0,0:2|1:2,0:0:0:0:
203,203,15400,2,0,L|116:213,1,60,2|0,0:2|0:0,0:0:0:0:
177,309,15728,1,2,0:2:0:0:
271,153,15892,5,0,3:2:0:0:
485,365,16548,5,0,1:2:0:0:
412,310,16712,2,0,L|346:317,1,60,2|2,0:2|0:2,0:0:0:0:
271,377,17040,2,0,B|246:339|246:339|263:250,1,120,2|0,3:2|0:0,0:0:0:0:
325,196,17532,2,0,L|321:126,1,60,2|2,3:2|0:2,0:0:0:0:
269,76,17859,1,2,1:2:0:0:
269,76,18023,2,0,L|186:84,2,60,2|0|0,0:2|0:0|0:0,0:0:0:0:
380,8,18515,5,6,3:2:0:0:
380,8,19171,2,0,L|386:144,1,120,2|2,1:2|0:2,0:0:0:0:
471,198,19663,2,0,L|477:62,1,120,2|0,3:2|0:0,0:0:0:0:
380,8,20154,2,0,P|345:4|316:8,1,60,2|0,3:2|0:0,0:0:0:0:
267,75,20482,2,0,P|232:79|203:75,1,60,2|0,1:2|0:0,0:0:0:0:
129,31,20810,1,2,0:2:0:0:
129,31,20974,1,2,0:2:0:0:
21,97,21138,6,0,B|6:155|6:155|19:218,1,120,2|0,3:2|0:0,0:0:0:0:
55,294,21630,1,2,0:2:0:0:
140,205,21794,2,0,P|181:188|265:210,1,120,2|0,1:2|0:0,0:0:0:0:
305,274,22286,1,2,3:2:0:0:
305,274,22614,5,2,0:2:0:0:
370,220,22777,2,0,L|436:227,1,60,2|2,3:2|0:2,0:0:0:0:
497,158,23105,1,2,0:2:0:0:
497,158,23269,1,2,0:2:0:0:
191,63,23761,5,6,3:2:0:0:
191,63,24089,2,0,L|107:61,1,67.4999979400635,2|2,0:2|0:2,0:0:0:0:
98,173,24417,2,0,L|182:171,1,67.4999979400635,2|0,1:2|0:0,0:0:0:0:
52,101,24745,1,2,0:2:0:0:
23,213,24909,2,0,P|15:249|22:286,1,67.4999979400635,2|0,3:2|0:0,0:0:0:0:
162,293,25236,2,0,P|134:268|99:255,1,67.4999979400635,2|0,3:2|0:0,0:0:0:0:
62,384,25564,6,0,L|144:377,1,67.4999979400635,2|0,1:2|0:0,0:0:0:0:
198,270,25892,2,0,L|280:277,1,67.4999979400635,2|2,3:2|0:3,0:0:0:0:
337,382,26220,1,2,0:2:0:0:
337,382,26302,1,0,0:0:0:0:
337,382,26384,2,0,P|305:332|315:235,1,134.999995880127,0|0,3:2|0:0,0:0:0:0:
375,195,26876,1,0,0:0:0:0:
237,193,27040,1,0,1:2:0:0:
237,193,27204,2,0,L|153:194,1,67.4999979400635,2|2,0:2|0:2,0:0:0:0:
38,130,27532,6,0,P|110:120|153:46,1,134.999995880127,2|0,3:2|3:2,0:0:0:0:
256,0,28023,2,0,P|244:46|247:84,1,67.4999979400635,2|0,3:2|1:2,0:0:0:0:
307,153,28351,1,2,0:2:0:0:
358,10,28515,1,2,3:2:0:0:
406,108,28679,2,0,L|415:149,3,33.7499989700318,2|0|0|0,1:3|0:0|0:0|0:0,0:0:0:0:
448,162,29007,6,0,B|428:197|428:197|435:308,1,134.999995880127,6|0,3:2|0:0,0:0:0:0:
433,291,29663,2,0,P|374:276|357:276,1,67.4999979400635,2|0,1:2|0:0,0:0:0:0:
292,337,29991,1,2,0:2:0:0:
292,337,30154,2,0,P|232:359|154:362,1,134.999995880127,2|0,3:2|3:2,0:0:0:0:
42,322,30646,6,0,B|35:289|35:289|42:251,1,67.4999979400635,2|0,0:2|1:2,0:0:0:0:
164,197,30974,2,0,B|171:230|171:230|164:268,1,67.4999979400635,2|0,0:2|3:2,0:0:0:0:
42,228,31302,2,0,B|35:195|35:195|42:157,1,67.4999979400635,2|0,0:3|0:0,0:0:0:0:
136,85,31630,6,0,L|286:99,1,134.999995880127,2|0,3:2|0:0,0:0:0:0:
371,123,32122,1,2,0:2:0:0:
317,0,32286,2,0,P|280:46|288:128,1,134.999995880127,2|0,1:2|0:0,0:0:0:0:
402,98,32777,1,0,3:2:0:0:
402,98,33105,5,0,1:2:0:0:
444,182,33269,2,0,L|452:257,1,67.4999979400635,0|0,0:0|3:2,0:0:0:0:
374,366,33597,2,0,L|292:363,1,67.4999979400635,2|0,1:2|3:2,0:0:0:0:
237,244,33925,2,0,L|155:247,1,67.4999979400635,2|0,1:2|0:0,0:0:0:0:
76,352,34253,1,6,3:2:0:0:
76,352,34745,5,2,0:2:0:0:
22,249,34909,2,0,L|19:174,1,67.4999979400635,2|0,3:2|0:0,0:0:0:0:
85,323,35236,5,2,3:2:0:0:
147,224,35400,2,0,L|210:183,1,67.4999979400635,2|0,0:2|3:2,0:0:0:0:
114,316,35728,5,2,0:2:0:0:
231,320,35892,2,0,B|277:336|277:336|382:323,1,134.999995880127,2|0,3:2|3:2,0:0:0:0:
451,271,36384,1,2,0:2:0:0:
451,271,36466,1,0,1:2:0:0:
451,271,36548,1,2,1:2:0:0:
322,226,36712,1,2,0:2:0:0:
470,184,36876,6,0,P|485:130|461:48,1,134.999995880127,6|2,3:2|3:2,0:0:0:0:
371,12,37368,2,0,L|297:7,1,67.4999979400635,2|0,0:2|3:2,0:0:0:0:
236,114,37695,2,0,L|310:109,1,67.4999979400635,2|0,0:2|3:2,0:0:0:0:
207,28,38023,6,0,L|133:23,1,67.4999979400635,2|2,0:2|3:3,0:0:0:0:
49,104,38351,1,2,0:2:0:0:
49,104,38515,2,0,P|41:142|54:183,1,67.4999979400635,2|2,3:3|0:2,0:0:0:0:
46,169,38761,1,0,1:0:0:0:
46,169,38843,1,2,1:2:0:0:
137,113,39007,1,8,0:3:0:0:
133,254,39171,1,8,0:3:0:0:
206,174,39335,1,4,0:3:0:0:
233,258,39499,5,2,0:2:0:0:
455,33,40810,5,2,0:2:0:0:
101,81,42122,5,2,0:2:0:0:
350,124,42777,5,2,0:2:0:0:
161,190,43433,5,2,0:2:0:0:
311,248,44089,5,2,0:2:0:0:
210,273,44253,1,0,0:0:0:0:
291,323,44417,1,0,0:0:0:0:
236,379,44581,1,0,0:0:0:0:
256,192,44745,6,0,P|211:184|116:243,2,157.499995193482,2|2|2,0:2|0:2|0:2,0:0:0:0:
256,192,46220,1,0,3:0:0:0:
209,107,46384,2,0,L|205:32,1,52.4999983978272,0|0,1:0|0:0,0:0:0:0:
335,135,46712,1,0,3:0:0:0:
335,135,46876,1,0,3:0:0:0:
373,23,47040,1,0,1:0:0:0:
373,23,47368,6,0,B|410:54|410:54|425:176,2,157.499995193482,2|2|2,0:2|0:2|0:2,0:0:0:0:
373,23,48679,1,0,3:0:0:0:
293,80,48843,2,0,L|230:82,1,52.4999983978272,0|0,1:0|3:0,0:0:0:0:
157,28,49171,1,0,3:0:0:0:
157,28,49335,1,8,3:3:0:0:
99,98,49499,1,4,3:3:0:0:
158,157,49663,2,0,P|165:190|161:220,1,52.4999983978272,6|0,1:2|3:0,0:0:0:0:
289,250,49991,6,0,P|364:270|439:250,1,157.499995193482,6|0,3:2|3:0,0:0:0:0:
395,143,50646,2,0,P|327:181|288:249,1,157.499995193482,2|0,1:3|0:0,0:0:0:0:
231,339,51302,1,2,3:3:0:0:
231,339,51466,2,0,P|181:352|131:339,1,104.999996795654,0|0,1:0|3:0,0:0:0:0:
181,252,51958,2,0,P|217:288|230:338,1,104.999996795654,2|2,1:3|3:3,0:0:0:0:
54,216,52614,6,0,B|24:101|146:52|146:52|130:106|156:164|172:140|198:197|181:252|181:252|221:212|275:216,1,524.999983978272,0|0,0:0|0:0,0:0:0:0:
276,216,54581,5,4,1:3:0:0:
54,216,54745,1,4,1:3:0:0:
54,216,55073,6,0,B|89:257|89:257|79:367,1,165.000005035401,6|0,3:2|0:0,0:0:0:0:
191,265,55564,2,0,L|183:348,1,82.5000025177003,2|2,1:2|0:2,0:0:0:0:
148,185,55892,1,2,3:2:0:0:
280,245,56056,2,0,P|320:255|360:245,1,82.5000025177003,2|0,3:2|1:2,0:0:0:0:
280,80,56384,6,0,P|240:70|200:80,1,82.5000025177003,2|0,0:2|3:2,0:0:0:0:
371,105,56712,2,0,L|378:22,1,82.5000025177003,2|0,3:2|1:2,0:0:0:0:
359,245,57040,1,2,3:2:0:0:
240,153,57204,1,2,0:2:0:0:
392,271,57368,2,0,P|417:303|425:343,1,82.5000025177003,2|0,3:2|1:2,0:0:0:0:
448,210,57695,1,2,0:2:0:0:
342,338,57859,6,0,P|282:353|222:338,1,123.75000377655,0|0,3:2|0:0,0:0:0:0:
185,320,58187,1,2,1:2:0:0:
275,153,58351,2,0,L|282:235,1,82.5000025177003,2|0,3:2|0:0,0:0:0:0:
129,169,58679,2,0,L|136:87,1,82.5000025177003,2|0,3:2|1:2,0:0:0:0:
120,272,59007,1,2,0:2:0:0:
229,146,59171,5,2,3:2:0:0:
215,313,59335,1,2,3:2:0:0:
129,169,59499,1,2,1:2:0:0:
282,235,59663,1,2,3:2:0:0:
120,272,59827,5,2,0:2:0:0:
215,313,59991,1,2,3:2:0:0:
194,227,60154,1,2,1:2:0:0:
141,358,60318,1,2,0:2:0:0:
344,320,60482,6,0,P|404:305|464:320,1,123.75000377655,4|0,3:2|0:0,0:0:0:0:
501,338,60810,1,2,1:2:0:0:
444,154,60974,1,2,3:2:0:0:
404,227,61138,1,2,0:2:0:0:
484,81,61302,2,0,P|444:71|404:81,1,82.5000025177003,2|0,3:2|1:2,0:0:0:0:
246,299,61630,6,0,P|277:272|293:234,1,82.5000025177003,2|0,0:2|3:2,0:0:0:0:
331,41,61958,2,0,P|321:81|331:121,1,82.5000025177003,2|0,3:2|1:2,0:0:0:0:
415,299,62286,2,0,P|399:260|367:234,1,82.5000025177003,2|0,3:2|0:0,0:0:0:0:
195,140,62613,2,0,P|229:161|271:164,1,82.5000025177003,2|0,3:2|1:2,0:0:0:0:
467,141,62941,1,2,0:2:0:0:
293,235,63105,6,0,L|300:317,1,82.5000025177003,2|0,3:2|0:0,0:0:0:0:
405,81,63433,1,2,1:2:0:0:
231,175,63597,2,0,P|151:195|71:175,1,165.000005035401,2|0,3:2|3:2,0:0:0:0:
240,77,64089,1,2,1:2:0:0:
222,273,64253,1,2,0:2:0:0:
151,45,64417,5,2,1:2:0:0:
329,147,64581,1,2,3:2:0:0:
97,158,64745,5,2,1:2:0:0:
275,56,64909,1,2,3:2:0:0:
43,67,65073,5,2,1:2:0:0:
221,169,65237,1,2,3:2:0:0:
221,169,65564,6,0,L|205:348,1,180,6|2,3:2|3:2,0:0:0:0:
121,313,66220,1,2,0:2:0:0:
298,301,66384,1,2,1:2:0:0:
298,301,66548,2,0,P|355:284|398:243,1,120,2|2,0:2|0:2,0:0:0:0:
250,171,67040,5,0,3:2:0:0:
213,310,67204,1,2,1:2:0:0:
213,310,67368,2,0,L|218:369,1,60,0|2,3:2|0:2,0:0:0:0:
111,208,67695,2,0,L|105:148,1,60,2|2,1:2|0:2,0:0:0:0:
105,148,68187,1,2,3:2:0:0:
230,40,68351,6,0,P|287:25|345:40,1,120,4|2,3:2|3:2,0:0:0:0:
420,90,68843,1,2,0:2:0:0:
334,214,69007,1,0,1:2:0:0:
334,214,69171,2,0,P|319:271|334:329,1,120,2|2,0:2|0:2,0:0:0:0:
460,271,69663,5,0,3:2:0:0:
334,214,69827,2,0,P|277:199|219:214,1,120,0|0,1:2|3:2,0:0:0:0:
335,90,70318,1,2,1:2:0:0:
185,103,70482,2,0,L|126:108,1,60,2|2,1:2|0:2,0:0:0:0:
224,0,70810,1,2,1:2:0:0:
23,48,70974,6,0,P|8:107|23:168,1,123.75000377655,0|0,3:2|0:0,0:0:0:0:
42,197,71302,1,2,1:2:0:0:
185,103,71466,2,0,L|267:110,1,82.5000025177003,2|0,0:2|3:2,0:0:0:0:
187,274,71794,2,0,L|104:281,1,82.5000025177003,2|0,3:2|1:2,0:0:0:0:
182,140,72122,1,2,0:2:0:0:
328,230,72286,6,0,P|370:274|388:333,1,123.75000377655,4|0,3:2|0:0,0:0:0:0:
390,374,72614,1,2,1:2:0:0:
250,345,72777,2,0,L|167:352,1,82.5000025177003,2|0,0:2|3:2,0:0:0:0:
348,194,73105,2,0,P|358:154|348:114,1,82.5000025177003,2|0,3:2|1:2,0:0:0:0:
245,230,73433,1,2,0:2:0:0:
424,274,73597,5,4,3:2:0:0:
424,274,73761,1,2,0:2:0:0:
277,154,73925,1,2,1:2:0:0:
277,154,74089,1,2,0:2:0:0:
315,350,74253,1,2,3:2:0:0:
356,173,74417,2,0,P|355:131|335:95,1,82.5000025177003,2|0,3:2|1:2,0:0:0:0:
245,230,74745,1,2,0:2:0:0:
424,274,74909,5,4,3:2:0:0:
274,353,75073,2,0,L|191:345,1,82.5000025177003,2|0,0:2|3:2,0:0:0:0:
265,194,75400,2,0,P|274:154|265:114,1,82.5000025177003,2|0,0:2|3:2,0:0:0:0:
157,232,75728,1,2,1:2:0:0:
157,232,75810,1,0,1:2:0:0:
157,232,75892,2,0,L|73:238,1,82.5000025177003,0|8,3:2|0:3,0:0:0:0:
44,219,76138,1,4,0:3:0:0:
44,219,76220,6,0,P|22:149|44:79,1,150,6|2,3:2|1:2,0:0:0:0:
137,0,76712,1,2,0:2:0:0:
227,80,76876,2,0,L|301:73,1,75,2|2,3:2|3:2,0:0:0:0:
140,149,77204,1,2,1:2:0:0:
260,240,77368,6,0,P|330:262|400:240,1,150,2|2,3:2|3:2,0:0:0:0:
499,170,77859,2,0,L|492:95,1,75,2|2,1:2|0:2,0:0:0:0:
508,274,78187,1,2,3:2:0:0:
414,157,78351,1,2,3:2:0:0:
427,306,78515,2,0,L|434:381,1,75,2|2,1:2|0:2,0:0:0:0:
323,210,78843,6,0,P|253:188|183:210,1,150,2|2,3:2|1:2,0:0:0:0:
83,279,79335,1,2,0:2:0:0:
72,160,79499,2,0,L|65:85,1,75,2|2,3:2|3:2,0:0:0:0:
183,210,79827,1,2,1:2:0:0:
312,113,79991,6,0,P|382:91|452:113,1,150,2|2,3:2|3:2,0:0:0:0:
383,210,80482,2,0,L|388:284,1,75,2|2,1:2|0:2,0:0:0:0:
283,196,80810,1,2,3:2:0:0:
292,315,80974,1,2,1:2:0:0:
201,183,81138,1,2,1:2:0:0:
213,333,81302,1,2,3:2:0:0:
43,113,81466,6,0,P|21:183|43:253,1,150,6|2,3:2|1:2,0:0:0:0:
138,340,81958,1,2,0:2:0:0:
138,340,82040,1,0,1:2:0:0:
138,340,82122,2,0,L|212:333,1,75,0|0,3:2|3:2,0:0:0:0:
149,219,82450,1,2,1:2:0:0:
289,273,82614,6,0,P|359:295|429:273,1,150,2|2,3:2|3:2,0:0:0:0:
471,160,83105,2,0,L|476:85,1,75,2|2,1:2|0:2,0:0:0:0:
372,174,83433,1,2,3:2:0:0:
382,54,83597,1,2,3:2:0:0:
290,186,83761,1,2,1:2:0:0:
302,36,83925,1,2,3:2:0:0:
208,198,84089,5,6,1:2:0:0:
107,133,84253,2,0,L|32:126,1,75,2|2,1:2|3:2,0:0:0:0:
227,231,84581,5,6,1:2:0:0:
126,166,84745,2,0,L|51:159,1,75,2|2,1:2|3:2,0:0:0:0:
246,264,85072,5,6,1:2:0:0:
145,199,85236,2,0,L|70:192,1,75,0|0,1:2|3:2,0:0:0:0:
265,297,85564,5,4,1:3:0:0:
164,232,85728,1,4,1:3:0:0:
158,352,85892,1,4,1:3:0:0:
