osu file format v14

[General]
AudioFilename: audio.mp3
AudioLeadIn: 0
PreviewTime: 54491
Countdown: 0
SampleSet: Soft
StackLeniency: 0.4
Mode: 0
LetterboxInBreaks: 0
WidescreenStoryboard: 1

[Editor]
Bookmarks: 55146,85884
DistanceSpacing: 1.5
BeatDivisor: 4
GridSize: 16
TimelineZoom: 1.5

[Metadata]
Title:Shiny Ray -TV size-
TitleUnicode:Shiny Ray -TV size-
Artist:YURiKA
ArtistUnicode:YURiKA
Creator:Sotarks
Version:Rizen's Hard
Source:リトルウィッチアカデミア
Tags:little witch academia LWA opening op tv size aqpw a_q_p_w akitoshi corinn rizen
BeatmapID:1450275
BeatmapSetID:685287

[Difficulty]
HPDrainRate:5
CircleSize:4
OverallDifficulty:6.5
ApproachRate:7.8
SliderMultiplier:1.4
SliderTickRate:1

[Events]
//Background and Video events
Video,0,"OP.avi"
0,0,"BG.jpg",0,0
//Break Periods
2,13311,21022
//Storyboard Layer 0 (Background)
//Storyboard Layer 1 (Fail)
//Storyboard Layer 2 (Pass)
//Storyboard Layer 3 (Foreground)
//Storyboard Sound Samples

[TimingPoints]
162,327.868852459016,4,2,22,12,1,0
162,-133.333333333333,4,2,22,12,0,0
2784,-100,4,2,22,52,0,0
13276,-133.333333333333,4,2,22,32,0,0
23768,-100,4,2,22,42,0,0
28932,-100,4,2,22,5,0,0
29014,-100,4,2,22,42,0,0
31555,-100,4,2,22,5,0,0
31637,-100,4,2,22,42,0,0
34178,-100,4,2,22,5,0,0
34260,-100,4,2,22,32,0,0
39506,-133.333333333333,4,2,22,22,0,0
44752,-100,4,2,22,32,0,0
49998,-100,4,2,22,42,0,0
52621,-100,4,2,22,12,0,0
54588,-100,4,2,22,42,0,0
55080,-100,4,2,22,62,0,1
65571,-100,4,2,22,42,0,0
70981,-100,4,2,22,62,0,1
72293,-100,4,2,22,52,0,1
76227,-100,4,2,22,52,0,0

[Colours]
Combo1 : 185,115,242
Combo2 : 242,133,13
Combo3 : 191,159,217
Combo4 : 222,95,95

[HitObjects]
183,62,162,6,0,L|174:166,1,105.000004005432,2|2,0:0|0:0,0:0:0:0:
274,123,817,1,2,0:0:0:0:
183,62,1145,5,2,0:0:0:0:
183,62,1309,1,2,0:0:0:0:
183,62,1801,5,2,0:0:0:0:
174,166,2129,1,2,0:0:0:0:
166,270,2457,1,2,0:0:0:0:
166,270,2784,6,0,P|200:277|235:276,1,70,6|0,1:0|0:0,0:0:0:0:
300,359,3112,2,0,P|333:348|363:330,1,70,2|2,1:0|0:0,0:0:0:0:
465,355,3440,2,0,P|488:328|505:298,1,70,0|2,1:0|0:0,0:0:0:0:
471,197,3768,1,2,1:0:0:0:
471,197,3932,6,0,L|331:212,1,140,6|2,0:0|0:0,0:0:0:0:
142,119,4588,1,2,0:0:0:0:
92,26,4752,2,0,P|125:14|159:14,1,70,2|2,1:0|0:0,0:0:0:0:
239,83,5080,1,10,0:0:0:0:
224,186,5243,1,10,3:0:0:0:
125,224,5407,6,0,P|107:253|100:287,1,70,6|0,1:0|0:0,0:0:0:0:
205,289,5735,2,0,P|199:322|206:356,1,70,2|2,1:0|0:0,0:0:0:0:
310,359,6063,2,0,P|316:324|309:290,1,70,2|2,1:0|0:0,0:0:0:0:
337,188,6391,1,2,1:0:0:0:
403,269,6555,6,0,P|470:273|512:220,1,140,10|2,0:0|0:0,0:0:0:0:
497,115,7047,2,0,L|484:46,1,70,2|0,1:0|0:0,0:0:0:0:
391,98,7375,2,0,L|404:167,1,70,2|0,1:0|0:0,0:0:0:0:
313,219,7702,2,0,L|301:151,1,70,8|0,3:0|1:0,0:0:0:0:
218,83,8030,6,0,P|183:88|150:80,1,70,6|2,1:0|0:0,0:0:0:0:
141,185,8358,2,0,P|112:165|94:135,1,70,2|2,1:0|0:0,0:0:0:0:
14,204,8686,2,0,P|9:169|16:136,1,70,0|2,1:0|0:0,0:0:0:0:
54,37,9014,1,2,1:0:0:0:
149,79,9178,6,0,L|158:218,1,140,6|2,0:0|0:0,0:0:0:0:
124,384,9834,1,2,0:0:0:0:
219,340,9998,2,0,P|252:331|287:337,1,70,2|2,1:0|0:0,0:0:0:0:
385,372,10325,2,0,P|419:378|453:370,1,70,10|2,0:0|1:0,0:0:0:0:
411,272,10653,6,0,L|407:202,2,70,10|10|0,0:0|0:0|1:0,0:0:0:0:
309,243,11145,2,0,L|305:173,2,70,10|10|0,0:0|0:0|1:0,0:0:0:0:
206,217,11637,1,10,0:0:0:0:
206,217,11801,1,8,0:0:0:0:
17,309,12129,6,0,L|13:239,2,70,8|0|0,0:0|1:0|1:0,0:0:0:0:
111,356,12621,2,0,P|142:341|163:313,1,70,10|10,0:0|0:0,0:0:0:0:
206,217,12948,2,0,P|228:244|258:259,1,70,10|10,0:0|0:0,0:0:0:0:
256,192,21801,12,2,23276,0:0:0:0:
120,249,23768,6,0,P|179:283|247:273,1,140,6|2,1:0|0:0,0:0:0:0:
458,272,24424,2,0,P|398:237|330:247,1,140,10|2,0:0|3:0,0:0:0:0:
302,348,24916,6,0,P|336:355|369:346,1,70,2|0,1:0|0:0,0:0:0:0:
330,246,25243,2,0,P|337:211|328:178,1,70,2|0,1:0|0:0,0:0:0:0:
229,216,25571,2,0,L|89:219,1,140,10|2,0:0|1:0,0:0:0:0:
265,104,26227,1,2,0:0:0:0:
265,104,26391,6,0,L|405:108,1,140,0|0,1:0|0:0,0:0:0:0:
206,37,27047,1,8,0:0:0:0:
207,37,27211,2,0,P|184:63|175:96,1,70,2|2,0:0|3:0,0:0:0:0:
102,173,27539,6,0,L|242:169,1,140,2|0,1:0|1:0,0:0:0:0:
340,131,28030,2,0,P|349:164|344:199,1,70,2|8,1:0|0:0,0:0:0:0:
328,303,28358,1,2,1:0:0:0:
246,236,28522,2,0,P|236:202|242:168,1,70,2|8,1:0|0:0,0:0:0:0:
148,361,29014,6,0,P|91:321|66:257,1,140,6|0,1:0|0:0,0:0:0:0:
266,331,29670,2,0,P|280:299|283:264,1,70,10|0,0:0|0:0,0:0:0:0:
240,167,29998,1,2,3:0:0:0:
240,62,30161,6,0,P|304:87|343:144,1,140,2|0,1:0|1:0,0:0:0:0:
448,141,30653,2,0,P|445:175|430:207,1,70,2|8,0:0|0:0,0:0:0:0:
490,293,30981,2,0,P|458:307|423:310,1,70,2|0,0:0|1:0,0:0:0:0:
333,254,31309,1,2,3:0:0:0:
134,327,31637,6,0,B|105:337|69:325|69:325|48:316|27:344|44:361|68:359,1,140,2|0,1:0|0:0,0:0:0:0:
109,256,32129,1,2,0:0:0:0:
109,256,32293,2,0,L|104:116,1,140,10|0,0:0|0:0,0:0:0:0:
188,178,32784,6,0,L|183:39,2,140,0|8|0,1:0|0:0|1:0,0:0:0:0:
267,245,33604,2,0,P|302:252|336:246,1,70,10|0,0:0|1:0,0:0:0:0:
409,170,33932,1,10,0:0:0:0:
419,180,34260,6,0,L|414:40,1,140,6|0,1:0|1:0,0:0:0:0:
317,83,34752,1,2,0:0:0:0:
212,91,34916,2,0,P|180:79|155:54,1,70,2|0,1:0|0:0,0:0:0:0:
64,108,35243,1,2,1:0:0:0:
84,211,35407,6,0,P|150:225|214:198,1,140,2|2,0:0|0:0,0:0:0:0:
212,91,35899,1,2,1:0:0:0:
415,141,36227,1,0,1:0:0:0:
360,51,36391,1,2,0:0:0:0:
305,141,36555,2,0,P|308:175|322:207,1,70,10|2,0:0|0:0,0:0:0:0:
339,311,36883,6,0,P|296:256|230:235,1,140,6|2,1:0|1:0,0:0:0:0:
153,307,37375,2,0,P|127:242|142:175,1,140,2|2,0:0|0:0,0:0:0:0:
339,103,38030,6,0,P|274:128|207:113,1,140,2|2,0:0|0:0,0:0:0:0:
229,10,38522,2,0,P|261:-1|295:3,1,70,2|0,1:0|1:0,0:0:0:0:
399,25,38850,2,0,L|468:15,1,70,10|10,0:0|3:0,0:0:0:0:
443,117,39178,2,0,L|512:107,1,70,6|6,3:0|3:0,0:0:0:0:
484,209,39506,5,2,0:0:0:0:
470,240,40489,1,2,0:0:0:0:
470,240,40817,1,2,0:0:0:0:
453,272,41801,1,2,0:0:0:0:
453,272,42129,6,0,B|387:314|304:304|304:304|329:288|341:264,1,210.000008010865,2|2,0:0|0:0,0:0:0:0:
88,250,43440,2,0,B|154:208|237:218|237:218|212:234|200:258,1,210.000008010865,2|2,0:0|0:0,0:0:0:0:
453,272,44752,5,2,0:0:0:0:
200,257,45243,1,2,0:0:0:0:
341,48,45735,1,2,0:0:0:0:
453,272,46227,5,0,1:0:0:0:
453,272,46391,1,8,0:0:0:0:
293,134,46719,2,0,L|287:204,1,70,0|0,1:0|1:0,0:0:0:0:
342,292,47046,1,8,0:0:0:0:
349,72,47375,5,2,0:0:0:0:
208,281,47866,1,2,0:0:0:0:
461,296,48358,1,2,0:0:0:0:
277,353,48686,5,0,1:0:0:0:
277,353,48850,1,8,0:0:0:0:
208,281,49014,1,0,1:0:0:0:
208,281,49178,1,0,1:0:0:0:
208,281,49342,2,0,P|212:245|225:213,1,70,8|4,3:0|3:0,0:0:0:0:
295,149,49670,1,10,0:0:0:0:
314,158,49998,6,0,L|302:19,1,140,6|0,1:0|0:0,0:0:0:0:
171,183,50653,2,0,L|184:44,1,140,8|0,0:0|0:0,0:0:0:0:
112,241,51309,5,2,1:0:0:0:
112,241,51473,2,0,P|174:211|243:217,1,140,8|0,0:0|1:0,0:0:0:0:
296,308,51965,2,0,P|364:313|421:353,1,140,10|0,0:0|0:0,0:0:0:0:
471,192,52621,5,2,0:0:0:0:
446,195,52948,1,2,0:0:0:0:
423,198,53276,1,2,0:0:0:0:
400,201,53604,1,2,0:0:0:0:
377,204,53932,1,2,0:0:0:0:
354,207,54260,1,2,0:0:0:0:
331,210,54588,6,0,L|335:140,1,70,8|8,0:0|0:0,0:0:0:0:
323,127,55080,6,0,L|317:266,1,140,6|0,1:0|0:0,0:0:0:0:
222,313,55571,2,0,P|188:322|153:320,1,70,10|2,0:0|0:0,0:0:0:0:
167,214,55899,2,0,P|134:205|99:205,1,70,2|2,1:0|1:0,0:0:0:0:
120,309,56227,1,8,0:0:0:0:
190,210,56391,6,0,P|208:142|197:74,1,140,2|2,0:0|1:0,0:0:0:0:
108,132,56883,1,8,0:0:0:0:
6,104,57047,2,0,L|1:34,2,70,2|2|2,1:0|0:0|1:0,0:0:0:0:
92,44,57538,1,8,0:0:0:0:
197,74,57702,5,2,0:0:0:0:
197,74,57867,2,0,P|264:91|332:81,1,140,0|8,1:0|0:0,0:0:0:0:
427,35,58358,1,2,1:0:0:0:
511,222,58686,1,2,1:0:0:0:
303,191,59014,1,2,0:0:0:0:
226,263,59178,6,0,L|156:260,1,70,0|0,1:0|1:0,0:0:0:0:
89,177,59506,1,8,0:0:0:0:
303,191,59834,2,0,P|323:219|333:252,1,70,2|2,0:0|1:0,0:0:0:0:
394,338,60161,1,10,0:0:0:0:
394,338,60325,6,0,P|386:269|418:208,1,140,2|0,0:0|0:0,0:0:0:0:
487,128,60817,2,0,P|497:95|496:60,1,70,10|0,0:0|0:0,0:0:0:0:
391,42,61145,2,0,P|381:75|382:110,1,70,2|2,1:0|1:0,0:0:0:0:
417,208,61473,1,8,0:0:0:0:
325,176,61637,6,0,L|185:186,1,140,2|2,0:0|1:0,0:0:0:0:
279,374,62293,2,0,L|418:384,1,140,2|2,1:0|1:0,0:0:0:0:
265,250,62948,1,2,0:0:0:0:
264,251,63112,6,0,P|278:219|284:185,1,70,0|0,1:0|0:0,0:0:0:0:
185,186,63440,1,8,0:0:0:0:
185,186,63604,2,0,P|179:152|164:120,1,70,2|0,1:0|0:0,0:0:0:0:
238,321,64096,1,10,0:0:0:0:
238,321,64260,6,0,P|273:322|307:314,1,70,2|8,0:0|0:0,0:0:0:0:
399,262,64588,1,2,1:0:0:0:
368,161,64752,2,0,P|333:162|299:154,1,70,10|2,0:0|1:0,0:0:0:0:
195,180,65080,2,0,L|191:249,1,70,8|0,0:0|1:0,0:0:0:0:
202,265,65571,6,0,L|208:126,1,140,6|0,1:0|0:0,0:0:0:0:
295,65,66063,2,0,P|329:65|362:78,1,70,2|0,1:0|0:0,0:0:0:0:
467,74,66391,2,0,P|483:104|489:139,1,70,10|2,0:0|0:0,0:0:0:0:
446,345,66883,6,0,P|428:285|370:308,1,140,2|10,0:0|0:0,0:0:0:0:
287,373,67375,1,0,1:0:0:0:
189,333,67539,1,2,0:0:0:0:
189,333,67702,2,0,L|119:328,1,70,10|2,0:0|0:0,0:0:0:0:
310,239,68194,1,2,1:0:0:0:
310,238,68359,6,0,P|349:183|348:114,1,140,4|2,1:0|1:0,0:0:0:0:
249,79,68850,2,0,P|243:113|249:147,1,70,2|8,0:0|0:0,0:0:0:0:
348,114,69178,2,0,P|378:130|413:135,1,70,2|0,0:0|0:0,0:0:0:0:
497,198,69506,1,2,0:0:0:0:
497,198,69670,6,0,P|462:202|432:220,2,70,0|8|0,1:0|0:0|0:0,0:0:0:0:
389,378,70325,2,0,L|320:382,1,70,10|10,0:0|0:0,0:0:0:0:
280,283,70653,1,10,0:0:0:0:
183,324,70817,1,10,0:0:0:0:
183,324,70981,6,0,L|43:314,1,140,6|8,1:0|0:0,0:0:0:0:
10,213,71473,1,2,0:0:0:0:
219,228,71801,2,0,P|246:205|264:175,1,70,2|8,1:0|0:0,0:0:0:0:
246,71,72129,1,2,3:0:0:0:
247,70,72293,6,0,P|181:94|113:84,1,140,4|8,1:0|0:0,0:0:0:0:
173,1,72784,1,2,0:0:0:0:
377,52,73112,2,0,P|385:85|382:120,1,70,2|8,1:0|0:0,0:0:0:0:
320,205,73440,1,2,3:0:0:0:
320,205,73604,6,0,L|389:198,1,70,4|2,1:0|0:0,0:0:0:0:
433,293,73932,2,0,L|364:287,1,70,10|2,0:0|0:0,0:0:0:0:
322,384,74260,2,0,L|391:378,2,70,2|2|8,1:0|1:0|0:0,0:0:0:0:
223,345,74752,1,2,3:0:0:0:
222,346,74916,6,0,P|189:356|154:356,1,70,4|2,1:0|0:0,0:0:0:0:
174,253,75243,2,0,P|174:218|164:184,1,70,12|2,0:0|0:0,0:0:0:0:
88,110,75571,1,0,1:0:0:0:
88,110,75735,2,0,L|227:94,1,140,10|4,0:0|3:0,0:0:0:0:
315,37,76227,6,0,P|349:35|384:42,1,70,4|0,1:0|0:0,0:0:0:0:
341,139,76555,2,0,P|374:150|404:168,1,70,10|2,0:0|0:0,0:0:0:0:
332,245,76883,2,0,P|355:272|372:302,1,70,0|2,1:0|1:0,0:0:0:0:
269,328,77211,1,10,0:0:0:0:
172,286,77375,6,0,L|160:146,1,140,6|2,1:0|1:0,0:0:0:0:
333,28,78030,1,0,0:0:0:0:
313,131,78195,1,2,1:0:0:0:
372,217,78359,2,0,P|406:212|436:194,2,70,2|10|2,1:0|0:0|0:0,0:0:0:0:
313,131,78850,6,0,L|243:127,1,70,2|0,1:0|0:0,0:0:0:0:
159,62,79178,2,0,P|141:92|134:126,1,70,10|2,0:0|0:0,0:0:0:0:
243,127,79506,2,0,P|260:157|267:191,1,70,2|2,1:0|1:0,0:0:0:0:
226,288,79834,1,10,0:0:0:0:
312,346,79998,6,0,P|243:342|189:383,1,140,2|2,1:0|1:0,0:0:0:0:
94,335,80490,2,0,L|100:265,1,70,10|0,0:0|0:0,0:0:0:0:
66,165,80817,2,0,L|72:95,1,70,2|10,1:0|0:0,0:0:0:0:
170,53,81145,2,0,L|239:60,1,70,10|10,0:0|0:0,0:0:0:0:
205,153,81473,6,0,P|238:161|273:156,1,70,6|0,1:0|0:0,0:0:0:0:
378,144,81801,2,0,P|368:110|346:83,1,70,10|2,0:0|0:0,0:0:0:0:
277,3,82129,2,0,P|253:28|240:60,1,70,0|0,1:0|1:0,0:0:0:0:
273,156,82457,1,10,0:0:0:0:
212,241,82621,6,0,L|193:379,1,140,6|2,1:0|1:0,0:0:0:0:
385,293,83277,1,2,0:0:0:0:
433,199,83441,2,0,P|439:165|431:131,1,70,2|2,1:0|1:0,0:0:0:0:
339,80,83768,2,0,P|312:57|279:47,1,70,10|2,0:0|1:0,0:0:0:0:
182,90,84096,6,0,L|112:94,2,70,14|10|0,0:0|0:0|1:0,0:0:0:0:
230,183,84588,2,0,L|300:179,2,70,10|10|0,0:0|0:0|1:0,0:0:0:0:
200,284,85080,1,10,0:0:0:0:
200,284,85244,2,0,L|130:288,1,70,10|0,0:0|1:0,0:0:0:0:
39,233,85572,6,0,P|28:199|34:165,2,70,8|10|10,0:0|0:0|0:0,0:0:0:0:
