osu file format v14

[General]
AudioFilename: audio.mp3
AudioLeadIn: 0
PreviewTime: 54491
Countdown: 0
SampleSet: Soft
StackLeniency: 0.7
Mode: 0
LetterboxInBreaks: 0
WidescreenStoryboard: 0

[Editor]
DistanceSpacing: 0.5
BeatDivisor: 4
GridSize: 32
TimelineZoom: 2.2

[Metadata]
Title:Shiny Ray -TV size-
TitleUnicode:Shiny Ray -TV size-
Artist:YURiKA
ArtistUnicode:YURiKA
Creator:Sotarks
Version:Extra
Source:リトルウィッチアカデミア
Tags:little witch academia LWA opening op tv size aqpw a_q_p_w akitoshi corinn rizen
BeatmapID:1450273
BeatmapSetID:685287

[Difficulty]
HPDrainRate:6.2
CircleSize:4
OverallDifficulty:8.7
ApproachRate:9.2
SliderMultiplier:1.82
SliderTickRate:1

[Events]
//Background and Video events
Video,0,"OP.avi"
0,0,"BG.jpg",0,0
//Break Periods
//Storyboard Layer 0 (Background)
//Storyboard Layer 1 (Fail)
//Storyboard Layer 2 (Pass)
//Storyboard Layer 3 (Foreground)
//Storyboard Sound Samples

[TimingPoints]
162,327.868852459016,4,2,22,12,1,0
2784,-98.0392156862745,4,2,22,52,0,0
13276,-192.307692307692,4,2,22,32,0,0
23768,-121.951219512195,4,2,22,42,0,0
28932,-121.951219512195,4,2,22,5,0,0
29014,-121.951219512195,4,2,22,42,0,0
31555,-121.951219512195,4,2,22,5,0,0
31637,-121.951219512195,4,2,22,42,0,0
34178,-121.951219512195,4,2,22,5,0,0
34260,-108.695652173913,4,2,22,32,0,0
39506,-238.095238095238,4,2,22,22,0,0
44752,-192.307692307692,4,2,22,32,0,0
45243,-161.290322580645,4,2,22,32,0,0
45735,-138.888888888889,4,2,22,32,0,0
47375,-121.951219512195,4,2,22,32,0,0
47866,-108.695652173913,4,2,22,32,0,0
48358,-98.0392156862745,4,2,22,32,0,0
49998,-121.951219512195,4,2,22,42,0,0
52621,-121.951219512195,4,2,22,12,0,0
54588,-121.951219512195,4,2,22,42,0,0
55080,-81.9672131147541,4,2,22,62,0,1
65571,-98.0392156862746,4,2,22,42,0,0
65899,-138.888888888889,4,2,22,42,0,0
70981,-98.0392156862745,4,2,22,62,0,1
72293,-89.2857142857143,4,2,22,52,0,1
76227,-98.0392156862745,4,2,22,52,0,0

[Colours]
Combo1 : 185,115,242
Combo2 : 242,133,13
Combo3 : 191,159,217
Combo4 : 222,95,95

[HitObjects]
256,192,162,12,0,2621,0:0:0:0:
256,191,2784,6,0,P|273:253|275:295,1,92.8200005665283,6|0,1:0|0:0,0:0:0:0:
292,115,3112,1,2,1:0:0:0:
175,218,3276,2,0,P|125:209|76:183,1,92.8200005665283,2|0,0:0|1:0,0:0:0:0:
212,118,3604,1,2,0:0:0:0:
356,199,3768,1,2,1:0:0:0:
265,26,3932,6,0,P|285:88|294:130,1,92.8200005665283,6|0,0:0|1:0,0:0:0:0:
438,198,4260,2,0,P|449:152|464:109,1,92.8200005665283,2|0,0:0|1:0,0:0:0:0:
353,40,4588,1,2,0:0:0:0:
356,199,4752,1,2,1:0:0:0:
238,106,4916,1,2,0:0:0:0:
265,105,4998,1,8,0:3:0:0:
291,114,5079,1,10,0:0:0:0:
151,174,5243,1,10,3:0:0:0:
181,33,5407,6,0,P|210:99|214:139,1,92.8200005665283,6|0,1:0|0:0,0:0:0:0:
332,40,5735,1,2,1:0:0:0:
251,187,5899,1,2,0:0:0:0:
119,96,6063,1,2,1:0:0:0:
291,114,6227,1,2,0:0:0:0:
211,262,6391,1,2,1:0:0:0:
389,120,6555,6,0,P|458:111|501:99,1,92.8200005665283,10|0,0:0|1:0,0:0:0:0:
300,32,6883,1,2,0:0:0:0:
251,187,7047,2,0,P|204:182|159:172,1,92.8200005665283,2|0,1:0|0:0,0:0:0:0:
352,224,7375,2,0,P|399:219|444:209,1,92.8200005665283,2|0,1:0|0:0,0:0:0:0:
277,111,7702,1,8,3:0:0:0:
389,120,7866,1,0,1:0:0:0:
252,275,8030,5,6,1:0:0:0:
251,106,8194,1,2,0:0:0:0:
156,244,8358,1,2,1:0:0:0:
332,187,8522,2,0,P|400:196|449:212,1,92.8200005665283,2|0,0:0|1:0,0:0:0:0:
384,109,8850,1,2,0:0:0:0:
368,270,9014,1,2,1:0:0:0:
251,106,9178,6,0,P|183:115|134:131,1,92.8200005665283,6|0,0:0|1:0,0:0:0:0:
194,32,9506,1,2,0:0:0:0:
223,190,9670,1,0,1:0:0:0:
76,137,9834,1,2,0:0:0:0:
334,87,9998,1,2,1:0:0:0:
238,267,10161,1,2,0:0:0:0:
244,308,10242,1,8,0:0:0:0:
250,349,10324,1,10,0:0:0:0:
207,108,10489,2,0,L|199:50,1,46.4100002832642,2|0,1:0|1:0,0:0:0:0:
151,282,10653,5,10,0:0:0:0:
434,212,10817,1,10,0:0:0:0:
315,175,10981,1,0,1:0:0:0:
505,360,11145,5,10,0:0:0:0:
489,88,11309,1,10,0:0:0:0:
434,212,11473,1,0,1:0:0:0:
155,114,11637,5,10,0:0:0:0:
489,88,11801,2,0,P|444:81|389:66,1,92.8200005665283,8|0,0:0|1:0,0:0:0:0:
143,194,12129,2,0,P|188:187|242:172,1,92.8200005665283,8|0,0:0|1:0,0:0:0:0:
310,28,12457,5,0,1:0:0:0:
314,69,12538,1,8,0:0:0:0:
319,111,12620,1,10,0:0:0:0:
180,301,12784,1,10,0:0:0:0:
446,199,12948,1,10,0:0:0:0:
236,95,13112,1,10,0:0:0:0:
325,196,13276,6,0,P|262:178|224:174,2,94.6399994223633,2|2|0,3:0|0:0|3:0,0:0:0:0:
135,116,14260,1,0,0:0:0:0:
95,197,14424,2,0,P|106:251|108:303,1,94.6399994223633,2|2,3:0|0:0,0:0:0:0:
61,368,14916,1,0,3:0:0:0:
252,306,15243,2,0,P|298:303|317:308,1,47.3199997111816,0|0,3:0|0:0,0:0:0:0:
386,225,15571,2,0,P|340:228|321:223,1,47.3199997111816
283,162,15899,6,0,L|299:305,1,141.959999133545,2|0,3:0|0:0,0:0:0:0:
208,218,16555,2,0,L|148:211,2,47.3199997111816,0|2|0,3:0|0:0|0:0,0:0:0:0:
117,130,17047,2,0,L|228:143,1,94.6399994223633,2|0,3:0|0:0,0:0:0:0:
292,87,17539,2,0,L|301:148,1,47.3199997111816,2|0,3:0|0:0,0:0:0:0:
386,86,17866,1,2,3:0:0:0:
458,200,18030,2,0,P|414:169|360:179,1,94.6399994223633,2|0,0:0|0:0,0:0:0:0:
302,252,18522,6,0,P|249:268|172:227,1,141.959999133545,2|0,3:0|0:0,0:0:0:0:
93,169,19178,2,0,L|103:283,1,94.6399994223633,2|0,3:0|0:0,0:0:0:0:
8,234,19670,2,0,L|16:139,1,94.6399994223633,2|0,3:0|0:0,0:0:0:0:
104,72,20161,2,0,P|45:63|5:45,2,94.6399994223633,2|0|0,3:0|3:0|0:0,0:0:0:0:
175,22,20981,1,2,0:0:0:0:
310,153,21145,6,0,P|264:148|280:66,1,141.959999133545,2|0,3:0|0:0,0:0:0:0:
393,127,21801,2,0,B|377:241,1,94.6399994223633,2|0,3:0|0:0,0:0:0:0:
289,242,22293,2,0,L|298:303,1,47.3199997111816,2|0,0:0|0:0,0:0:0:0:
189,198,22621,1,2,0:0:0:0:
95,300,22784,2,0,P|45:292|36:281,1,47.3199997111816,2|0,3:0|0:0,0:0:0:0:
187,167,23112,1,2,0:0:0:0:
188,348,23276,1,2,0:0:0:0:
188,348,23604,5,0,0:0:0:0:
188,348,23686,1,0,0:0:0:0:
188,348,23768,2,0,P|239:326|286:325,1,74.6200011386109,6|0,1:0|0:0,0:0:0:0:
366,236,24096,2,0,P|329:228|296:211,1,74.6200011386109,2|0,0:0|0:0,0:0:0:0:
176,147,24424,2,0,P|196:196|202:233,1,74.6200011386109,10|0,0:0|0:0,0:0:0:0:
277,83,24752,1,2,3:0:0:0:
388,218,24916,2,0,L|380:309,1,74.6200011386109,2|0,1:0|0:0,0:0:0:0:
356,53,25243,2,0,L|364:144,1,74.6200011386109,2|0,1:0|0:0,0:0:0:0:
280,238,25571,2,0,L|273:163,1,74.6200011386109,10|0,0:0|0:0,0:0:0:0:
143,289,25899,2,0,B|233:278|189:345|302:334,1,149.240002277222,2|2,1:0|0:0,0:0:0:0:
140,158,26391,6,0,P|105:110|62:242,1,298.480004554443,0|8,1:0|0:0,0:0:0:0:
213,194,27211,1,2,0:0:0:0:
283,260,27375,1,2,3:0:0:0:
283,104,27539,2,0,P|297:53|312:26,1,74.6200011386109,2|0,1:0|0:0,0:0:0:0:
348,165,27866,1,0,1:0:0:0:
200,115,28030,1,2,1:0:0:0:
399,90,28194,1,8,0:0:0:0:
404,226,28358,1,2,1:0:0:0:
283,105,28522,1,2,1:0:0:0:
483,77,28686,2,0,L|480:195,1,111.930001707916,8|0,0:0|0:0,0:0:0:0:
477,239,29014,6,0,B|406:236|419:310|334:298,1,149.240002277222,6|0,1:0|0:0,0:0:0:0:
360,141,29670,2,0,P|350:189|350:238,1,74.6200011386109,10|0,0:0|0:0,0:0:0:0:
481,319,29998,1,2,3:0:0:0:
442,106,30161,2,0,L|275:87,1,149.240002277222,2|0,1:0|1:0,0:0:0:0:
119,182,30653,2,0,P|180:157|208:157,1,74.6200011386109,2|8,0:0|0:0,0:0:0:0:
356,249,30981,1,2,0:0:0:0:
226,275,31145,1,0,1:0:0:0:
287,78,31309,2,0,P|272:143|273:206,1,111.930001707916,2|0,3:0|0:0,0:0:0:0:
289,221,31637,6,0,P|329:182|418:215,1,149.240002277222,2|0,1:0|0:0,0:0:0:0:
475,300,32129,1,2,0:0:0:0:
463,138,32293,2,0,B|489:177|489:177|480:282,1,149.240002277222,10|0,0:0|0:0,0:0:0:0:
389,92,32784,2,0,P|349:77|294:79,1,74.6200011386109,0|0,1:0|0:0,0:0:0:0:
217,237,33112,2,0,P|257:222|312:224,1,74.6200011386109,8|0,0:0|0:0,0:0:0:0:
114,114,33440,1,0,1:0:0:0:
155,303,33604,1,10,0:0:0:0:
220,153,33768,1,0,1:0:0:0:
304,333,33932,2,0,P|361:291|428:299,1,111.930001707916,10|0,0:0|0:0,0:0:0:0:
446,318,34260,6,0,P|437:218|450:148,1,167.439994379151,6|0,1:0|1:0,0:0:0:0:
306,47,34752,1,2,0:0:0:0:
258,127,34916,2,0,P|203:112|159:112,1,83.7199971895753,2|0,1:0|0:0,0:0:0:0:
320,285,35243,1,2,1:0:0:0:
361,210,35407,2,0,P|359:158|348:119,1,83.7199971895753,2|0,0:0|1:0,0:0:0:0:
182,284,35735,1,2,0:0:0:0:
100,233,35899,2,0,P|155:191|246:213,1,167.439994379151,2|0,1:0|1:0,0:0:0:0:
368,320,36391,1,2,0:0:0:0:
399,322,36473,1,8,0:3:0:0:
427,310,36555,1,10,0:0:0:0:
485,151,36719,1,2,0:0:0:0:
389,237,36883,6,0,P|386:174|373:130,1,83.7199971895753,6|0,1:0|0:0,0:0:0:0:
176,68,37211,1,2,1:0:0:0:
269,35,37375,2,0,P|325:42|375:38,1,83.7199971895753,2|0,0:0|1:0,0:0:0:0:
163,171,37702,2,0,P|107:178|57:174,1,83.7199971895753,2|0,0:0|1:0,0:0:0:0:
255,124,38030,1,2,0:0:0:0:
298,290,38194,1,0,1:0:0:0:
231,229,38358,1,2,0:0:0:0:
398,140,38522,1,2,1:0:0:0:
421,250,38686,5,0,1:0:0:0:
380,243,38767,1,8,0:3:0:0:
348,216,38849,1,10,0:0:0:0:
504,218,39014,1,10,3:0:0:0:
297,149,39178,1,6,3:0:0:0:
423,160,39342,1,6,3:0:0:0:
232,198,39506,6,0,P|215:152|342:79,1,229.319993001709,2|2,0:0|0:0,0:0:0:0:
133,140,40817,2,0,B|57:128|57:128|-11:177|10:267,1,229.319993001709,2|2,0:0|0:0,0:0:0:0:
145,336,42129,6,0,B|228:348|211:271|297:291,1,152.879995334473,2|2,0:0|0:0,0:0:0:0:
421,251,43440,2,0,B|338:263|355:186|269:206,1,152.879995334473,2|2,0:0|0:0,0:0:0:0:
99,90,44752,6,0,P|154:113|173:148,1,94.6399994223633,2|0,0:0|0:0,0:0:0:0:
259,263,45243,2,0,P|241:219|269:147,1,112.839995523316,2|0,0:0|0:0,0:0:0:0:
404,63,45735,2,0,P|365:114|381:181,1,131.040003199219,2|0,0:0|0:0,0:0:0:0:
460,325,46227,5,0,1:0:0:0:
450,132,46391,1,8,0:0:0:0:
460,325,46719,5,0,1:0:0:0:
268,296,46883,1,0,1:0:0:0:
499,233,47047,1,8,0:0:0:0:
499,233,47375,6,0,P|445:235|372:162,1,149.240002277222,2|0,0:0|0:0,0:0:0:0:
181,168,47866,2,0,P|240:172|308:88,1,167.439994379151,2|0,0:0|0:0,0:0:0:0:
68,72,48358,2,0,L|91:269,1,185.640001133057,2|0,0:0|1:0,0:0:0:0:
304,274,48850,5,8,0:0:0:0:
218,90,49014,1,0,1:0:0:0:
218,239,49178,1,0,1:0:0:0:
333,188,49342,1,8,3:0:0:0:
249,163,49506,1,4,3:0:0:0:
343,347,49670,1,10,0:0:0:0:
413,155,49834,1,0,1:0:0:0:
512,273,49998,6,0,B|437:296|443:239|355:272,1,149.240002277222,6|0,1:0|0:0,0:0:0:0:
223,350,50489,1,0,1:0:0:0:
96,324,50653,2,0,P|199:318|232:194,1,223.860003415833,8|0,0:0|0:0,0:0:0:0:
163,78,51309,1,2,1:0:0:0:
133,168,51473,2,0,L|151:262,1,74.6200011386109,8|0,0:0|0:0,0:0:0:0:
364,126,51801,1,0,1:0:0:0:
387,234,51965,2,0,L|224:215,1,149.240002277222,10|0,0:0|0:0,0:0:0:0:
256,29,52621,5,2,0:0:0:0:
256,29,52948,1,2,0:0:0:0:
256,29,53276,1,2,0:0:0:0:
256,29,53604,1,2,0:0:0:0:
256,29,53932,1,2,0:0:0:0:
256,29,54260,1,2,0:0:0:0:
257,313,54588,5,8,0:0:0:0:
256,29,54752,1,8,0:0:0:0:
256,29,55080,6,0,B|244:98|244:98|276:163|276:163|250:254,1,222.039990852234,6|0,1:0|0:0,0:0:0:0:
336,92,55571,1,10,0:0:0:0:
188,166,55735,1,2,0:0:0:0:
350,224,55899,1,2,1:0:0:0:
350,224,56063,2,0,P|334:290|335:353,1,111.019995426117,2|8,1:0|0:0,0:0:0:0:
188,288,56391,6,0,P|185:232|171:179,1,111.019995426117,2|0,0:0|1:0,0:0:0:0:
297,66,56719,1,2,1:0:0:0:
267,200,56883,1,8,0:0:0:0:
89,159,57047,1,2,1:0:0:0:
236,129,57211,1,2,0:0:0:0:
298,274,57375,2,0,P|287:341|289:385,1,111.019995426117,2|8,1:0|0:0,0:0:0:0:
440,154,57702,1,2,0:0:0:0:
479,233,57866,6,0,B|433:241|433:241|314:194|314:194|250:202,1,222.039990852234,0|8,1:0|0:0,0:0:0:0:
441,31,58358,2,0,L|460:176,1,111.019995426117,2|0,1:0|0:0,0:0:0:0:
247,212,58686,2,0,L|261:101,1,111.019995426117,2|8,1:0|0:0,0:0:0:0:
376,253,59014,1,2,0:0:0:0:
349,72,59178,5,0,1:0:0:0:
303,291,59342,1,0,1:0:0:0:
446,212,59506,1,8,0:0:0:0:
248,213,59670,1,0,1:0:0:0:
500,283,59834,5,2,0:0:0:0:
398,141,59998,1,2,1:0:0:0:
263,361,60161,1,10,0:0:0:0:
199,141,60325,1,2,0:0:0:0:
33,212,60489,6,0,B|101:202|101:202|166:228|166:228|254:211,1,222.039990852234,6|10,1:0|0:0,0:0:0:0:
99,291,60981,1,0,0:0:0:0:
199,141,61145,1,2,1:0:0:0:
98,290,61310,2,0,P|55:314|-22:320,1,111.019995426117,2|8,1:0|0:0,0:0:0:0:
199,141,61637,6,0,P|256:125|314:157,1,111.019995426117,2|0,0:0|1:0,0:0:0:0:
512,239,61965,2,0,P|460:255|409:235,1,111.019995426117,2|8,1:0|0:0,0:0:0:0:
409,54,62293,2,0,P|414:115|385:160,1,111.019995426117,2|0,1:0|0:0,0:0:0:0:
358,322,62621,2,0,P|320:268|338:188,1,111.019995426117,2|8,1:0|0:0,0:0:0:0:
320,68,62948,1,2,0:0:0:0:
240,215,63112,5,0,1:0:0:0:
464,170,63276,1,0,0:0:0:0:
287,144,63440,1,8,0:0:0:0:
414,344,63604,2,0,P|401:283|415:219,1,111.019995426117,2|0,1:0|0:0,0:0:0:0:
215,291,63932,1,0,1:0:0:0:
382,157,64096,1,10,0:0:0:0:
148,342,64260,1,2,0:0:0:0:
225,63,64424,5,8,0:0:0:0:
290,345,64588,1,2,1:0:0:0:
280,9,64752,5,10,0:0:0:0:
215,291,64916,1,2,1:0:0:0:
76,20,65080,5,8,0:0:0:0:
148,342,65244,1,0,1:0:0:0:
148,342,65571,6,0,B|158:302|158:302|133:152,1,185.640001133057,6|0,1:0|0:0,0:0:0:0:
49,117,66063,2,0,L|66:210,1,65.5200015996094,2|0,1:0|0:0,0:0:0:0:
203,93,66391,1,10,0:0:0:0:
235,178,66555,2,0,L|218:271,1,65.5200015996094,2|0,0:0|0:0,0:0:0:0:
324,135,66883,1,2,0:0:0:0:
389,279,67047,1,0,1:0:0:0:
440,206,67211,2,0,L|433:118,1,65.5200015996094,10|0,0:0|1:0,0:0:0:0:
315,233,67539,1,2,0:0:0:0:
462,328,67702,1,10,0:0:0:0:
380,363,67866,2,0,L|306:342,1,65.5200015996094,2|0,0:0|0:0,0:0:0:0:
128,278,68194,1,2,1:0:0:0:
179,209,68358,6,0,P|211:261|185:337,1,131.040003199219,4|2,1:0|1:0,0:0:0:0:
55,304,68850,2,0,P|50:257|64:233,1,65.5200015996094,2|8,0:0|0:0,0:0:0:0:
102,117,69178,2,0,P|111:147|104:179,1,65.5200015996094,2|0,0:0|0:0,0:0:0:0:
31,72,69506,1,2,0:0:0:0:
217,30,69670,1,0,1:0:0:0:
255,108,69834,2,0,P|245:138|252:170,1,65.5200015996094,8|0,0:0|0:0,0:0:0:0:
373,33,70161,1,0,1:0:0:0:
453,176,70325,5,10,0:0:0:0:
328,142,70489,1,10,0:0:0:0:
416,104,70653,1,10,0:0:0:0:
422,322,70817,1,10,0:0:0:0:
200,267,70981,6,2,P|271:273|389:217,1,185.640001133057,6|8,1:0|0:0,0:0:0:0:
133,208,71473,2,0,P|111:260|137:318,1,92.8200005665283,2|0,0:0|1:0,0:0:0:0:
352,156,71801,2,0,P|358:110|337:70,1,92.8200005665283,2|8,1:0|0:0,0:0:0:0:
218,57,72129,1,2,3:0:0:0:
85,142,72293,6,0,B|185:94|172:181|288:123,1,203.840002488281,4|8,1:0|0:0,0:0:0:0:
57,69,72784,2,0,P|10:107|8:162,1,101.920001244141,2|0,0:0|1:0,0:0:0:0:
118,293,73112,1,2,1:0:0:0:
85,142,73276,1,8,0:0:0:0:
49,338,73440,1,2,3:0:0:0:
228,222,73604,6,0,L|346:239,1,101.920001244141,4|2,1:0|0:0,0:0:0:0:
220,131,73932,1,10,0:0:0:0:
237,308,74096,1,2,0:0:0:0:
323,153,74260,1,2,1:0:0:0:
335,314,74424,2,0,P|393:286|403:235,1,101.920001244141,2|8,1:0|0:0,0:0:0:0:
317,69,74752,1,2,3:0:0:0:
228,222,74916,6,0,L|112:207,1,101.920001244141,4|2,1:0|0:0,0:0:0:0:
393,98,75243,2,0,L|509:113,1,101.920001244141,12|2,0:0|0:0,0:0:0:0:
241,37,75571,1,0,1:0:0:0:
311,161,75735,1,10,0:0:0:0:
311,161,75817,1,8,0:0:0:0:
311,161,75899,2,0,L|320:226,1,50.9600006220703,8|4,0:0|3:0,0:0:0:0:
221,272,76063,2,0,L|227:221,1,50.9600006220703,4|4,3:0|3:0,0:0:0:0:
249,348,76227,6,0,P|185:346|156:315,1,92.8200005665283,4|0,1:0|0:0,0:0:0:0:
214,143,76555,1,10,0:0:0:0:
358,304,76719,2,0,P|422:301|454:274,1,92.8200005665283,2|0,0:0|1:0,0:0:0:0:
382,106,77047,1,2,1:0:0:0:
282,269,77211,1,10,0:0:0:0:
165,76,77375,6,0,L|57:66,1,92.8200005665283,6|0,1:0|0:0,0:0:0:0:
201,232,77702,1,2,1:0:0:0:
320,33,77866,2,0,L|428:23,1,92.8200005665283,10|0,0:0|0:0,0:0:0:0:
333,182,78194,1,2,1:0:0:0:
243,56,78358,1,2,1:0:0:0:
122,265,78522,1,10,0:0:0:0:
243,154,78686,1,2,0:0:0:0:
362,316,78850,6,0,P|420:300|461:278,1,92.8200005665283,2|0,1:0|0:0,0:0:0:0:
376,102,79178,1,10,0:0:0:0:
314,215,79342,1,2,0:0:0:0:
483,158,79506,1,2,1:0:0:0:
356,87,79670,1,2,1:0:0:0:
292,227,79834,1,10,0:0:0:0:
470,164,79998,6,0,P|476:101|471:52,1,92.8200005665283,2|0,1:0|0:0,0:0:0:0:
388,192,80325,1,2,1:0:0:0:
268,48,80489,2,0,P|266:94|272:140,1,92.8200005665283,10|0,0:0|0:0,0:0:0:0:
322,304,80817,1,2,1:0:0:0:
351,107,80981,1,10,0:0:0:0:
352,375,81145,1,10,0:0:0:0:
200,169,81309,1,10,0:0:0:0:
42,352,81473,6,0,P|102:333|145:306,1,92.8200005665283,6|0,1:0|0:0,0:0:0:0:
143,107,81801,1,10,0:0:0:0:
259,231,81965,1,2,0:0:0:0:
259,231,82047,1,8,0:0:0:0:
259,231,82129,2,0,P|300:252|344:264,1,92.8200005665283,0|0,1:0|1:0,0:0:0:0:
223,80,82457,1,10,0:0:0:0:
85,216,82621,6,0,P|44:237|0:249,1,92.8200005665283,6|0,1:0|0:0,0:0:0:0:
159,24,82948,1,2,1:0:0:0:
298,137,83112,1,10,0:0:0:0:
125,113,83276,1,2,0:0:0:0:
352,61,83440,1,2,1:0:0:0:
396,276,83604,1,2,1:0:0:0:
210,124,83768,1,10,0:0:0:0:
474,163,83932,1,2,1:0:0:0:
328,380,84096,5,14,0:0:0:0:
298,137,84260,1,10,0:0:0:0:
253,255,84424,1,0,1:0:0:0:
45,98,84588,5,10,0:0:0:0:
302,46,84752,1,10,0:0:0:0:
183,25,84916,1,0,1:0:0:0:
391,182,85080,5,10,0:0:0:0:
134,234,85243,1,10,0:0:0:0:
258,288,85407,1,0,1:0:0:0:
229,89,85571,5,8,0:0:0:0:
162,357,85735,1,10,0:0:0:0:
107,71,85899,1,10,0:0:0:0:
