osu file format v14

[General]
AudioFilename: audio.mp3
AudioLeadIn: 0
PreviewTime: 54602
Countdown: 0
SampleSet: Soft
StackLeniency: 0.7
Mode: 0
LetterboxInBreaks: 0
WidescreenStoryboard: 1

[Editor]
Bookmarks: 2962,8208,13454,23946,34438,39684,44930,49848,50176,52799,54602,55258,65749,76405,81651,86241
DistanceSpacing: 1.2
BeatDivisor: 4
GridSize: 32
TimelineZoom: 1.7

[Metadata]
Title:Shiny Ray
TitleUnicode:Shiny Ray
Artist:YURiKA
ArtistUnicode:YURiKA
Creator:vick
Version:Insane
Source:リトルウィッチアカデミア
Tags:little witch academia tv size atsuko kagari
BeatmapID:1255203
BeatmapSetID:593285

[Difficulty]
HPDrainRate:6
CircleSize:4
OverallDifficulty:7
ApproachRate:9.2
SliderMultiplier:1.7
SliderTickRate:1

[Events]
//Background and Video events
0,0,"BG.jpg",0,0
//Break Periods
//Storyboard Layer 0 (Background)
//Storyboard Layer 1 (Fail)
//Storyboard Layer 2 (Pass)
//Storyboard Layer 3 (Foreground)
//Storyboard Sound Samples

[TimingPoints]
2963,327.868852459016,4,2,0,40,1,0
7962,-100,4,2,0,40,0,0
8044,-100,4,2,0,40,0,0
8126,-100,4,2,0,40,0,0
8208,-100,4,2,0,40,0,0
13454,-133.333333333333,4,2,0,40,0,0
13782,-133.333333333333,4,2,0,30,0,0
18208,-153.846153846153,4,2,0,30,0,0
18700,-133.333333333333,4,2,0,30,0,0
23946,-111.111111111111,4,2,0,40,0,0
34438,-133.333333333333,4,2,0,45,0,0
39684,-200,4,2,0,20,0,0
42307,-200,4,2,0,20,0,0
42962,-200,4,2,0,20,0,0
43618,-200,4,2,0,20,0,0
44274,-142.857142857143,4,2,0,20,0,0
44356,-142.857142857143,4,2,0,20,0,0
44438,-142.857142857143,4,2,0,20,0,0
44520,-142.857142857143,4,2,0,20,0,0
44602,-133.333333333333,4,2,0,20,0,0
44684,-133.333333333333,4,2,0,20,0,0
44766,-133.333333333333,4,2,0,20,0,0
44848,-133.333333333333,4,2,0,40,0,0
44930,-117.647058823529,4,2,0,40,0,0
50094,-117.647058823529,4,2,0,5,0,0
50176,-111.111111111111,4,2,0,40,0,0
52799,-1000,4,2,0,5,0,0
54438,-100,4,2,0,70,0,0
54848,-100,4,2,0,60,0,0
54930,-100,4,2,0,60,0,0
55012,-100,4,2,0,60,0,0
55258,-90.9090909090909,4,2,0,60,0,1
65422,-133.333333333333,4,2,0,40,0,0
65749,-83.3333333333333,4,2,0,60,0,1
76405,-100,4,2,0,40,0,0

[Colours]
Combo1 : 233,131,241
Combo2 : 244,151,89
Combo3 : 240,232,125
Combo4 : 116,198,241
Combo5 : 140,233,114
SliderBorder : 157,200,225
SliderTrackOverride : 135,100,225

[HitObjects]
233,69,2962,6,0,B|205:118|205:118|220:258,1,170
299,309,3454,1,0,0:0:0:0:
444,224,3618,2,0,L|351:217,1,85
276,152,3946,1,0,0:0:0:0:
112,136,4110,6,0,B|231:127|231:127|292:160,1,170
317,244,4602,1,0,0:0:0:0:
300,63,4766,1,0,0:0:0:0:
209,211,4930,1,0,0:0:0:0:
399,168,5094,1,0,0:0:0:0:
399,168,5176,1,0,0:0:0:0:
399,168,5258,1,0,0:0:0:0:
181,219,5422,1,0,0:0:0:0:
300,63,5585,6,0,B|273:115|273:115|293:257,1,170
399,168,6077,1,0,0:0:0:0:
197,131,6241,2,0,L|101:134,1,85
300,63,6569,1,0,0:0:0:0:
288,225,6733,6,0,L|192:228,1,85
399,168,7061,1,0,0:0:0:0:
312,322,7225,1,0,0:0:0:0:
310,123,7389,1,0,0:0:0:0:
488,210,7553,1,0,0:0:0:0:
256,200,7717,1,0,0:0:0:0:
361,39,7881,1,0,0:0:0:0:
379,269,8044,1,0,0:0:0:0:
310,123,8208,6,0,B|266:102|227:117|227:117|177:137|111:101,1,170
83,33,8700,1,0,0:0:0:0:
17,110,8864,2,0,L|12:200,1,85
119,312,9192,1,0,0:0:0:0:
119,312,9356,6,0,B|89:267|89:267|96:134,1,170
187,51,9848,1,0,0:0:0:0:
207,248,10012,1,0,0:0:0:0:
95,151,10176,1,0,0:0:0:0:
302,125,10340,1,0,0:0:0:0:
302,125,10422,1,0,0:0:0:0:
302,125,10503,1,0,0:0:0:0:
59,128,10667,1,0,0:0:0:0:
207,248,10831,6,0,P|218:291|206:352,1,85
156,183,11159,1,0,0:0:0:0:
222,133,11323,6,0,P|265:121|326:134,1,85
156,183,11651,1,0,0:0:0:0:
106,117,11815,6,0,P|95:74|107:13,1,85
156,183,12143,1,0,0:0:0:0:
90,233,12307,6,0,P|47:244|-14:232,1,85
208,103,12635,1,0,0:0:0:0:
208,103,12717,1,0,0:0:0:0:
208,103,12799,1,0,0:0:0:0:
160,328,12962,1,0,0:0:0:0:
96,142,13126,1,0,0:0:0:0:
342,197,13290,1,0,0:0:0:0:
342,197,13782,6,0,L|205:193,1,127.500004863739
45,252,14438,1,0,0:0:0:0:
45,252,14602,2,0,P|101:216|96:138,1,127.500004863739
228,27,15258,2,0,L|215:163,2,127.500004863739
330,0,16077,6,0,B|309:62|309:62|336:136,1,127.500004863739
406,167,16569,1,0,0:0:0:0:
406,167,16733,2,0,P|414:204|408:248,1,63.7500024318696
358,301,17061,1,0,0:0:0:0:
358,301,17225,6,0,L|222:297,1,127.500004863739
156,246,17717,2,0,L|70:249,2,63.7500024318696
233,202,18208,2,0,P|256:132|219:63,1,138.12499367714
165,43,18700,6,0,P|231:58|304:30,1,127.500004863739
436,139,19356,2,0,L|342:134,1,63.7500024318696
289,101,19684,1,0,0:0:0:0:
212,146,19848,2,0,B|191:192|191:192|204:297,1,127.500004863739
291,341,20340,6,0,L|275:203,1,127.500004863739
325,42,20995,1,0,0:0:0:0:
325,42,21159,1,0,0:0:0:0:
401,87,21323,6,0,P|348:129|281:118,1,127.500004863739
232,56,21815,1,0,0:0:0:0:
232,56,21979,2,0,L|237:195,1,127.500004863739
202,275,22471,1,0,0:0:0:0:
142,192,22635,5,0,0:0:0:0:
67,250,22799,2,0,L|-10:246,2,63.7500024318696
202,275,23290,1,0,0:0:0:0:
139,161,23454,1,0,0:0:0:0:
139,161,23946,6,0,B|196:156|196:156|239:177|239:177|312:170,1,152.999995330811
367,127,24438,1,0,0:0:0:0:
428,194,24602,2,0,P|439:232|433:271,1,76.4999976654053
363,328,24930,1,0,0:0:0:0:
363,328,25094,6,0,L|201:323,1,152.999995330811
149,254,25585,1,0,0:0:0:0:
217,192,25749,2,0,P|221:152|210:112,1,76.4999976654053
292,23,26077,2,0,P|288:63|299:103,1,76.4999976654053
373,149,26405,1,0,0:0:0:0:
373,149,26569,6,0,L|196:142,1,152.999995330811
135,106,27061,1,0,0:0:0:0:
135,106,27225,1,0,0:0:0:0:
66,166,27389,2,0,P|61:208|74:241,1,76.4999976654053
150,289,27717,6,0,B|193:301|230:282|230:282|265:265|323:289,1,152.999995330811
380,322,28208,1,0,0:0:0:0:
414,236,28372,1,0,0:0:0:0:
377,313,28536,1,0,0:0:0:0:
411,227,28700,1,0,0:0:0:0:
452,381,28864,1,0,0:0:0:0:
452,381,29192,6,0,L|267:374,1,152.999995330811
224,320,29684,1,0,0:0:0:0:
275,244,29848,2,0,P|282:194|268:154,1,76.4999976654053
215,98,30176,1,0,0:0:0:0:
215,98,30340,2,0,L|53:100,1,152.999995330811
266,168,30831,6,0,P|298:120|260:25,2,152.999995330811
196,229,31651,1,0,0:0:0:0:
271,281,31815,2,0,P|310:288|352:279,1,76.4999976654053
421,227,32143,1,0,0:0:0:0:
421,227,32307,1,0,0:0:0:0:
389,367,32471,1,0,0:0:0:0:
389,367,32635,1,0,0:0:0:0:
341,187,32799,1,0,0:0:0:0:
506,264,32962,1,0,0:0:0:0:
285,309,33126,6,0,L|196:306,1,76.4999976654053
341,187,33454,1,0,0:0:0:0:
389,367,33618,1,0,0:0:0:0:
246,227,33782,1,0,0:0:0:0:
431,152,33946,1,0,0:0:0:0:
373,280,34110,1,0,0:0:0:0:
373,281,34438,6,0,L|369:209,1,63.7500024318696
323,90,34766,2,0,L|319:153,1,63.7500024318696
246,227,35094,2,0,L|242:155,1,63.7500024318696
196,36,35422,2,0,L|192:99,1,63.7500024318696
155,166,35749,6,0,P|93:199|28:184,2,127.500004863739
196,36,36569,1,0,0:0:0:0:
196,36,36651,1,0,0:0:0:0:
196,36,36733,1,0,0:0:0:0:
231,225,36897,1,0,0:0:0:0:
81,99,37061,6,0,L|0:95,1,63.7500024318696
146,157,37389,2,0,L|227:153,1,63.7500024318696
75,206,37717,2,0,L|-6:202,1,63.7500024318696
140,264,38045,2,0,L|221:260,1,63.7500024318696
252,319,38372,6,0,L|315:322,1,63.7500024318696
450,274,38700,1,0,0:0:0:0:
371,383,38864,1,0,0:0:0:0:
371,383,38946,1,0,0:0:0:0:
371,383,39028,1,0,0:0:0:0:
385,192,39192,1,0,0:0:0:0:
480,365,39356,1,0,0:0:0:0:
373,157,39520,1,0,0:0:0:0:
323,264,39684,6,0,P|239:306|166:268,1,170
243,222,40667,1,0,0:0:0:0:
276,64,40995,2,0,B|242:104|242:104|243:230,1,170
328,136,41979,1,0,0:0:0:0:
192,40,42307,2,0,L|19:39,1,170
158,136,43618,2,0,L|331:135,1,170
438,183,44438,5,0,0:0:0:0:
380,56,44602,1,0,0:0:0:0:
363,271,44766,1,0,0:0:0:0:
327,135,44930,5,0,0:0:0:0:
227,375,45422,1,0,0:0:0:0:
496,244,45913,1,0,0:0:0:0:
187,152,46405,5,0,0:0:0:0:
187,152,46569,2,0,L|96:153,1,72.2500013780594
282,207,46897,1,0,0:0:0:0:
212,60,47061,1,0,0:0:0:0:
173,254,47225,1,0,0:0:0:0:
214,33,47389,1,0,0:0:0:0:
282,207,47553,5,0,0:0:0:0:
83,39,48044,1,0,0:0:0:0:
154,303,48536,1,0,0:0:0:0:
217,141,48864,5,0,0:0:0:0:
217,141,49028,2,0,L|308:137,1,72.2500013780594
144,72,49356,1,0,0:0:0:0:
190,233,49520,1,0,0:0:0:0:
243,57,49684,1,0,0:0:0:0:
98,175,49848,2,0,B|78:223|78:223|96:308,1,108.375002067089
105,321,50176,6,0,P|180:367|247:352,1,152.999995330811
311,298,50667,1,0,0:0:0:0:
236,244,50831,2,0,P|225:205|234:162,1,76.4999976654053
277,90,51159,1,0,0:0:0:0:
360,129,51323,6,0,L|443:126,2,76.4999976654053
277,90,51815,1,0,0:0:0:0:
357,218,51979,1,0,0:0:0:0:
381,16,52143,2,0,L|304:13,1,76.4999976654053
140,148,52471,2,0,L|216:145,1,76.4999976654053
256,192,52799,12,0,54274,0:0:0:0:
120,170,54766,6,0,L|163:168,1,42.5
362,69,54930,2,0,L|320:67,1,42.5
225,34,55258,6,0,B|210:83|236:122|236:122|264:170|244:220,1,187.000005706787
143,277,55749,1,0,0:0:0:0:
362,182,55913,1,0,0:0:0:0:
143,277,56077,1,0,0:0:0:0:
362,182,56241,1,0,0:0:0:0:
128,129,56405,1,0,0:0:0:0:
287,279,56569,6,0,P|300:324|288:380,1,93.5000028533936
133,219,56897,2,0,P|120:174|132:118,1,93.5000028533936
203,45,57225,1,0,0:0:0:0:
203,45,57389,2,0,L|306:39,1,93.5000028533936
478,130,57717,2,0,L|375:124,1,93.5000028533936
238,138,58044,6,0,B|200:193|200:193|218:333,1,187.000005706787
306,228,58536,1,0,0:0:0:0:
132,128,58700,2,0,L|34:130,1,93.5000028533936
238,138,59028,1,0,0:0:0:0:
184,42,59192,5,0,0:0:0:0:
106,250,59356,1,0,0:0:0:0:
262,39,59520,5,0,0:0:0:0:
240,260,59684,1,0,0:0:0:0:
336,15,59848,5,0,0:0:0:0:
372,235,60012,1,0,0:0:0:0:
184,42,60176,1,0,0:0:0:0:
431,106,60340,1,0,0:0:0:0:
190,186,60503,6,0,B|-7:176,1,187.000005706787
135,100,60995,1,0,0:0:0:0:
73,261,61159,2,0,L|85:358,1,93.5000028533936
190,186,61487,2,0,L|178:283,1,93.5000028533936
135,100,61815,6,0,P|228:92|291:176,2,187.000005706787
55,180,62635,1,0,0:0:0:0:
171,311,62799,1,0,0:0:0:0:
171,311,62881,1,0,0:0:0:0:
171,311,62962,1,0,0:0:0:0:
222,89,63126,1,0,0:0:0:0:
150,221,63290,6,0,L|47:216,1,93.5000028533936
223,58,63618,1,0,0:0:0:0:
292,282,63782,2,0,L|395:277,1,93.5000028533936
224,173,64110,1,0,0:0:0:0:
238,380,64274,1,0,0:0:0:0:
341,144,64438,1,0,0:0:0:0:
175,285,64602,6,0,P|128:294|71:280,1,93.5000028533936
258,106,64930,1,0,0:0:0:0:
238,380,65094,1,0,0:0:0:0:
422,154,65258,1,0,0:0:0:0:
91,126,65422,1,0,0:0:0:0:
91,126,65749,6,0,B|161:121|161:121|215:149|215:149|309:141,1,203.999993774414
384,66,66241,1,0,0:0:0:0:
384,66,66405,1,0,0:0:0:0:
460,161,66569,2,0,P|467:214|446:260,1,101.999996887207
341,319,66897,1,0,0:0:0:0:
285,209,67061,1,0,0:0:0:0:
245,368,67225,5,0,0:0:0:0:
245,368,67389,1,0,0:0:0:0:
365,237,67553,2,0,L|482:241,1,101.999996887207
274,182,67881,2,0,L|157:186,1,101.999996887207
72,234,68208,1,0,0:0:0:0:
132,86,68372,1,0,0:0:0:0:
187,274,68536,6,0,P|192:331|158:379,1,101.999996887207
72,234,68864,1,0,0:0:0:0:
172,163,69028,2,0,L|295:158,1,101.999996887207
415,248,69356,2,0,L|292:243,1,101.999996887207
474,325,69684,5,0,0:0:0:0:
406,129,69848,1,0,0:0:0:0:
345,363,70012,1,0,0:0:0:0:
491,184,70176,1,0,0:0:0:0:
313,243,70340,1,0,0:0:0:0:
474,325,70503,5,0,0:0:0:0:
289,120,70667,1,0,0:0:0:0:
474,325,70831,1,0,0:0:0:0:
289,120,70995,1,0,0:0:0:0:
389,189,71159,6,0,L|494:183,1,101.999996887207
289,120,71487,1,0,0:0:0:0:
207,211,71651,2,0,P|196:264|216:315,1,101.999996887207
332,373,71979,2,0,P|343:320|323:269,1,101.999996887207
207,211,72307,6,0,L|0:218,1,203.999993774414
87,138,72799,1,0,0:0:0:0:
137,323,72962,1,0,0:0:0:0:
194,112,73126,1,0,0:0:0:0:
34,292,73290,1,0,0:0:0:0:
116,45,73454,1,0,0:0:0:0:
207,211,73618,6,0,P|260:230|315:224,1,101.999996887207
391,146,73946,1,0,0:0:0:0:
315,342,74110,1,0,0:0:0:0:
300,103,74274,1,0,0:0:0:0:
397,257,74438,2,0,P|446:269|502:257,1,101.999996887207
300,103,74766,1,0,0:0:0:0:
315,342,74930,1,0,0:0:0:0:
248,193,75094,6,0,L|32:198,1,203.999993774414
300,103,75585,2,0,P|340:148|347:213,1,101.999996887207
241,342,75913,1,0,0:0:0:0:
194,321,75995,1,0,0:0:0:0:
161,281,76077,1,0,0:0:0:0:
149,231,76159,1,0,0:0:0:0:
156,180,76241,1,0,0:0:0:0:
185,138,76323,1,0,0:0:0:0:
211,104,76405,6,0,P|228:62|218:4,1,85
100,121,76733,1,0,0:0:0:0:
243,208,76897,2,0,L|350:205,1,85
415,152,77225,1,0,0:0:0:0:
415,152,77389,1,0,0:0:0:0:
489,304,77553,6,0,P|430:342|336:311,1,170
287,227,78044,1,0,0:0:0:0:
393,65,78208,1,0,0:0:0:0:
411,251,78372,1,0,0:0:0:0:
275,107,78536,2,0,L|176:97,2,85
46,205,79028,6,0,L|229:195,1,170
305,145,79520,1,0,0:0:0:0:
377,216,79684,2,0,P|392:263|383:312,1,85
305,145,80012,1,0,0:0:0:0:
389,88,80176,2,0,L|491:84,1,85
305,145,80503,5,0,0:0:0:0:
348,5,80667,1,0,0:0:0:0:
377,216,80831,1,0,0:0:0:0:
235,77,80995,1,0,0:0:0:0:
469,177,81159,1,0,0:0:0:0:
162,132,81323,2,0,L|67:135,1,85
0,262,81651,6,0,B|49:225|49:225|179:221,1,170
251,292,82143,1,0,0:0:0:0:
251,292,82225,1,0,0:0:0:0:
251,292,82307,1,0,0:0:0:0:
162,132,82471,1,0,0:0:0:0:
113,340,82635,1,0,0:0:0:0:
256,90,82799,6,0,P|226:51|108:47,1,170
42,130,83290,1,0,0:0:0:0:
120,205,83454,2,0,L|129:294,2,85
42,130,83946,1,0,0:0:0:0:
228,174,84110,1,0,0:0:0:0:
71,20,84274,5,0,0:0:0:0:
30,267,84438,1,0,0:0:0:0:
218,353,84766,5,0,0:0:0:0:
177,106,84930,1,0,0:0:0:0:
355,22,85258,5,0,0:0:0:0:
314,269,85422,1,0,0:0:0:0:
466,331,85749,5,0,0:0:0:0:
425,84,85913,1,0,0:0:0:0:
252,384,86077,1,0,0:0:0:0:
