osu file format v14

[General]
AudioFilename: audio.mp3
AudioLeadIn: 0
PreviewTime: 54491
Countdown: 0
SampleSet: Soft
StackLeniency: 0.7
Mode: 0
LetterboxInBreaks: 0
WidescreenStoryboard: 0

[Editor]
DistanceSpacing: 1.1
BeatDivisor: 4
GridSize: 4
TimelineZoom: 2

[Metadata]
Title:Shiny Ray
TitleUnicode:Shiny Ray
Artist:YURiKA
ArtistUnicode:YURiKA
Creator:aigoh
Version:Normal
Source:リトルウィッチアカデミア
Tags:Little Witch Academia opening op tv size
BeatmapID:1320154
BeatmapSetID:626335

[Difficulty]
HPDrainRate:4
CircleSize:3.5
OverallDifficulty:4.5
ApproachRate:5
SliderMultiplier:1.1
SliderTickRate:2

[Events]
//Background and Video events
0,0,"60845985_p0_1920x1200.jpg",0,0
//Break Periods
//Storyboard Layer 0 (Background)
//Storyboard Layer 1 (Fail)
//Storyboard Layer 2 (Pass)
//Storyboard Layer 3 (Foreground)
//Storyboard Sound Samples

[TimingPoints]
147,327.868852459016,4,2,6,15,1,0
147,-100,4,2,6,15,0,0
1294,-100,4,2,6,10,0,0
2114,-100,4,2,6,15,0,0
2769,-100,4,2,77,55,0,0
13261,-100,4,2,6,30,0,0
23753,-100,4,2,77,38,0,0
39491,-100,4,2,6,25,0,0
41786,-100,4,2,6,40,0,0
42114,-100,4,2,77,40,0,0
42769,-100,4,2,77,45,0,0
43425,-100,4,2,77,50,0,0
44081,-100,4,2,6,50,0,0
44737,-100,4,2,77,55,0,0
46212,-100,4,2,77,40,0,0
47360,-100,4,2,77,50,0,0
48671,-100,4,2,77,40,0,0
49983,-100,4,2,77,50,0,0
52606,-100,4,2,88,30,0,0
54573,-100,4,2,77,55,0,0
55065,-100,4,2,77,65,0,1
56376,-100,4,2,2,65,0,1
63589,-100,4,2,77,65,0,1
65556,-100,4,2,77,65,0,1
70966,-100,4,2,77,65,0,1
73425,-100,4,2,2,65,0,1
74901,-100,4,2,77,65,0,1
76212,-100,4,2,77,65,0,0
85966,-100,4,2,77,15,0,0
86704,-100,4,2,77,10,0,0
87360,-100,4,2,77,7,0,0
88015,-100,4,2,77,5,0,0

[Colours]
Combo1 : 203,137,152
Combo2 : 254,87,118
Combo3 : 255,183,85

[HitObjects]
256,192,147,12,0,2114,0:0:0:0:
24,232,2769,6,0,P|10:180|23:127,2,110,6|2|2,0:0|0:0|0:0,0:0:0:0:
53,285,3589,2,0,L|117:298,1,55,0|2,0:0|0:0,0:0:0:0:
167,298,3917,2,0,P|219:284|273:296,1,110,8|0,0:0|0:0,0:0:0:0:
386,339,4573,1,0,0:0:0:0:
386,339,4737,2,0,L|401:230,1,110,2|12,0:0|0:3,0:0:0:0:
361,115,5392,6,0,P|386:66|388:12,2,110,2|2|2,0:0|0:0|0:0,0:0:0:0:
303,134,6212,2,0,L|238:129,1,55,0|2,0:0|0:0,0:0:0:0:
189,144,6540,2,0,B|135:160|135:160|83:143,1,110,12|0,0:0|0:0,0:0:0:0:
30,34,7196,1,0,0:0:0:0:
30,34,7360,2,0,P|83:21|136:33,1,110,2|12,0:0|0:3,0:0:0:0:
84,143,8015,6,0,P|96:196|84:249,1,110,6|2,0:0|0:0,0:0:0:0:
65,307,8507,1,8,0:0:0:0:
176,353,8835,2,0,L|241:340,1,55,0|2,0:0|0:0,0:0:0:0:
248,284,9163,2,0,B|232:230|232:230|248:178,1,110,14|0,0:0|0:0,0:0:0:0:
368,162,9819,1,0,0:0:0:0:
368,162,9983,2,0,L|478:158,1,110,2|12,0:0|0:3,0:0:0:0:
438,43,10638,6,0,B|384:59|384:59|332:42,1,110,6|2,0:0|0:0,0:0:0:0:
272,32,11130,2,0,B|220:15|220:15|166:31,1,110,6|2,0:0|0:0,0:0:0:0:
111,56,11622,2,0,B|96:112|96:112|72:152|72:152|57:210,1,165,6|2,0:0|0:0,0:0:0:0:
154,363,12606,2,0,B|263:359,2,110,12|2|2,0:3|0:0|0:0,0:0:0:0:
36,335,13589,5,0,0:0:0:0:
5,217,13917,2,0,P|6:134|64:79,2,165,2|2|0,0:0|0:0|0:0,0:0:0:0:
118,258,15228,2,0,B|227:254,1,110,2|2,0:0|0:0,0:0:0:0:
319,333,15884,6,0,P|396:354|466:315,1,165,2|0,0:0|0:0,0:0:0:0:
496,261,16540,2,0,B|505:151,1,110,2|0,0:0|0:0,0:0:0:0:
451,121,17032,2,0,B|399:102|399:102|346:115,1,110,2|0,0:0|0:0,0:0:0:0:
331,174,17524,2,0,B|344:227|344:227|325:278,2,110,0|2|2,0:0|0:0|0:0,0:0:0:0:
251,82,18507,6,0,L|143:106,1,110,2|0,0:0|0:0,0:0:0:0:
72,204,19163,2,0,P|26:136|34:56,2,165,2|2|2,0:0|0:0|0:0,0:0:0:0:
185,244,20474,2,0,L|292:268,1,110,2|2,0:0|0:0,0:0:0:0:
364,366,21130,2,0,P|409:298|401:218,1,165,2|0,0:0|0:0,0:0:0:0:
357,176,21786,2,0,B|298:163|298:163|252:166|252:166|194:153,1,165,2|0,0:0|0:0,0:0:0:0:
77,179,22606,2,0,P|78:123|103:75,1,110
156,49,23097,2,0,L|216:42,1,55,2|0,0:0|0:0,0:0:0:0:
390,12,23753,6,0,L|398:121,1,110,4|0,0:0|0:0,0:0:0:0:
276,124,24409,2,0,L|268:233,1,110,8|0,0:0|0:0,0:0:0:0:
242,288,24901,2,0,P|188:301|135:289,1,110,2|2,0:0|0:0,0:0:0:0:
15,275,25556,2,0,L|26:385,2,110,8|2|0,0:0|0:0|0:0,0:0:0:0:
10,214,26376,6,0,B|69:212|69:212|113:197|113:197|172:196,1,165,2|0,0:0|0:0,0:0:0:0:
231,209,27032,1,8,0:0:0:0:
231,209,27196,2,0,L|292:200,1,55
337,170,27524,2,0,L|447:181,1,110,2|2,0:0|0:0,0:0:0:0:
504,199,28015,2,0,P|484:250|490:304,2,110,2|0|8,0:0|0:0|0:0,0:0:0:0:
512,78,28999,6,0,L|399:69,1,110,6|0,0:0|0:0,0:0:0:0:
302,137,29655,2,0,L|192:145,1,110,8|0,0:0|0:0,0:0:0:0:
132,152,30146,2,0,P|115:204|124:257,1,110,2|2,0:0|0:0,0:0:0:0:
110,317,30638,2,0,L|4:288,2,110,0|2|2,0:0|0:2|0:2,0:0:0:0:
228,344,31622,6,0,B|310:358|310:344|311:328|390:343,1,165,2|0,0:0|0:0,0:0:0:0:
450,355,32278,2,0,P|483:282|457:207,1,165,8|2,0:0|0:0,0:0:0:0:
377,114,33097,2,0,L|261:106,1,110,8|2,0:0|0:0,0:0:0:0:
213,78,33589,2,0,P|160:90|106:79,1,110,8|8,0:0|0:0,0:0:0:0:
1,139,34245,6,0,L|9:254,1,110,6|2,0:0|0:0,0:0:0:0:
57,285,34737,1,0,0:0:0:0:
57,285,34901,2,0,P|109:272|163:283,1,110,2|2,0:0|0:0,0:0:0:0:
256,205,35556,2,0,L|248:80,2,110,2|2|2,0:0|0:0|0:0,0:0:0:0:
349,284,36540,2,0,L|345:338,1,55,12|0,0:3|0:0,0:0:0:0:
396,372,36868,6,0,P|449:382|502:370,1,110,6|2,0:0|0:0,0:0:0:0:
446,261,37524,2,0,P|481:220|497:168,1,110,2|2,0:0|0:0,0:0:0:0:
376,162,38179,2,0,P|358:111|321:71,1,110,2|2,0:0|0:0,0:0:0:0:
260,59,38671,1,8,0:3:0:0:
260,59,38835,2,0,L|138:71,1,110,12|2,0:3|0:0,0:0:0:0:
130,189,39491,6,0,P|63:304|196:290,1,330,4|0,0:0|0:0,0:0:0:0:
312,287,40802,2,0,P|445:303|378:188,1,330,2|0,0:0|0:0,0:0:0:0:
271,142,42114,6,0,P|352:73|455:98,1,220
316,291,43425,2,0,P|235:359|132:334,1,220
17,123,44737,6,0,B|74:112|74:112|116:91|116:91|175:81,1,165,2|0,0:0|0:0,0:0:0:0:
346,141,45720,2,0,L|369:304,1,165,2|2,0:0|0:0,0:0:0:0:
406,353,46376,2,0,P|459:344|512:360,2,110,8|2|8,0:0|0:0|0:0,0:0:0:0:
284,369,47360,6,0,P|205:382|139:336,1,165,2|2,0:0|0:0,0:0:0:0:
40,184,48343,2,0,P|88:159|143:155,1,110,2|2,0:0|0:0,0:0:0:0:
199,177,48835,2,0,B|240:180|240:180|273:173|273:173|314:177,1,110,8|8,0:0|0:3,0:0:0:0:
364,198,49327,2,0,L|409:151,1,55,12|0,0:3|0:0,0:0:0:0:
463,153,49655,2,0,L|508:106,1,55,4|0,0:0|0:0,0:0:0:0:
512,52,49983,6,0,P|459:61|406:45,1,110,4|0,0:0|0:0,0:0:0:0:
348,27,50474,1,0,0:0:0:0:
348,27,50638,2,0,P|295:42|242:33,1,110
120,35,51294,1,0,0:0:0:0:
120,35,51458,2,0,P|104:87|113:140,1,110
153,186,51950,2,0,P|161:239|146:291,1,110
67,384,52606,1,0,0:0:0:0:
77,233,54573,5,2,0:0:0:0:
77,233,54737,1,12,0:3:0:0:
78,354,55065,6,0,P|130:367|184:355,1,110,6|0,0:0|0:0,0:0:0:0:
244,361,55556,2,0,L|296:346,1,55,8|0,0:0|0:0,0:0:0:0:
347,311,55884,2,0,L|399:326,2,55,2|2|8,0:0|0:0|0:0,0:0:0:0:
325,254,56376,2,0,P|308:203|315:149,1,110,2|2,0:0|0:0,0:0:0:0:
422,89,57032,1,2,0:0:0:0:
422,89,57196,2,0,L|499:99,2,55,0|2|8,0:0|0:0|0:0,0:0:0:0:
370,56,57687,6,0,P|317:42|264:53,1,110,2|0,0:0|0:0,0:0:0:0:
207,29,58179,1,8,0:0:0:0:
207,29,58343,2,0,P|153:40|100:27,2,110,2|2|0,0:0|0:0|0:0,0:0:0:0:
263,53,59163,2,0,L|254:162,1,110,2|8,0:0|0:0,0:0:0:0:
166,246,59819,2,0,L|100:254,2,55,0|2|8,0:0|0:0|0:0,0:0:0:0:
188,302,60310,6,0,P|239:319|293:311,1,110,2|0,0:0|0:0,0:0:0:0:
339,351,60802,2,0,L|393:344,1,55,8|2,0:0|0:0,0:0:0:0:
446,313,61130,2,0,L|500:320,2,55,0|2|8,0:0|0:0|0:0,0:0:0:0:
441,252,61622,2,0,P|428:200|440:146,1,110,2|2,0:0|0:0,0:0:0:0:
406,29,62278,2,0,L|352:35,1,55,2|0,0:0|0:0,0:0:0:0:
298,66,62606,2,0,L|244:72,2,55,2|8|0,0:0|0:0|0:0,0:0:0:0:
329,117,63097,6,0,P|342:169|330:223,1,110,2|10,0:0|0:0,0:0:0:0:
273,246,63589,2,0,B|219:258|219:258|168:238,1,110,2|2,0:0|0:0,0:0:0:0:
107,238,64081,1,8,0:0:0:0:
107,238,64245,2,0,P|81:286|80:340,1,110,2|2,0:0|0:0,0:0:0:0:
131,372,64737,2,0,L|187:380,1,55,8|2,0:0|0:0,0:0:0:0:
244,364,65065,2,0,L|300:372,1,55,8|2,0:0|0:0,0:0:0:0:
404,313,65556,6,0,B|402:256|402:256|368:212,1,110,6|0,0:0|0:0,0:0:0:0:
319,180,66048,2,0,L|337:71,2,110,2|8|0,0:0|0:0|0:0,0:0:0:0:
199,198,67032,2,0,P|144:201|93:181,1,110,2|2,0:0|0:0,0:0:0:0:
58,65,67687,2,0,P|112:61|163:81,1,110,8|0,0:0|0:0,0:0:0:0:
199,198,68343,6,0,B|185:256|185:256|188:302|188:302|174:360,2,165,6|0|0,0:0|0:0|0:0,0:0:0:0:
299,130,69655,1,2,0:0:0:0:
299,130,69819,2,0,L|407:113,1,110,8|2,0:0|0:0,0:0:0:0:
467,119,70310,2,0,L|475:173,1,55,8|8,0:0|0:0,0:0:0:0:
512,222,70638,2,0,L|504:276,1,55,2|8,0:0|0:0,0:0:0:0:
459,317,70966,6,0,P|405:325|352:308,1,110,6|8,0:0|0:0,0:0:0:0:
296,286,71458,2,0,B|244:269|244:269|191:287,1,110,0|2,0:0|0:0,0:0:0:0:
140,320,71950,2,0,L|85:322,1,55,8|0,0:0|0:0,0:0:0:0:
29,296,72278,2,0,P|12:243|20:189,1,110,6|8,0:0|0:0,0:0:0:0:
60,143,72769,2,0,L|169:138,1,110,0|2,0:0|0:0,0:0:0:0:
244,234,73425,6,0,B|297:246|297:246|348:224,1,110,6|0,0:0|0:0,0:0:0:0:
403,199,73917,2,0,L|463:200,1,55,8|0,0:0|0:0,0:0:0:0:
501,156,74245,2,0,L|493:101,2,55,2|2|8,0:0|0:0|0:0,0:0:0:0:
511,276,74901,2,0,P|509:330|484:379,1,110,6|8,0:0|0:0,0:0:0:0:
424,382,75392,2,0,L|314:371,1,110,0|8,0:0|0:3,0:0:0:0:
259,345,75884,2,0,L|204:351,1,55,4|12,0:3|0:3,0:0:0:0:
147,330,76212,6,0,P|94:343|41:329,2,110,6|2|2,0:0|0:0|0:0,0:0:0:0:
164,271,77032,2,0,L|174:212,1,55,0|2,0:0|0:0,0:0:0:0:
203,164,77360,2,0,B|253:142|253:142|307:154,1,110,8|0,0:0|0:0,0:0:0:0:
376,254,78015,1,0,0:0:0:0:
376,254,78180,2,0,L|501:241,1,110,2|12,0:0|0:3,0:0:0:0:
506,123,78835,6,0,P|518:69|506:16,2,110,2|0|0,0:0|0:0|0:0,0:0:0:0:
453,154,79655,2,0,L|398:159,1,55,0|0,0:0|0:0,0:0:0:0:
346,127,79983,2,0,B|291:114|291:114|241:136,1,110,12|0,0:0|0:0,0:0:0:0:
131,186,80638,1,0,0:0:0:0:
131,186,80803,2,0,P|76:189|26:168,1,110,2|12,0:0|0:3,0:0:0:0:
97,70,81458,6,0,L|206:65,1,110,6|2,0:0|0:0,0:0:0:0:
254,102,81950,1,8,0:0:0:0:
365,148,82278,2,0,L|419:145,1,55,0|2,0:0|0:0,0:0:0:0:
473,117,82606,2,0,P|486:63|473:10,2,110,14|0|0,0:0|0:0|0:0,0:0:0:0:
420,146,83425,2,0,L|424:255,1,110,2|12,0:0|0:3,0:0:0:0:
365,362,84081,6,0,B|311:378|311:378|259:361,1,110,6|2,0:0|0:0,0:0:0:0:
200,350,84573,2,0,B|147:332|147:332|94:349,1,110,6|2,0:0|0:0,0:0:0:0:
39,324,85065,2,0,P|18:273|21:219,1,110,6|0,0:0|0:3,0:0:0:0:
35,160,85556,1,10,0:0:0:0:
35,160,85720,2,0,L|89:147,1,55,10|10,0:0|0:0,0:0:0:0:
256,192,85966,12,0,88015,0:0:0:0:
