osu file format v14

[General]
AudioFilename: audio.mp3
AudioLeadIn: 0
PreviewTime: 54641
Countdown: 0
SampleSet: Soft
StackLeniency: 0.5
Mode: 0
LetterboxInBreaks: 0
WidescreenStoryboard: 1

[Editor]
Bookmarks: 54641
DistanceSpacing: 1.2
BeatDivisor: 4
GridSize: 32
TimelineZoom: 1.8

[Metadata]
Title:Shiny Ray (TV Size)
TitleUnicode:Shiny Ray (TV Size)
Artist:YURiKA
ArtistUnicode:YURiKA
Creator:NoFC
Version:hakashii's Insane
Source:リトルウィッチアカデミア
Tags:japanese lwa jp little witch academia opening anime hakashii mnyui pika pikaqours kowari -_ex_-
BeatmapID:2274448
BeatmapSetID:1086799

[Difficulty]
HPDrainRate:5.2
CircleSize:3
OverallDifficulty:7.8
ApproachRate:9
SliderMultiplier:1.82
SliderTickRate:1

[Events]
//Background and Video events
0,0,"bg.jpg",0,0
//Break Periods
//Storyboard Layer 0 (Background)
//Storyboard Layer 1 (Fail)
//Storyboard Layer 2 (Pass)
//Storyboard Layer 3 (Foreground)
//Storyboard Layer 4 (Overlay)
//Storyboard Sound Samples

[TimingPoints]
227,327.868852459016,4,2,1,25,1,0
227,-138.888888888889,4,2,1,25,0,0
2849,-98.0392156862745,4,2,1,70,0,0
13341,-121.951219512195,4,2,2,40,0,0
14735,-121.951219512195,4,2,2,5,0,0
14817,-121.951219512195,4,2,2,40,0,0
23833,-108.695652173913,4,2,1,50,0,0
29079,-108.695652173913,4,2,1,60,0,0
34325,-98.0392156862744,4,2,1,60,0,0
39571,-138.888888888889,4,2,1,40,0,0
42767,-138.888888888889,4,2,1,5,0,0
42849,-138.888888888889,4,2,1,40,0,0
43423,-138.888888888889,4,2,1,5,0,0
43505,-138.888888888889,4,2,1,40,0,0
44817,-121.951219512195,4,2,1,50,0,0
45226,-121.951219512195,4,2,1,5,0,0
45308,-138.888888888889,4,2,1,50,0,0
45718,-138.888888888889,4,2,1,5,0,0
45800,-161.290322580645,4,2,1,50,0,0
46210,-161.290322580645,4,2,1,5,0,0
46292,-161.290322580645,4,2,1,50,0,0
46784,-121.951219512195,4,2,1,50,0,0
47849,-121.951219512195,4,2,1,5,0,0
47931,-121.951219512195,4,2,1,50,0,0
48341,-121.951219512195,4,2,1,5,0,0
48423,-121.951219512195,4,2,1,50,0,0
49653,-121.951219512195,4,2,1,5,0,0
49735,-121.951219512195,4,2,1,50,0,0
50063,-108.695652173913,4,2,1,60,0,0
52686,-108.695652173913,4,2,1,40,0,0
54653,-108.695652173913,4,2,1,80,0,0
55145,-89.2857142857143,4,2,1,80,0,0
65636,-89.2857142857143,4,2,1,80,0,0
76292,-98.0392156862745,4,2,1,70,0,0

[Colours]
Combo1 : 255,209,187
Combo2 : 213,191,255
Combo3 : 255,170,213

[HitObjects]
46,92,227,6,0,B|111:67|111:67|179:91,1,131.040003199219,2|2,0:0|0:0,0:0:0:0:
288,136,882,1,2,0:0:0:0:
314,118,1210,1,2,0:0:0:0:
397,148,1374,2,0,L|375:233,1,65.5200015996094,2|2,0:0|0:0,0:0:0:0:
453,371,1866,1,2,0:0:0:0:
293,336,2194,1,2,0:0:0:0:
155,360,2522,1,2,0:0:0:0:
155,360,2849,6,0,B|163:269|163:269|156:256|156:256|165:169,1,185.640001133057,6|2,1:2|1:2,0:0:0:0:
173,69,3341,1,2,0:0:0:0:
21,204,3505,2,0,L|32:86,1,92.8200005665283,2|2,1:2|0:0,0:0:0:0:
37,16,3833,1,2,1:2:0:0:
194,85,3997,6,0,B|294:62|263:135|373:113,1,185.640001133057,6|2,0:0|0:0,0:0:0:0:
484,89,4489,1,0,1:0:0:0:
343,19,4653,1,2,0:0:0:0:
315,202,4817,1,2,1:2:0:0:
368,29,4981,1,2,0:0:0:0:
368,29,5063,1,10,0:0:0:0:
368,29,5145,1,2,1:2:0:0:
465,177,5308,1,8,3:0:0:0:
194,85,5472,6,0,L|180:308,1,185.640001133057,6|2,1:2|1:2,0:0:0:0:
174,365,5964,1,2,0:0:0:0:
4,319,6128,2,0,P|53:305|98:315,1,92.8200005665283,2|2,1:2|0:0,0:0:0:0:
174,365,6456,1,2,1:2:0:0:
315,202,6620,6,0,P|401:192|468:294,1,185.640001133057,14|2,0:0|0:0,0:0:0:0:
431,374,7112,1,2,1:2:0:0:
306,222,7276,1,2,3:2:0:0:
174,365,7440,1,10,0:2:0:0:
151,324,7521,1,8,0:2:0:0:
142,279,7603,1,0,1:2:0:0:
148,233,7685,1,0,1:2:0:0:
167,191,7767,2,0,L|240:179,1,46.4100002832642,8|8,0:2|3:0,0:0:0:0:
385,107,7931,2,0,L|312:94,1,46.4100002832642,8|4,3:0|3:0,0:0:0:0:
129,43,8095,6,0,B|226:15|206:98|311:72,1,185.640001133057,6|2,1:2|1:2,0:0:0:0:
432,11,8587,1,2,0:0:0:0:
496,182,8751,2,0,L|375:196,1,92.8200005665283,2|0,1:2|0:0,0:0:0:0:
304,73,9079,1,2,1:2:0:0:
167,191,9243,6,0,P|144:286|212:341,1,185.640001133057,6|2,0:0|0:0,0:0:0:0:
367,295,9735,1,2,1:2:0:0:
232,251,9899,1,2,0:0:0:0:
359,329,10063,1,2,1:2:0:0:
318,208,10226,1,2,0:0:0:0:
318,208,10308,1,8,0:0:0:0:
318,208,10390,1,2,1:2:0:0:
202,338,10554,1,2,1:2:0:0:
41,211,10718,5,14,0:2:0:0:
191,354,10883,2,0,L|283:361,1,92.8200005665283,8|2,0:0|1:2,0:0:0:0:
318,208,11210,1,14,0:0:0:0:
111,306,11374,2,0,L|18:312,1,92.8200005665283,8|2,0:0|0:0,0:0:0:0:
118,106,11702,1,14,0:2:0:0:
318,208,11866,6,0,P|341:119|317:30,1,185.640001133057,10|10,0:0|0:0,0:0:0:0:
191,159,12358,1,10,0:2:0:0:
62,38,12521,1,0,3:0:0:0:
62,38,12603,1,0,3:0:0:0:
62,38,12686,1,8,0:0:0:0:
188,60,12849,1,0,1:2:0:0:
22,160,13013,1,8,0:2:0:0:
79,65,13177,1,4,3:0:0:0:
60,253,13341,5,0,1:0:0:0:
60,253,13669,2,0,L|155:257,1,74.6200011386109,2|0,0:0|0:0,0:0:0:0:
215,314,13997,2,0,L|310:310,1,74.6200011386109,10|0,0:0|0:0,0:0:0:0:
371,258,14325,1,2,0:0:0:0:
459,315,14489,6,0,B|461:252|461:252|455:242|455:242|458:180,1,111.930001707916,2|0,1:2|0:0,0:0:0:0:
485,182,14817,2,0,L|485:85,1,74.6200011386109,2|0,0:0|1:2,0:0:0:0:
487,19,15145,2,0,B|428:-8|406:75|349:62,2,149.240002277222,2|2|2,0:0|0:0|0:0,0:0:0:0:
388,160,15964,6,0,B|281:149|281:149|171:221,1,223.860003415833,2|0,1:2|0:0,0:0:0:0:
217,332,16620,2,0,P|269:337|312:313,1,74.6200011386109,8|0,0:0|0:0,0:0:0:0:
168,206,16948,1,2,0:0:0:0:
75,323,17112,6,0,P|50:226|7:169,1,149.240002277222,2|0,1:2|0:0,0:0:0:0:
18,92,17604,2,0,P|73:74|111:91,1,74.6200011386109,2|2,1:2|0:0,0:0:0:0:
166,123,17931,1,10,0:0:0:0:
273,38,18095,2,0,B|264:105|264:105|271:116|271:116|258:203,1,149.240002277222,2|8,0:0|0:2,0:0:0:0:
315,269,18587,6,0,B|389:251|391:325|486:297,1,149.240002277222,2|0,1:2|0:0,0:0:0:0:
456,302,19243,2,0,L|462:209,1,74.6200011386109,10|0,0:0|0:0,0:0:0:0:
502,144,19571,1,2,0:0:0:0:
474,58,19735,6,0,P|394:35|328:85,1,149.240002277222,2|0,1:2|0:0,0:0:0:0:
311,156,20226,2,0,L|226:131,1,74.6200011386109,2|0,1:2|0:0,0:0:0:0:
190,57,20554,2,0,L|125:118,1,74.6200011386109,10|0,0:0|0:0,0:0:0:0:
43,112,20882,2,0,L|63:198,1,74.6200011386109,2|2,1:2|0:0,0:0:0:0:
15,282,21210,6,0,B|141:252|119:348|249:308,1,223.860003415833,2|2,1:2|0:0,0:0:0:0:
296,243,21866,1,10,0:0:0:0:
453,327,22194,1,2,0:0:0:0:
453,327,22358,6,0,L|456:155,1,149.240002277222,0|0,1:2|0:0,0:0:0:0:
438,74,22849,2,0,L|511:85,1,74.6200011386109,0|0,1:2|0:0,0:0:0:0:
438,163,23177,1,2,1:2:0:0:
331,145,23341,1,2,1:2:0:0:
331,145,23669,5,2,0:2:0:0:
331,145,23751,1,2,0:2:0:0:
331,145,23833,2,0,L|229:134,1,83.7199971895753,4|0,1:2|0:0,0:0:0:0:
160,104,24161,2,0,P|180:40|207:16,1,83.7199971895753,2|0,0:0|0:0,0:0:0:0:
236,152,24489,2,0,L|228:261,1,83.7199971895753,10|0,0:0|0:0,0:0:0:0:
189,318,24817,1,2,0:0:0:0:
275,349,24981,6,0,L|377:323,1,83.7199971895753,2|2,1:2|0:0,0:0:0:0:
448,332,25308,2,0,P|478:293|456:241,1,83.7199971895753,2|0,1:2|1:2,0:0:0:0:
412,191,25636,2,0,L|397:96,1,83.7199971895753,10|0,0:0|0:0,0:0:0:0:
505,25,25964,2,0,L|490:135,1,83.7199971895753,2|0,1:2|1:2,0:0:0:0:
376,95,26292,5,2,0:0:0:0:
376,95,26374,1,2,0:0:0:0:
376,95,26456,2,0,L|200:116,1,167.439994379151,2|0,1:2|0:0,0:0:0:0:
209,114,27112,2,0,P|226:155|219:206,1,83.7199971895753,8|2,0:0|0:0,0:0:0:0:
133,172,27440,1,2,0:0:0:0:
275,284,27604,6,0,B|200:274|200:274|185:284|185:284|95:272,1,167.439994379151,2|0,1:2|1:2,0:0:0:0:
47,208,28095,2,0,P|17:257|33:310,1,83.7199971895753,2|8,1:2|0:0,0:0:0:0:
125,258,28423,1,2,0:0:0:0:
23,370,28587,2,0,L|128:350,1,83.7199971895753,2|8,1:2|0:2,0:0:0:0:
204,365,28915,5,0,0:2:0:0:
204,365,28997,1,0,0:0:0:0:
204,365,29079,2,0,B|291:380|291:380|371:332,1,167.439994379151,6|0,1:2|0:0,0:0:0:0:
358,339,29735,2,0,L|341:239,1,83.7199971895753,10|0,0:0|0:0,0:0:0:0:
389,164,30063,1,2,0:0:0:0:
252,228,30226,6,0,L|279:48,1,167.439994379151,2|0,1:2|1:2,0:0:0:0:
370,7,30718,2,0,P|421:7|468:47,1,83.7199971895753,2|8,0:2|0:0,0:0:0:0:
381,132,31046,2,0,P|343:150|302:147,1,83.7199971895753,2|0,0:0|1:2,0:0:0:0:
185,85,31374,1,2,0:2:0:0:
185,85,31538,1,0,0:0:0:0:
77,147,31702,6,0,B|91:237|91:237|83:250|83:250|98:347,1,167.439994379151,2|0,1:2|0:0,0:0:0:0:
19,378,32194,1,2,1:2:0:0:
19,378,32276,1,2,1:2:0:0:
19,378,32358,2,0,P|103:348|185:389,1,167.439994379151,10|0,0:0|0:0,0:0:0:0:
258,311,32849,6,0,L|422:261,1,167.439994379151,0|8,1:2|0:0,0:0:0:0:
418,262,33505,1,0,1:2:0:0:
446,174,33669,2,0,L|350:151,1,83.7199971895753,10|0,0:0|1:2,0:0:0:0:
210,231,33997,2,0,L|307:201,1,83.7199971895753,10|0,0:2|0:2,0:0:0:0:
506,285,34325,6,0,P|454:351|341:315,1,185.640001133057,6|0,1:2|1:2,0:0:0:0:
310,223,34817,1,2,0:0:0:0:
141,296,34981,2,0,P|118:242|141:174,1,92.8200005665283,2|0,1:2|0:0,0:0:0:0:
207,122,35308,1,2,1:2:0:0:
18,45,35472,6,0,B|115:17|95:136|223:78,1,185.640001133057,2|2,0:0|0:0,0:0:0:0:
285,7,35964,2,0,P|330:80|326:98,1,92.8200005665283,2|0,1:2|0:0,0:0:0:0:
289,206,36292,1,0,1:2:0:0:
356,98,36456,1,2,0:0:0:0:
356,98,36538,1,8,0:0:0:0:
356,98,36620,1,2,1:2:0:0:
473,194,36784,1,2,0:0:0:0:
329,80,36948,6,0,L|348:296,1,185.640001133057,6|2,1:2|1:2,0:0:0:0:
384,374,37440,2,0,L|254:356,1,92.8200005665283,2|0,0:0|1:2,0:0:0:0:
226,285,37767,2,0,L|134:297,1,92.8200005665283,2|0,0:0|1:2,0:0:0:0:
37,363,38095,6,0,P|95:311|80:213,1,185.640001133057,2|2,0:0|0:0,0:0:0:0:
13,143,38587,1,2,1:2:0:0:
178,164,38751,1,0,0:0:0:0:
178,164,38833,1,8,0:0:0:0:
178,164,38915,1,0,1:2:0:0:
8,277,39079,1,8,3:0:0:0:
45,125,39243,1,4,3:0:0:0:
226,285,39407,1,4,3:0:0:0:
226,285,39571,6,0,B|334:252|313:358|432:313,1,196.560004798828,2|0,1:2|0:0,0:0:0:0:
479,252,40226,1,0,0:0:0:0:
471,232,40554,1,2,0:0:0:0:
463,212,40882,6,0,B|488:81|488:81|427:114,1,196.560004798828,2|0,1:2|0:0,0:0:0:0:
312,184,41538,1,0,0:0:0:0:
290,171,41866,1,2,0:0:0:0:
268,158,42194,6,0,B|185:119|151:246|52:193,1,229.320005598633,2|0,1:2|0:0,0:0:0:0:
34,140,42849,2,0,L|57:389,1,229.320005598633,2|0,0:0|0:0,0:0:0:0:
27,379,43505,5,2,1:2:0:0:
167,221,44161,1,2,0:0:0:0:
6,47,44817,6,0,B|99:26|99:26|210:82,1,186.550002846527,2|0,1:2|0:0,0:0:0:0:
199,106,45308,6,0,B|118:83|118:83|40:152,1,163.800003999024,2|0,1:2|0:0,0:0:0:0:
48,177,45800,6,0,B|115:170|115:170|179:232,1,141.049994404145,2|0,1:2|0:0,0:0:0:0:
186,249,46292,1,0,1:2:0:0:
307,220,46456,1,8,0:0:0:0:
391,272,46620,1,0,0:0:0:0:
469,217,46784,2,0,L|455:128,1,74.6200011386109,0|0,1:2|1:2,0:0:0:0:
404,301,47112,1,8,0:0:0:0:
404,301,47440,6,0,B|295:278|335:377|217:348,1,186.550002846527,2|0,1:2|0:0,0:0:0:0:
196,338,47931,2,0,P|286:310|281:228,1,186.550002846527,2|0,1:2|0:0,0:0:0:0:
250,211,48423,1,2,1:2:0:0:
250,211,48751,5,0,0:0:0:0:
113,176,48915,1,8,0:0:0:0:
57,264,49079,1,0,1:2:0:0:
137,190,49243,1,0,1:2:0:0:
41,120,49407,2,0,L|86:6,1,111.930001707916,8|0,3:0|0:0,0:0:0:0:
124,8,49735,2,0,P|173:0|217:16,1,74.6200011386109,10|0,0:0|1:2,0:0:0:0:
259,85,50063,6,0,B|362:125|390:-22|501:47,1,251.159991568726,6|0,0:0|1:2,0:0:0:0:
438,200,50718,2,0,L|441:110,1,83.7199971895753,10|0,0:0|0:0,0:0:0:0:
259,85,51046,2,0,L|262:175,1,83.7199971895753,2|0,0:0|0:0,0:0:0:0:
219,262,51374,6,0,B|109:215|109:215|-15:332,1,251.159991568726,2|0,0:0|1:2,0:0:0:0:
172,358,52030,2,0,L|284:349,1,83.7199971895753,10|0,0:0|0:0,0:0:0:0:
471,294,52358,2,0,L|359:285,1,83.7199971895753,2|0,0:0|0:0,0:0:0:0:
288,240,52686,5,2,3:2:0:0:
297,217,53013,1,0,3:0:0:0:
285,184,53341,1,0,3:0:0:0:
245,167,53669,1,0,3:0:0:0:
196,185,53997,1,0,3:0:0:0:
186,239,54325,1,0,3:0:0:0:
186,239,54653,5,8,0:3:0:0:
257,33,54817,1,4,0:3:0:0:
257,33,55145,6,0,B|165:27|165:27|141:43|141:43|25:40,1,203.840002488281,12|0,1:1|0:0,0:0:0:0:
103,213,55636,1,10,0:0:0:0:
260,63,55800,1,2,0:0:0:0:
370,246,55964,1,2,1:2:0:0:
228,79,56128,2,0,P|214:127|235:172,1,101.920001244141,2|8,1:2|0:0,0:0:0:0:
165,300,56456,5,2,3:2:0:0:
165,300,56538,1,0,3:2:0:0:
165,300,56620,2,0,L|293:282,1,101.920001244141,2|2,1:2|1:2,0:0:0:0:
426,136,56948,1,8,0:0:0:0:
507,303,57112,1,2,1:2:0:0:
327,147,57276,2,0,P|337:88|402:48,1,101.920001244141,2|2,0:0|1:2,0:0:0:0:
467,10,57604,1,8,0:0:0:0:
511,179,57767,5,2,3:2:0:0:
511,179,57849,1,0,3:2:0:0:
511,179,57931,2,0,L|390:162,1,101.920001244141,2|0,1:2|0:0,0:0:0:0:
249,76,58259,1,10,0:0:0:0:
55,291,58423,2,0,L|75:161,1,101.920001244141,2|0,1:2|0:0,0:0:0:0:
133,18,58751,2,0,L|153:148,1,101.920001244141,2|8,1:2|0:0,0:0:0:0:
92,206,59079,1,2,0:0:0:0:
242,285,59243,5,0,1:2:0:0:
148,118,59407,1,0,1:2:0:0:
55,291,59571,1,8,0:0:0:0:
181,133,59735,1,0,1:2:0:0:
336,275,59899,2,0,L|450:264,1,101.920001244141,2|2,0:0|1:2,0:0:0:0:
338,72,60226,1,10,0:0:0:0:
181,133,60390,1,2,0:0:0:0:
13,9,60554,6,0,P|10:118|6:227,1,203.840002488281,6|10,1:2|0:0,0:0:0:0:
24,347,61046,1,2,1:2:0:0:
133,215,61210,1,2,0:0:0:0:
212,370,61374,1,2,1:2:0:0:
162,237,61538,1,8,0:0:0:0:
24,347,61702,5,2,3:2:0:0:
24,347,61784,1,0,3:2:0:0:
24,347,61866,2,0,P|31:285|40:223,1,101.920001244141,2|2,1:2|1:2,0:0:0:0:
80,97,62194,1,8,0:0:0:0:
288,154,62358,2,0,L|147:136,1,101.920001244141,2|0,1:2|0:0,0:0:0:0:
4,20,62686,2,0,L|145:2,1,101.920001244141,2|8,1:2|0:0,0:0:0:0:
178,115,63013,1,2,0:0:0:0:
343,2,63177,6,0,B|357:85|357:85|369:90|369:90|388:225,1,203.840002488281,2|8,1:2|0:0,0:0:0:0:
440,319,63669,2,0,P|387:338|319:313,1,101.920001244141,0|0,1:2|0:0,0:0:0:0:
208,218,63997,1,0,1:2:0:0:
111,365,64161,1,10,0:0:0:0:
186,237,64325,1,2,1:2:0:0:
335,298,64489,5,8,0:0:0:0:
274,125,64653,1,2,1:2:0:0:
92,247,64817,5,10,0:0:0:0:
140,81,64981,1,2,1:2:0:0:
339,215,65145,5,10,0:0:0:0:
278,29,65308,1,2,1:2:0:0:
278,29,65636,6,0,P|352:-4|423:108,1,203.840002488281,12|0,1:1|0:0,0:0:0:0:
473,177,66128,2,0,L|468:300,1,101.920001244141,2|2,1:2|0:0,0:0:0:0:
390,355,66456,1,10,0:0:0:0:
308,285,66620,2,0,B|199:300|246:180|125:195,1,203.840002488281,2|2,1:2|0:0,0:0:0:0:
65,245,67030,1,0,3:2:0:0:
65,245,67112,6,0,P|47:191|75:130,1,101.920001244141,2|10,1:2|0:0,0:0:0:0:
135,7,67440,2,0,P|153:61|125:122,1,101.920001244141,0|2,1:2|0:0,0:0:0:0:
92,264,67767,1,10,0:0:0:0:
239,168,67931,2,0,L|460:207,1,203.840002488281,2|2,0:0|1:2,0:0:0:0:
487,280,68341,1,0,3:2:0:0:
487,280,68423,6,0,P|474:348|412:370,1,101.920001244141,6|0,0:0|0:0,0:0:0:0:
392,287,68751,1,2,1:2:0:0:
278,372,68915,2,0,L|295:225,1,101.920001244141,2|10,0:0|0:0,0:0:0:0:
355,143,69243,2,0,L|338:-4,1,101.920001244141,2|0,0:0|1:2,0:0:0:0:
234,8,69571,1,2,0:0:0:0:
146,144,69735,5,0,1:2:0:0:
197,20,69899,1,8,0:0:0:0:
241,181,70063,1,0,0:0:0:0:
197,20,70226,1,0,1:2:0:0:
33,119,70390,2,0,L|145:110,1,101.920001244141,10|10,0:0|0:0,0:0:0:0:
241,181,70718,1,2,1:2:0:0:
241,181,70882,1,0,0:0:0:0:
42,280,71046,6,0,B|183:305,1,101.920001244141,6|0,1:2|0:0,0:0:0:0:
325,234,71374,1,10,0:0:0:0:
491,376,71538,2,0,L|482:274,1,101.920001244141,2|0,0:0|1:2,0:0:0:0:
470,163,71866,1,2,1:2:0:0:
325,234,72030,1,8,0:0:0:0:
458,258,72194,1,2,0:0:0:0:
364,91,72358,6,0,L|256:83,1,101.920001244141,4|0,1:2|0:0,0:0:0:0:
177,169,72686,1,10,0:0:0:0:
14,67,72849,2,0,L|122:59,1,101.920001244141,2|0,0:0|1:2,0:0:0:0:
177,169,73177,1,2,1:2:0:0:
50,249,73341,1,8,0:0:0:0:
153,138,73505,1,2,0:0:0:0:
302,294,73669,6,0,L|434:312,1,101.920001244141,6|0,1:2|0:0,0:0:0:0:
508,133,73997,2,0,L|376:151,1,101.920001244141,10|2,0:0|0:0,0:0:0:0:
321,175,74325,1,2,1:2:0:0:
252,8,74489,2,0,L|235:130,1,101.920001244141,2|8,1:2|0:0,0:0:0:0:
214,209,74817,1,2,0:0:0:0:
40,43,74981,6,0,L|57:165,1,101.920001244141,4|2,1:2|0:0,0:0:0:0:
73,249,75308,1,0,1:2:0:0:
214,209,75472,2,0,B|319:170|302:300|433:250,1,203.840002488281,2|10,0:0|0:0,0:0:0:0:
474,197,75882,1,8,0:0:0:0:
474,197,75964,2,0,L|482:115,1,50.9600006220703,0|0,1:2|1:2,0:0:0:0:
380,17,76128,2,0,L|388:99,1,50.9600006220703,8|4,3:0|3:0,0:0:0:0:
268,113,76292,6,0,B|181:77|181:77|94:122,1,185.640001133057,6|8,1:2|0:0,0:0:0:0:
9,197,76784,1,2,0:0:0:0:
105,345,76948,2,0,L|92:230,1,92.8200005665283,2|2,1:2|1:2,0:0:0:0:
80,111,77276,1,10,0:0:0:0:
201,190,77440,6,0,B|351:213|351:213|310:155,1,185.640001133057,2|2,1:2|1:2,0:0:0:0:
280,28,77931,2,0,P|258:68|275:123,1,92.8200005665283,8|2,0:0|0:0,0:0:0:0:
432,169,78259,1,2,1:2:0:0:
353,77,78423,1,2,1:2:0:0:
201,190,78587,2,0,L|178:295,1,92.8200005665283,10|2,0:0|0:0,0:0:0:0:
20,318,78915,6,0,B|124:289|86:397|227:370,1,185.640001133057,2|8,1:2|0:0,0:0:0:0:
290,282,79407,1,2,0:0:0:0:
456,372,79571,2,0,L|338:360,1,92.8200005665283,2|2,1:2|1:2,0:0:0:0:
290,282,79899,1,10,0:0:0:0:
471,221,80063,6,0,L|455:23,1,185.640001133057,2|0,1:2|1:2,0:0:0:0:
296,165,80554,2,0,P|230:167|197:137,1,92.8200005665283,8|2,0:0|0:0,0:0:0:0:
336,5,80882,2,0,P|369:64|360:108,1,92.8200005665283,2|2,1:2|1:2,0:0:0:0:
308,190,81210,1,10,0:0:0:0:
267,72,81374,1,2,0:0:0:0:
59,163,81538,6,0,B|65:251|65:251|75:259|75:259|80:379,1,185.640001133057,6|10,1:2|0:0,0:0:0:0:
244,264,82030,1,10,0:0:0:0:
244,264,82112,1,8,0:0:0:0:
244,264,82194,2,0,L|366:282,1,92.8200005665283,0|0,1:2|0:0,0:0:0:0:
501,330,82522,1,10,0:0:0:0:
501,330,82686,6,0,B|401:304|423:397|303:374,1,185.640001133057,2|2,1:2|1:2,0:0:0:0:
171,313,83177,2,0,P|149:268|187:196,1,92.8200005665283,8|10,0:0|0:0,0:0:0:0:
278,100,83505,1,2,1:2:0:0:
344,277,83669,1,2,1:2:0:0:
253,126,83833,1,10,0:0:0:0:
171,313,83997,1,2,1:2:0:0:
374,183,84161,6,0,L|472:200,1,92.8200005665283,14|8,0:0|0:0,0:0:0:0:
313,374,84489,1,0,1:2:0:0:
153,227,84653,2,0,L|57:241,1,92.8200005665283,10|8,0:0|0:0,0:0:0:0:
171,313,84981,1,0,1:2:0:0:
392,93,85145,2,0,L|487:108,1,92.8200005665283,10|2,0:0|1:2,0:0:0:0:
245,254,85472,5,0,1:2:0:0:
338,12,85636,1,10,0:0:0:0:
439,249,85800,1,8,0:0:0:0:
306,31,85964,1,2,1:2:0:0:
