osu file format v14

[General]
AudioFilename: audio.mp3
AudioLeadIn: 0
PreviewTime: 54641
Countdown: 0
SampleSet: Soft
StackLeniency: 0.5
Mode: 0
LetterboxInBreaks: 0
WidescreenStoryboard: 0

[Editor]
Bookmarks: 54641
DistanceSpacing: 0.5
BeatDivisor: 4
GridSize: 4
TimelineZoom: 3.099999

[Metadata]
Title:Shiny Ray (TV Size)
TitleUnicode:Shiny Ray (TV Size)
Artist:YURiKA
ArtistUnicode:YURiKA
Creator:NoFC
Version:Magic
Source:リトルウィッチアカデミア
Tags:japanese lwa jp little witch academia opening anime hakashii mnyui pika pikaqours kowari -_ex_-
BeatmapID:2272647
BeatmapSetID:1086799

[Difficulty]
HPDrainRate:5.6
CircleSize:3.6
OverallDifficulty:8.6
ApproachRate:9.4
SliderMultiplier:1.7
SliderTickRate:1

[Events]
//Background and Video events
0,0,"bg.jpg",0,0
//Break Periods
//Storyboard Layer 0 (Background)
//Storyboard Layer 1 (Fail)
//Storyboard Layer 2 (Pass)
//Storyboard Layer 3 (Foreground)
//Storyboard Layer 4 (Overlay)
//Storyboard Sound Samples

[TimingPoints]
227,327.868852459016,4,2,1,25,1,0
227,-166.666666666667,4,2,1,25,0,0
2849,-71.4285714285714,4,2,1,70,0,0
13341,-142.857142857143,4,2,2,40,0,0
13587,-142.857142857143,4,2,2,5,0,0
13669,-142.857142857143,4,2,2,40,0,0
15063,-142.857142857143,4,2,2,5,0,0
15145,-142.857142857143,4,2,2,40,0,0
23833,-111.111111111111,4,2,1,50,0,0
24079,-111.111111111111,4,2,1,5,0,0
24161,-111.111111111111,4,2,1,50,0,0
28997,-111.111111111111,4,2,1,5,0,0
29079,-105.263157894737,4,2,1,60,0,0
34325,-86.9565217391306,4,2,1,60,0,0
35226,-86.9565217391306,4,2,1,5,0,0
35308,-86.9565217391306,4,2,1,60,0,0
39571,-250,4,2,1,40,0,0
42767,-250,4,2,1,5,0,0
42849,-200,4,2,1,40,0,0
43423,-200,4,2,1,5,0,0
43505,-166.666666666667,4,2,1,40,0,0
44079,-166.666666666667,4,2,1,5,0,0
44161,-166.666666666667,4,2,1,40,0,0
44735,-166.666666666667,4,2,1,5,0,0
44817,-111.111111111111,4,2,1,50,0,0
50063,-200,4,2,1,60,0,0
52686,-200,4,2,1,40,0,0
53013,-200,4,2,1,40,0,0
54653,-200,4,2,1,80,0,0
55145,-71.4285714285714,4,2,1,80,0,0
57030,-71.4285714285714,4,2,1,5,0,0
57112,-71.4285714285714,4,2,1,80,0,0
65636,-100,4,2,1,80,0,0
71046,-83.3333333333333,4,2,1,80,0,0
71292,-83.3333333333333,4,2,1,5,0,0
71374,-83.3333333333333,4,2,1,80,0,0
73095,-83.3333333333333,4,2,1,5,0,0
73177,-83.3333333333333,4,2,1,80,0,0
76292,-71.4285714285714,4,2,1,70,0,0
82931,-71.4285714285714,4,2,1,5,0,0
83013,-71.4285714285714,4,2,1,70,0,0
86046,-71.4285714285714,4,2,1,30,0,0
87440,-71.4285714285714,4,2,1,10,0,0

[Colours]
Combo1 : 255,209,187
Combo2 : 213,191,255
Combo3 : 255,170,213

[HitObjects]
47,116,227,6,0,P|86:92|156:100,1,101.999996887207,2|2,0:0|0:0,0:0:0:0:
206,142,882,2,0,P|245:166|315:158,1,101.999996887207,2|2,0:0|0:0,0:0:0:0:
426,77,1374,2,0,P|418:36|387:91,1,152.999995330811,2|2,0:0|0:0,0:0:0:0:
464,250,2194,2,0,P|473:196|490:132,1,101.999996887207,2|2,0:0|0:0,0:0:0:0:
512,384,2849,6,0,P|471:305|321:343,1,237.999992736817,6|2,1:2|1:2,0:0:0:0:
291,380,3341,1,2,0:0:0:0:
245,124,3505,1,2,1:2:0:0:
409,376,3669,1,2,0:0:0:0:
421,113,3833,1,2,1:2:0:0:
215,300,3997,6,0,B|96:332|133:210|-1:242,1,237.999992736817,6|2,0:0|0:0,0:0:0:0:
135,109,4489,1,0,1:0:0:0:
40,321,4653,1,2,0:0:0:0:
240,98,4817,1,2,1:2:0:0:
306,330,4981,1,2,0:0:0:0:
306,330,5063,1,10,0:0:0:0:
306,330,5145,1,2,1:2:0:0:
179,217,5308,1,8,3:0:0:0:
405,40,5472,6,0,P|381:94|369:152,1,118.999996368408,6|0,1:2|0:0,0:0:0:0:
297,19,5800,1,2,1:2:0:0:
372,237,5964,1,2,0:0:0:0:
227,68,6128,1,2,1:2:0:0:
216,279,6292,1,2,0:0:0:0:
349,158,6456,1,2,1:2:0:0:
505,374,6620,6,0,B|386:406|423:284|289:316,1,237.999992736817,14|2,0:0|0:0,0:0:0:0:
100,358,7112,1,2,1:2:0:0:
275,289,7276,1,2,3:2:0:0:
275,289,7358,1,0,3:2:0:0:
275,289,7440,2,0,L|197:277,1,59.4999981842042,10|8,0:2|0:2,0:0:0:0:
45,212,7604,2,0,L|113:205,1,59.4999981842042,0|0,1:2|1:2,0:0:0:0:
225,103,7767,1,8,0:2:0:0:
273,113,7849,1,8,3:0:0:0:
321,123,7931,1,8,3:0:0:0:
366,134,8013,1,4,3:0:0:0:
417,143,8095,6,0,P|435:205|445:279,1,118.999996368408,6|0,1:2|0:0,0:0:0:0:
350,384,8423,1,2,1:2:0:0:
463,284,8587,1,2,0:0:0:0:
320,204,8751,1,2,1:2:0:0:
453,376,8915,1,0,0:0:0:0:
501,125,9079,1,2,1:2:0:0:
265,377,9243,6,0,P|198:346|165:184,1,237.999992736817,6|2,0:0|0:0,0:0:0:0:
213,37,9735,1,2,1:2:0:0:
258,256,9899,1,2,0:0:0:0:
113,77,10063,1,2,1:2:0:0:
80,325,10226,1,2,0:0:0:0:
80,325,10308,1,8,0:0:0:0:
80,325,10390,2,0,L|91:251,1,59.4999981842042,2|0,1:2|0:0,0:0:0:0:
306,72,10554,2,0,L|316:139,1,59.4999981842042,2|0,1:2|0:0,0:0:0:0:
347,384,10718,5,14,0:2:0:0:
416,22,10882,2,0,L|390:156,1,118.999996368408,8|2,0:0|1:2,0:0:0:0:
135,384,11210,5,14,0:0:0:0:
63,27,11374,2,0,L|89:161,1,118.999996368408,8|2,0:0|0:0,0:0:0:0:
355,349,11702,5,14,0:2:0:0:
28,323,11866,2,0,P|-7:275|8:206,1,118.999996368408,10|2,0:0|1:2,0:0:0:0:
236,22,12194,1,10,0:0:0:0:
200,265,12358,1,10,0:2:0:0:
143,45,12522,1,0,3:0:0:0:
143,45,12604,1,0,3:0:0:0:
143,45,12686,5,8,0:0:0:0:
258,178,12849,1,0,1:2:0:0:
326,54,13013,1,8,0:2:0:0:
385,127,13177,1,4,3:0:0:0:
385,127,13341,6,0,P|428:110|473:137,1,89.2499972763062,0|0,1:0|0:0,0:0:0:0:
484,147,13669,2,0,P|474:182|469:219,1,59.4999981842042,2|0,0:0|0:0,0:0:0:0:
512,340,13997,2,0,P|487:317|457:310,1,59.4999981842042,10|0,0:0|0:0,0:0:0:0:
320,384,14325,1,2,0:0:0:0:
320,384,14489,2,0,P|363:376|390:353,1,59.4999981842042,2|0,1:2|0:0,0:0:0:0:
254,288,14817,2,0,P|216:274|154:309,1,89.2499972763062,2|0,0:0|0:0,0:0:0:0:
142,316,15145,2,0,P|113:326|39:282,2,118.999996368408,2|2|2,0:0|0:0|0:0,0:0:0:0:
161,187,15964,6,0,P|158:141|152:118,1,59.4999981842042,2|0,1:2|0:0,0:0:0:0:
11,51,16292,2,0,P|4:80|0:110,1,59.4999981842042
156,1,16620,2,0,P|208:-7|272:44,1,118.999996368408,8|2,0:0|0:0,0:0:0:0:
312,130,17112,2,0,P|364:138|428:87,1,118.999996368408,2|0,1:2|0:0,0:0:0:0:
461,22,17604,1,2,1:2:0:0:
506,106,17767,1,2,0:0:0:0:
447,194,17931,1,10,0:0:0:0:
447,194,18095,2,0,P|434:234|430:266,1,59.4999981842042,2|8,0:0|0:2,0:0:0:0:
485,364,18423,1,8,0:2:0:0:
485,364,18505,1,8,0:0:0:0:
485,364,18587,6,0,B|379:319|414:395|301:369,1,178.499994552612,2|0,1:2|0:0,0:0:0:0:
242,229,19243,2,0,P|192:223|138:274,1,118.999996368408,10|2,0:0|0:0,0:0:0:0:
18,384,19735,2,0,P|32:352|51:263,1,118.999996368408,2|0,1:2|0:0,0:0:0:0:
0,130,20226,2,0,P|3:159|8:188,1,59.4999981842042,2|0,1:2|0:0,0:0:0:0:
141,126,20554,2,0,P|150:98|157:70,1,59.4999981842042,10|0,0:0|0:0,0:0:0:0:
25,0,20882,1,2,1:2:0:0:
139,57,21046,1,2,0:0:0:0:
263,0,21210,6,0,P|303:-7|375:39,1,118.999996368408,2|0,1:2|0:0,0:0:0:0:
386,137,21702,1,2,0:0:0:0:
386,137,21866,2,0,P|415:128|455:123,1,59.4999981842042,10|0,0:0|0:0,0:0:0:0:
256,85,22194,1,2,0:0:0:0:
256,85,22358,2,0,L|246:207,1,118.999996368408,0|0,1:2|0:0,0:0:0:0:
146,342,22849,1,0,1:2:0:0:
267,236,23013,1,0,0:0:0:0:
156,226,23177,1,2,1:2:0:0:
269,351,23341,1,2,1:2:0:0:
279,362,23669,1,2,0:2:0:0:
279,362,23751,1,2,0:2:0:0:
279,362,23833,6,0,P|324:372|377:323,1,114.749996498108,4|0,1:2|0:0,0:0:0:0:
378,313,24161,2,0,L|367:210,1,76.4999976654053,2|0,0:0|0:0,0:0:0:0:
489,173,24489,2,0,L|499:73,1,76.4999976654053,10|0,0:0|0:0,0:0:0:0:
407,3,24817,1,2,0:0:0:0:
407,3,24981,6,0,P|359:1|321:35,1,76.4999976654053,2|2,1:2|0:0,0:0:0:0:
260,122,25308,2,0,P|212:124|174:90,1,76.4999976654053,2|0,1:2|1:2,0:0:0:0:
58,0,25636,2,0,L|69:92,1,76.4999976654053,10|0,0:0|0:0,0:0:0:0:
9,169,25964,2,0,L|-1:245,1,76.4999976654053,2|0,1:2|1:2,0:0:0:0:
83,366,26292,1,2,0:0:0:0:
83,366,26374,1,2,0:0:0:0:
83,366,26456,6,0,B|171:391|143:312|241:338,1,152.999995330811,2|0,1:2|0:0,0:0:0:0:
273,222,26948,1,0,0:0:0:0:
227,319,27112,1,8,0:0:0:0:
176,180,27276,1,2,0:0:0:0:
176,180,27440,1,2,0:0:0:0:
332,343,27604,6,0,P|342:292|358:241,1,76.4999976654053,2|2,1:2|0:0,0:0:0:0:
423,160,27931,1,0,1:2:0:0:
423,160,28095,2,0,P|413:109|397:58,1,76.4999976654053,2|8,1:2|0:0,0:0:0:0:
472,13,28423,1,2,0:0:0:0:
389,74,28587,1,2,1:2:0:0:
295,10,28751,2,0,P|252:2|186:40,1,114.749996498108,8|0,0:2|0:0,0:0:0:0:
172,59,29079,6,0,P|126:73|67:79,1,80.7499978437424,6|0,1:2|0:0,0:0:0:0:
0,158,29407,2,0,P|39:164|78:176,1,80.7499978437424
181,268,29735,2,0,B|277:252|220:192|305:181,1,161.499995687485,10|2,0:0|0:0,0:0:0:0:
394,243,30226,2,0,P|401:197|412:162,1,80.7499978437424,2|2,1:2|0:0,0:0:0:0:
437,86,30554,1,0,1:2:0:0:
320,188,30718,1,2,0:2:0:0:
313,19,30882,1,8,0:0:0:0:
451,170,31046,1,2,0:0:0:0:
351,104,31210,1,0,1:2:0:0:
451,60,31374,1,2,0:2:0:0:
451,60,31538,1,0,0:0:0:0:
242,80,31702,6,0,B|149:54|181:143|82:115,1,161.499995687485,2|0,1:2|0:0,0:0:0:0:
24,56,32194,1,2,1:2:0:0:
82,155,32358,2,0,P|93:198|95:239,1,80.7499978437424,10|0,0:0|0:0,0:0:0:0:
67,341,32686,1,0,0:0:0:0:
118,244,32849,6,0,L|208:235,1,80.7499978437424,0|2,1:2|0:0,0:0:0:0:
375,278,33177,1,8,0:0:0:0:
240,212,33341,1,0,0:0:0:0:
283,351,33505,1,0,1:2:0:0:
398,123,33669,5,10,0:0:0:0:
272,329,33833,1,0,1:2:0:0:
254,23,33997,1,10,0:2:0:0:
254,23,34325,6,0,P|208:35|145:61,1,97.7500018644333,6|0,1:2|0:0,0:0:0:0:
27,128,34653,2,0,P|72:140|135:166,1,97.7500018644333,0|2,1:2|0:0,0:0:0:0:
185,260,34981,2,0,P|240:276|306:207,1,146.62500279665,2|0,1:2|0:0,0:0:0:0:
306,191,35308,1,2,1:2:0:0:
486,270,35472,2,0,P|440:282|377:308,1,97.7500018644333,2|0,0:0|1:2,0:0:0:0:
322,347,35800,1,2,0:0:0:0:
445,190,35964,2,0,B|473:75|394:103|438:-8,1,195.500003728867,2|0,1:2|1:2,0:0:0:0:
512,50,36456,1,2,0:0:0:0:
512,50,36538,1,8,0:0:0:0:
512,50,36620,1,2,1:2:0:0:
369,138,36784,1,2,0:0:0:0:
219,1,36948,6,0,P|235:53|245:107,1,97.7500018644333,6|0,1:2|0:0,0:0:0:0:
261,197,37276,1,2,1:2:0:0:
77,26,37440,2,0,P|61:78|51:132,1,97.7500018644333,2|0,0:0|1:2,0:0:0:0:
164,282,37767,2,0,P|154:234|139:187,1,97.7500018644333,2|0,0:0|1:2,0:0:0:0:
25,352,38095,6,0,B|121:303|110:400|231:346,1,195.500003728867,2|2,0:0|0:0,0:0:0:0:
399,220,38587,1,2,1:2:0:0:
313,363,38751,1,0,0:0:0:0:
313,363,38833,1,8,0:0:0:0:
313,363,38915,1,0,1:2:0:0:
276,159,39079,1,8,3:0:0:0:
320,242,39243,1,4,3:0:0:0:
254,149,39407,1,4,3:0:0:0:
337,45,39571,6,0,P|375:22|335:70,1,204,2|2,1:2|0:0,0:0:0:0:
263,11,40882,2,0,B|176:27|239:86|124:107,1,170,2|0,1:2|0:0,0:0:0:0:
85,65,41866,2,0,P|103:87|110:101,1,34,2|0,0:0|0:0,0:0:0:0:
29,188,42194,6,0,P|74:167|138:204,1,119,2|0,1:2|0:0,0:0:0:0:
147,220,42849,2,0,P|104:200|26:254,1,148.75,2|0,0:0|0:0,0:0:0:0:
19,273,43505,2,0,P|61:253|152:326,1,178.499994552612,2|0,1:2|0:0,0:0:0:0:
140,340,44161,2,0,B|238:311|210:397|323:364,1,178.499994552612,2|0,0:0|0:0,0:0:0:0:
393,354,44817,6,0,P|365:308|262:296,1,152.999995330811,2|0,1:2|0:0,0:0:0:0:
512,140,45308,2,0,P|484:186|381:198,1,152.999995330811,2|0,1:2|0:0,0:0:0:0:
270,76,45800,1,2,1:2:0:0:
270,76,46292,5,0,1:2:0:0:
426,127,46456,1,8,0:0:0:0:
426,127,46620,1,0,0:0:0:0:
83,272,46784,5,0,1:2:0:0:
189,164,46948,1,0,1:2:0:0:
191,364,47112,1,8,0:0:0:0:
191,364,47440,6,0,P|260:347|347:338,1,152.999995330811,2|0,1:2|0:0,0:0:0:0:
22,147,47931,2,0,P|91:164|178:173,1,152.999995330811,2|0,1:2|0:0,0:0:0:0:
349,103,48423,1,2,1:2:0:0:
277,244,48751,5,0,0:0:0:0:
239,79,48915,1,8,0:0:0:0:
239,79,49079,1,0,1:2:0:0:
369,203,49243,1,0,1:2:0:0:
400,16,49407,1,8,3:0:0:0:
191,191,49571,1,4,3:0:0:0:
404,353,49735,1,10,0:0:0:0:
294,148,49899,1,0,1:2:0:0:
196,375,50063,6,0,P|188:324|176:280,1,85,6|2,0:0|0:0,0:0:0:0:
165,212,50554,1,0,1:2:0:0:
318,308,50718,1,10,0:0:0:0:
297,300,51046,5,2,0:0:0:0:
431,125,51374,5,2,0:0:0:0:
386,220,51538,1,8,0:0:0:0:
303,62,51702,1,2,0:0:0:0:
251,230,51866,1,0,1:2:0:0:
136,6,52030,5,10,0:0:0:0:
91,140,52358,5,2,0:0:0:0:
49,275,52686,5,2,0:0:0:0:
74,309,53013,5,0,3:0:0:0:
92,319,53341,5,0,3:0:0:0:
109,321,53669,5,0,3:0:0:0:
121,313,53997,5,0,3:0:0:0:
124,306,54325,5,0,3:0:0:0:
0,33,54653,5,8,0:3:0:0:
49,275,54817,1,4,0:3:0:0:
36,263,55145,6,0,B|161:214|129:331|278:287,1,237.999992736817,12|0,1:1|0:0,0:0:0:0:
344,121,55636,1,10,0:0:0:0:
268,264,55800,1,2,0:0:0:0:
198,63,55964,1,2,1:2:0:0:
391,254,56128,2,0,P|410:190|438:134,1,118.999996368408,2|8,1:2|0:0,0:0:0:0:
179,51,56456,6,0,P|204:104|220:161,1,118.999996368408,2|2,0:0|1:2,0:0:0:0:
28,318,56784,2,0,P|53:260|131:250,1,118.999996368408,2|8,1:2|0:0,0:0:0:0:
313,368,57112,1,2,1:2:0:0:
261,151,57276,1,2,0:0:0:0:
110,322,57440,2,0,L|238:311,1,118.999996368408,2|8,1:2|0:0,0:0:0:0:
465,55,57767,6,0,B|327:58|393:159|261:151,1,237.999992736817,2|0,0:0|0:0,0:0:0:0:
94,82,58259,1,10,0:0:0:0:
219,252,58423,2,0,P|228:205|264:121,1,118.999996368408,2|0,1:2|0:0,0:0:0:0:
104,354,58751,2,0,P|95:307|56:224,1,118.999996368408,2|8,1:2|0:0,0:0:0:0:
10,156,59079,1,2,0:0:0:0:
239,276,59243,5,0,1:2:0:0:
11,322,59407,1,0,1:2:0:0:
219,252,59571,1,8,0:0:0:0:
9,136,59735,1,0,1:2:0:0:
211,374,59899,5,2,0:0:0:0:
307,71,60063,1,2,1:2:0:0:
247,352,60226,1,10,0:0:0:0:
100,41,60390,6,0,B|64:170|168:110|133:293,1,237.999992736817,2|0,0:0|0:0,0:0:0:0:
193,71,60882,1,10,0:0:0:0:
125,289,61046,1,2,1:2:0:0:
259,139,61210,1,2,0:0:0:0:
326,351,61374,2,0,P|383:362|436:336,1,118.999996368408,2|8,1:2|0:0,0:0:0:0:
472,50,61702,6,0,P|447:104|435:162,1,118.999996368408,2|2,0:0|1:2,0:0:0:0:
283,267,62030,2,0,P|270:208|246:154,1,118.999996368408,2|8,1:2|0:0,0:0:0:0:
154,50,62358,1,2,1:2:0:0:
385,177,62522,1,0,0:0:0:0:
164,78,62686,1,2,1:2:0:0:
368,14,62849,1,8,0:0:0:0:
188,228,63013,1,2,3:2:0:0:
188,228,63095,1,0,3:2:0:0:
188,228,63177,6,0,P|131:239|78:213,1,118.999996368408,2|0,1:2|0:0,0:0:0:0:
9,52,63505,1,8,0:0:0:0:
83,377,63669,2,0,P|95:318|119:264,1,118.999996368408,0|0,1:2|0:0,0:0:0:0:
302,113,63997,1,0,1:2:0:0:
58,197,64161,1,10,0:0:0:0:
254,310,64325,1,2,1:2:0:0:
170,8,64489,5,8,0:0:0:0:
337,326,64653,1,2,1:2:0:0:
410,14,64817,5,10,0:0:0:0:
224,329,64981,1,2,1:2:0:0:
140,5,65145,5,10,0:0:0:0:
491,205,65308,1,2,1:2:0:0:
486,182,65636,6,0,P|433:152|346:216,1,170,12|0,1:1|0:0,0:0:0:0:
324,384,66128,1,2,1:2:0:0:
425,231,66292,1,2,0:0:0:0:
476,382,66456,1,10,0:0:0:0:
273,247,66620,2,0,L|181:261,1,85,2|0,1:2|0:0,0:0:0:0:
96,373,66948,5,2,0:0:0:0:
173,241,67112,1,2,1:2:0:0:
197,360,67276,1,10,0:0:0:0:
80,260,67440,2,0,L|65:164,1,85,0|2,1:2|0:0,0:0:0:0:
2,74,67767,1,10,0:0:0:0:
78,152,67931,2,0,P|120:149|169:132,1,85,2|0,0:0|1:2,0:0:0:0:
249,44,68259,1,2,1:2:0:0:
400,136,68423,6,0,B|311:115|343:191|218:164,1,170,6|2,0:0|1:2,0:0:0:0:
174,115,68915,1,2,0:0:0:0:
370,211,69079,2,0,L|380:302,1,85,10|2,0:0|0:0,0:0:0:0:
491,349,69407,1,0,1:2:0:0:
354,311,69571,1,2,3:2:0:0:
354,311,69653,1,0,3:2:0:0:
354,311,69735,5,0,1:2:0:0:
477,250,69899,1,8,0:0:0:0:
408,378,70063,1,0,0:0:0:0:
355,197,70226,1,0,1:2:0:0:
477,333,70390,5,10,0:0:0:0:
501,130,70554,1,10,0:0:0:0:
404,369,70718,1,2,1:2:0:0:
337,62,70882,1,2,1:2:0:0:
144,287,71046,6,0,P|199:235|294:255,1,152.999995330811,6|0,1:2|0:0,0:0:0:0:
295,260,71374,1,10,0:0:0:0:
153,29,71538,2,0,P|137:68|119:133,1,101.999996887207,2|0,0:0|1:2,0:0:0:0:
33,306,71866,2,0,P|19:256|0:209,1,101.999996887207,2|8,1:2|0:0,0:0:0:0:
170,364,72194,6,0,B|297:393|255:287|384:321,1,203.999993774414,2|0,0:0|0:0,0:0:0:0:
464,373,72686,1,10,0:0:0:0:
373,134,72849,2,0,P|307:91|222:98,1,152.999995330811,2|0,0:0|0:0,0:0:0:0:
221,110,73177,2,0,P|170:107|121:91,1,101.999996887207,2|8,1:2|0:0,0:0:0:0:
54,40,73505,1,2,0:0:0:0:
107,240,73669,6,0,P|155:225|206:221,1,101.999996887207,6|0,1:2|0:0,0:0:0:0:
443,294,73997,1,10,0:0:0:0:
234,201,74161,1,2,0:0:0:0:
488,106,74325,1,2,1:2:0:0:
354,316,74489,2,0,P|303:340|229:323,1,101.999996887207,2|8,1:2|0:0,0:0:0:0:
180,301,74817,1,2,0:0:0:0:
397,143,74981,5,4,1:2:0:0:
312,384,75145,2,0,P|300:325|283:275,1,101.999996887207,2|0,0:0|1:2,0:0:0:0:
512,84,75472,2,0,P|496:132|487:182,1,101.999996887207,2|0,0:0|1:2,0:0:0:0:
289,280,75800,1,10,0:0:0:0:
289,280,75882,1,8,0:0:0:0:
289,280,75964,2,0,L|281:213,1,50.9999984436036,0|0,1:2|1:2,0:0:0:0:
177,50,76128,2,0,L|170:100,1,50.9999984436036,8|4,3:0|3:0,0:0:0:0:
0,251,76292,6,0,P|45:186|191:217,1,237.999992736817,6|8,1:2|0:0,0:0:0:0:
248,355,76784,1,2,0:0:0:0:
266,129,76948,1,2,1:2:0:0:
115,308,77112,1,2,1:2:0:0:
61,48,77276,1,10,0:0:0:0:
288,285,77440,6,0,B|426:317|389:195|531:233,1,237.999992736817,2|2,1:2|1:2,0:0:0:0:
371,111,77931,1,8,0:0:0:0:
481,304,78095,1,2,0:0:0:0:
240,46,78259,5,2,1:2:0:0:
133,286,78423,1,2,1:2:0:0:
334,207,78587,1,10,0:0:0:0:
77,71,78751,1,2,0:0:0:0:
241,384,78915,6,0,P|257:315|278:247,1,118.999996368408,2|0,1:2|0:0,0:0:0:0:
184,123,79243,1,8,0:0:0:0:
259,250,79407,1,2,0:0:0:0:
331,103,79571,5,2,1:2:0:0:
141,243,79735,1,2,1:2:0:0:
364,363,79899,1,10,0:0:0:0:
255,74,80063,6,0,P|200:40|108:167,1,237.999992736817,2|0,1:2|1:2,0:0:0:0:
162,366,80554,1,8,0:0:0:0:
187,127,80718,1,2,0:0:0:0:
72,304,80882,5,2,1:2:0:0:
13,73,81046,1,2,1:2:0:0:
226,233,81210,1,10,0:0:0:0:
0,384,81374,1,2,0:0:0:0:
245,253,81538,6,0,L|376:273,1,118.999996368408,6|0,1:2|0:0,0:0:0:0:
498,159,81866,1,10,0:0:0:0:
388,299,82030,1,10,0:0:0:0:
388,299,82112,1,8,0:0:0:0:
388,299,82194,1,0,1:2:0:0:
326,81,82358,1,0,0:0:0:0:
474,252,82522,1,10,0:0:0:0:
218,144,82686,6,0,B|124:137|179:225|25:198,1,178.499994552612,2|0,1:2|0:0,0:0:0:0:
33,202,83013,1,2,1:2:0:0:
202,316,83177,1,8,0:0:0:0:
80,125,83341,1,2,0:0:0:0:
85,382,83505,5,2,1:2:0:0:
264,210,83669,1,2,1:2:0:0:
8,68,83833,1,10,0:0:0:0:
113,299,83997,1,2,1:2:0:0:
321,1,84161,5,14,0:0:0:0:
374,346,84325,2,0,L|358:224,1,118.999996368408,8|0,0:0|1:2,0:0:0:0:
125,14,84653,5,10,0:0:0:0:
85,382,84817,2,0,L|101:260,1,118.999996368408,8|0,0:0|1:2,0:0:0:0:
334,21,85145,5,10,0:0:0:0:
512,231,85308,2,0,P|462:283|397:268,1,118.999996368408,2|0,1:2|1:2,0:0:0:0:
180,57,85636,5,10,0:0:0:0:
254,382,85800,1,8,0:0:0:0:
323,36,85964,1,2,1:2:0:0:
256,192,86046,12,0,87440,0:0:0:0:
