osu file format v14

[General]
AudioFilename: audio.mp3
AudioLeadIn: 0
PreviewTime: 54641
Countdown: 0
SampleSet: Soft
StackLeniency: 0.5
Mode: 0
LetterboxInBreaks: 0
WidescreenStoryboard: 1

[Editor]
Bookmarks: 2837,13329,23821,39559,54641,65624,76280
DistanceSpacing: 1.4
BeatDivisor: 4
GridSize: 32
TimelineZoom: 1.8

[Metadata]
Title:Shiny Ray (TV Size)
TitleUnicode:Shiny Ray (TV Size)
Artist:YURiKA
ArtistUnicode:YURiKA
Creator:NoFC
Version:Collab Hard
Source:リトルウィッチアカデミア
Tags:japanese lwa jp little witch academia opening anime hakashii mnyui pika pikaqours kowari -_ex_-
BeatmapID:2277696
BeatmapSetID:1086799

[Difficulty]
HPDrainRate:4.8
CircleSize:3.8
OverallDifficulty:6.2
ApproachRate:8
SliderMultiplier:1.4
SliderTickRate:1

[Events]
//Background and Video events
0,0,"bg.jpg",0,0
//Break Periods
//Storyboard Layer 0 (Background)
//Storyboard Layer 1 (Fail)
//Storyboard Layer 2 (Pass)
//Storyboard Layer 3 (Foreground)
//Storyboard Layer 4 (Overlay)
//Storyboard Sound Samples

[TimingPoints]
227,327.868852459016,4,2,1,25,1,0
227,-100,4,2,1,25,0,0
2849,-100,4,2,1,70,0,0
13341,-125,4,2,2,40,0,0
14735,-125,4,2,2,5,0,0
14817,-125,4,2,2,40,0,0
20800,-125,4,2,2,5,0,0
20882,-125,4,2,2,40,0,0
22358,-111.111111111111,4,2,2,40,0,0
23833,-111.111111111111,4,2,1,50,0,0
29079,-111.111111111111,4,2,1,60,0,0
34325,-100,4,2,1,60,0,0
39571,-142.857142857143,4,2,1,40,0,0
44817,-105.263157894737,4,2,1,50,0,0
50063,-105.263157894737,4,2,1,60,0,0
52686,-100,4,2,1,40,0,0
54653,-100,4,2,1,80,0,0
55145,-90.9090909090909,4,2,1,80,0,0
65636,-105.263157894737,4,2,1,80,0,0
65964,-105.263157894737,4,2,1,80,0,0
71046,-90.9090909090909,4,2,1,80,0,0
76292,-100,4,2,1,70,0,0

[Colours]
Combo1 : 255,209,187
Combo2 : 213,191,255
Combo3 : 255,170,213

[HitObjects]
53,310,2849,6,0,B|140:296|106:357|217:330,1,140,6|2,1:2|1:2,0:0:0:0:
262,272,3341,1,2,0:0:0:0:
188,207,3505,2,0,L|179:127,1,70,2|2,1:2|0:0,0:0:0:0:
229,51,3833,1,2,1:2:0:0:
310,104,3997,6,0,B|397:77|397:77|458:117,1,140,6|2,0:0|0:0,0:0:0:0:
511,168,4489,1,0,1:0:0:0:
429,222,4653,1,2,0:0:0:0:
429,222,4817,2,0,L|441:313,1,70,2|2,1:2|0:0,0:0:0:0:
444,318,5063,1,10,0:0:0:0:
444,318,5145,2,0,P|406:344|372:345,1,70,2|8,1:2|3:0,0:0:0:0:
308,283,5472,6,0,B|253:282|253:282|221:298|221:298|155:298,1,140,6|2,1:2|1:2,0:0:0:0:
98,231,5964,1,2,0:0:0:0:
182,180,6128,2,0,P|196:139|184:106,1,70,2|2,1:2|0:0,0:0:0:0:
108,57,6456,1,2,1:2:0:0:
38,126,6620,6,0,P|51:211|58:269,1,140,14|2,0:0|0:0,0:0:0:0:
108,348,7112,2,0,P|154:352|188:330,1,70,2|2,1:2|1:2,0:0:0:0:
212,251,7440,1,10,0:2:0:0:
288,312,7604,1,0,1:2:0:0:
288,312,7686,1,0,1:2:0:0:
288,312,7767,2,0,L|333:306,3,35,8|8|8|4,0:2|3:0|3:0|3:0,0:0:0:0:
356,271,8095,6,0,P|409:304|493:273,1,140,6|2,1:2|1:2,0:0:0:0:
503,189,8587,1,2,0:0:0:0:
429,124,8751,2,0,L|345:142,1,70,2|0,1:2|0:0,0:0:0:0:
277,85,9079,1,2,1:2:0:0:
214,160,9243,6,0,B|239:257|239:257|193:229,1,140,6|2,0:0|0:0,0:0:0:0:
123,180,9735,2,0,P|85:167|40:178,1,70,2|2,1:2|0:0,0:0:0:0:
9,257,10063,1,2,1:2:0:0:
76,327,10226,1,2,0:0:0:0:
76,327,10308,1,8,0:0:0:0:
76,327,10390,2,0,L|165:317,1,70,2|2,1:2|1:2,0:0:0:0:
220,254,10718,5,14,0:2:0:0:
136,202,10882,2,0,L|127:120,1,70,8|2,0:0|1:2,0:0:0:0:
184,51,11210,1,14,0:0:0:0:
247,125,11374,2,0,P|298:135|328:127,1,70,8|2,0:0|0:0,0:0:0:0:
378,55,11702,1,14,0:2:0:0:
420,143,11866,6,0,B|429:224|382:200|397:301,1,140,10|10,0:0|0:0,0:0:0:0:
450,359,12358,1,10,0:2:0:0:
354,381,12522,1,0,1:0:0:0:
354,381,12604,1,0,1:0:0:0:
354,381,12686,2,0,L|276:368,1,70,8|0,0:0|1:2,0:0:0:0:
218,297,13013,2,0,L|148:308,1,70,8|4,0:2|3:0,0:0:0:0:
70,318,13341,1,0,1:0:0:0:
3,176,13669,6,0,L|8:106,1,56,2|0,0:0|0:0,0:0:0:0:
40,48,13997,2,0,P|87:29|159:58,1,112,10|2,0:0|0:0,0:0:0:0:
204,96,14489,2,0,L|189:192,1,84,2|0,1:2|0:0,0:0:0:0:
206,215,14817,2,0,P|248:209|269:206,1,56,2|0,0:0|1:2,0:0:0:0:
340,214,15145,2,0,P|360:270|331:328,2,112,2|2|2,0:0|0:0|0:0,0:0:0:0:
305,144,15964,6,0,L|324:18,1,112,2|0,1:2|0:0,0:0:0:0:
396,7,16456,1,0,0:0:0:0:
454,59,16620,2,0,P|458:91|452:120,1,56,8|0,0:0|0:0,0:0:0:0:
414,182,16948,1,2,0:0:0:0:
424,259,17112,6,0,B|356:263|382:226|299:233,1,112,2|0,1:2|0:0,0:0:0:0:
246,266,17604,2,0,L|254:324,1,56,2|2,1:2|0:0,0:0:0:0:
199,377,17931,1,10,0:0:0:0:
132,336,18095,2,0,B|74:307|74:307|30:324,1,112,2|8,0:0|0:2,0:0:0:0:
9,247,18587,6,0,B|27:179|27:179|14:155|14:155|29:85,1,168,2|0,1:2|0:0,0:0:0:0:
88,33,19243,2,0,P|142:61|152:120,1,112,10|2,0:0|0:0,0:0:0:0:
162,185,19735,2,0,B|219:190|214:135|283:137,1,112,2|0,1:2|0:0,0:0:0:0:
338,124,20226,6,0,P|374:133|400:140,1,56,2|0,1:2|0:0,0:0:0:0:
471,137,20554,2,0,P|456:218|452:237,1,84,10|0,0:0|0:0,0:0:0:0:
427,248,20882,2,0,P|435:297|438:315,1,56,2|2,1:2|0:0,0:0:0:0:
379,358,21210,6,0,B|334:350|334:350|310:332|310:332|254:323,1,112,2|0,1:2|0:0,0:0:0:0:
209,281,21702,1,2,0:0:0:0:
271,233,21866,2,0,P|290:180|272:127,1,112,10|8,0:0|0:0,0:0:0:0:
210,66,22358,1,0,1:2:0:0:
38,106,22686,5,0,0:0:0:0:
113,151,22849,2,0,L|100:216,1,62.9999980773926,0|0,1:2|0:0,0:0:0:0:
39,276,23177,2,0,L|51:337,1,62.9999980773926,2|2,1:2|1:2,0:0:0:0:
229,373,23669,1,2,0:2:0:0:
229,373,23751,1,2,0:2:0:0:
229,373,23833,6,0,B|224:328|224:328|237:303|237:303|221:229,1,125.999996154785,4|2,1:2|0:0,0:0:0:0:
412,201,24489,2,0,P|338:203|304:157,1,125.999996154785,10|2,0:0|0:0,0:0:0:0:
361,97,24981,6,0,L|433:102,1,62.9999980773926,2|2,1:2|0:0,0:0:0:0:
299,28,25308,2,0,L|236:32,1,62.9999980773926,2|0,1:2|1:2,0:0:0:0:
167,89,25636,1,10,0:0:0:0:
167,89,25800,1,0,0:0:0:0:
246,127,25964,2,0,P|255:166|247:202,1,62.9999980773926,2|0,1:2|1:2,0:0:0:0:
189,250,26292,5,2,0:0:0:0:
189,250,26374,1,2,0:0:0:0:
189,250,26456,2,0,B|122:239|158:206|65:200,1,125.999996154785,2|0,1:2|0:0,0:0:0:0:
11,270,26948,1,0,0:0:0:0:
11,270,27112,1,8,0:0:0:0:
73,340,27277,2,0,L|135:330,1,62.9999980773926,2|2,0:0|0:0,0:0:0:0:
239,339,27604,6,0,B|287:351|287:351|311:340|311:340|370:353,1,125.999996154785,2|0,1:2|1:2,0:0:0:0:
438,310,28095,2,0,P|452:280|449:240,1,62.9999980773926,2|8,1:2|0:0,0:0:0:0:
384,193,28423,1,2,0:0:0:0:
309,239,28587,2,0,L|240:245,2,62.9999980773926,2|8|0,1:2|0:2|0:2,0:0:0:0:
376,181,29079,6,0,L|363:40,1,125.999996154785,6|0,1:2|0:0,0:0:0:0:
186,0,29735,2,0,P|142:29|132:50,1,62.9999980773926,10|0,0:0|0:0,0:0:0:0:
106,122,30063,1,2,0:0:0:0:
191,159,30226,2,0,B|249:160|245:114|317:121,1,125.999996154785,2|0,1:2|1:2,0:0:0:0:
373,180,30718,6,0,L|360:260,1,62.9999980773926,2|8,0:2|0:0,0:0:0:0:
417,311,31046,1,2,0:0:0:0:
417,311,31210,1,0,1:2:0:0:
349,367,31374,2,0,P|305:373|280:362,1,62.9999980773926,2|0,0:2|0:0,0:0:0:0:
242,291,31702,6,0,B|179:288|193:332|100:318,1,125.999996154785,2|0,1:2|0:0,0:0:0:0:
47,271,32194,1,2,1:2:0:0:
113,212,32358,2,0,B|147:174|147:174|126:97,1,125.999996154785,10|0,0:0|0:0,0:0:0:0:
159,19,32849,6,0,P|196:-2|278:26,1,125.999996154785,0|8,1:2|0:0,0:0:0:0:
308,100,33341,1,0,0:0:0:0:
308,100,33505,1,0,1:2:0:0:
242,158,33669,2,0,L|171:146,1,62.9999980773926,10|0,0:0|1:2,0:0:0:0:
116,84,33997,2,0,L|53:94,1,62.9999980773926,10|0,0:2|0:2,0:0:0:0:
6,181,34325,6,0,B|25:239|25:239|15:260|15:260|31:320,1,140,6|0,1:2|1:2,0:0:0:0:
114,362,34817,1,2,0:0:0:0:
114,362,34981,2,0,P|148:342|195:345,1,70,2|0,1:2|0:0,0:0:0:0:
239,264,35308,1,2,1:2:0:0:
239,264,35472,2,0,P|274:291|316:296,1,70,2|0,0:0|1:2,0:0:0:0:
391,263,35800,1,2,0:0:0:0:
322,193,35964,6,0,L|334:32,1,140,2|0,1:2|1:2,0:0:0:0:
422,12,36456,1,2,0:0:0:0:
422,12,36538,1,8,0:0:0:0:
422,12,36620,2,0,P|455:40|466:75,1,70,2|2,1:2|0:0,0:0:0:0:
508,152,36948,6,0,P|462:166|435:251,1,140,6|2,1:2|1:2,0:0:0:0:
414,343,37440,2,0,L|501:331,1,70,2|0,0:0|1:2,0:0:0:0:
338,289,37767,2,0,L|268:279,1,70,2|0,0:0|1:2,0:0:0:0:
213,197,38095,6,0,B|201:111|201:111|220:97|235:64,1,140,2|2,0:0|0:0,0:0:0:0:
141,36,38587,2,0,L|56:26,1,70,2|0,1:2|0:0,0:0:0:0:
53,31,38833,1,8,0:0:0:0:
53,31,38915,1,0,1:2:0:0:
0,114,39079,1,8,3:0:0:0:
72,179,39243,2,0,P|87:221|80:260,1,70,4|4,3:0|3:0,0:0:0:0:
161,325,39571,6,0,B|248:352|248:352|309:312,2,146.999995513916,2|0|2,1:2|0:0|0:0,0:0:0:0:
172,190,40882,2,0,P|121:139|49:135,2,146.999995513916,2|0|2,1:2|0:0|0:0,0:0:0:0:
278,277,42194,6,0,L|393:262,1,97.9999970092774,2|0,1:2|0:0,0:0:0:0:
499,205,42849,2,0,L|384:190,1,97.9999970092774,2|0,0:0|0:0,0:0:0:0:
291,130,43505,6,0,B|246:101|234:54|234:54|212:96|152:118,1,195.999994018555,2|2,1:2|0:0,0:0:0:0:
159,115,44817,6,0,P|187:170|171:239,1,132.999996448517,2|0,1:2|0:0,0:0:0:0:
249,279,45308,2,0,P|282:227|350:206,1,132.999996448517,2|0,1:2|0:0,0:0:0:0:
346,119,45800,1,2,1:2:0:0:
459,358,46292,5,0,1:2:0:0:
396,296,46456,2,0,L|326:285,1,66.4999982242585,8|0,0:0|0:0,0:0:0:0:
286,361,46784,2,0,L|216:372,1,66.4999982242585,0|0,1:2|1:2,0:0:0:0:
135,332,47112,1,8,0:0:0:0:
10,211,47440,6,0,L|151:181,1,132.999996448517,2|0,1:2|0:0,0:0:0:0:
200,246,47931,2,0,P|223:184|186:113,1,132.999996448517,2|0,1:2|0:0,0:0:0:0:
138,62,48423,1,2,1:2:0:0:
298,4,48751,5,0,0:0:0:0:
357,69,48915,2,0,P|391:89|438:86,1,66.4999982242585,8|0,0:0|1:2,0:0:0:0:
500,71,49243,2,0,L|488:153,1,66.4999982242585,0|8,1:2|3:0,0:0:0:0:
490,159,49489,1,0,0:0:0:0:
490,159,49571,1,4,3:0:0:0:
428,212,49735,2,0,L|441:283,1,66.4999982242585,10|0,0:0|1:2,0:0:0:0:
423,363,50063,6,0,B|356:352|392:319|299:313,1,132.999996448517,6|2,0:0|0:0,0:0:0:0:
244,256,50554,1,0,1:2:0:0:
244,256,50718,2,0,P|210:276|163:273,1,66.4999982242585,10|0,0:0|0:0,0:0:0:0:
124,341,51045,1,2,0:0:0:0:
124,341,51210,1,0,0:0:0:0:
48,299,51374,6,0,B|43:254|43:254|56:229|56:229|40:155,1,132.999996448517,2|2,0:0|0:0,0:0:0:0:
189,75,52030,2,0,P|125:82|81:35,1,132.999996448517,10|2,0:0|0:0,0:0:0:0:
256,192,52686,12,0,54325,3:0:0:0:
432,40,54653,6,0,P|452:68|445:114,1,70,8|4,0:3|0:3,0:0:0:0:
451,103,55145,6,0,B|367:108|399:63|296:71,1,154.000004699707,12|0,1:1|0:0,0:0:0:0:
237,155,55636,1,10,0:0:0:0:
314,230,55800,1,2,0:0:0:0:
234,302,55964,2,0,L|142:310,1,77.0000023498536,2|2,1:2|1:2,0:0:0:0:
69,245,56292,1,8,0:0:0:0:
159,186,56456,6,0,B|179:89|179:89|130:52,1,154.000004699707,2|2,0:0|1:2,0:0:0:0:
27,71,56948,2,0,P|12:116|17:154,1,77.0000023498536,8|2,0:0|1:2,0:0:0:0:
77,233,57276,1,2,0:0:0:0:
74,340,57440,2,0,L|-9:326,1,77.0000023498536,2|8,1:2|0:0,0:0:0:0:
152,278,57768,1,2,0:0:0:0:
219,360,57931,6,0,B|315:331|315:331|351:346|352:378,1,154.000004699707,2|10,1:2|0:0,0:0:0:0:
459,373,58423,2,0,P|467:324|475:288,1,77.0000023498536,2|0,1:2|0:0,0:0:0:0:
371,196,58751,2,0,P|378:233|384:271,1,77.0000023498536,2|8,1:2|0:0,0:0:0:0:
286,316,59079,5,2,0:0:0:0:
286,316,59161,1,0,1:2:0:0:
286,316,59243,2,0,P|246:286|235:254,1,77.0000023498536,0|0,1:2|1:2,0:0:0:0:
128,274,59571,2,0,P|120:224|135:194,1,77.0000023498536,8|0,0:0|1:2,0:0:0:0:
207,124,59899,1,2,0:0:0:0:
115,66,60063,2,0,L|27:76,1,77.0000023498536,2|10,1:2|0:0,0:0:0:0:
214,20,60391,6,0,B|309:8|309:8|337:40|380:54,1,154.000004699707,2|0,0:0|0:0,0:0:0:0:
462,33,60882,1,10,0:0:0:0:
473,140,61046,2,0,P|442:171|431:216,1,77.0000023498536,2|2,1:2|0:0,0:0:0:0:
330,240,61374,2,0,P|357:266|371:301,1,77.0000023498536,2|8,1:2|0:0,0:0:0:0:
296,380,61702,1,2,0:0:0:0:
209,315,61866,6,0,L|121:326,1,77.0000023498536,2|2,1:2|1:2,0:0:0:0:
43,263,62194,1,8,0:0:0:0:
94,168,62358,2,0,B|160:172|160:172|186:195|186:195|261:193,1,154.000004699707,2|2,1:2|1:2,0:0:0:0:
330,136,62849,2,0,B|343:96|343:96|328:63,1,77.0000023498536,8|2,0:0|1:2,0:0:0:0:
228,21,63177,6,0,L|143:30,1,77.0000023498536,2|0,1:2|0:0,0:0:0:0:
53,75,63505,1,8,0:0:0:0:
139,140,63669,2,0,P|169:176|129:280,1,154.000004699707,0|0,1:2|1:2,0:0:0:0:
42,312,64161,2,0,L|31:224,1,77.0000023498536,10|2,0:0|1:2,0:0:0:0:
122,370,64489,5,8,0:0:0:0:
122,370,64653,1,2,1:2:0:0:
219,323,64817,1,10,0:0:0:0:
219,323,64981,1,2,1:2:0:0:
315,370,65145,2,0,L|330:280,1,77.0000023498536,10|2,0:0|1:2,0:0:0:0:
327,294,65636,6,0,P|305:231|334:173,1,132.999996448517,12|0,1:1|0:0,0:0:0:0:
422,149,66128,2,0,B|488:159,1,66.4999982242585,2|2,1:2|0:0,0:0:0:0:
502,67,66456,2,0,B|436:57,1,66.4999982242585,10|2,0:0|1:2,0:0:0:0:
351,78,66784,1,0,0:0:0:0:
271,43,66948,6,0,B|188:26|188:26|155:68,1,132.999996448517,2|10,0:0|0:0,0:0:0:0:
87,119,67440,1,0,1:2:0:0:
11,73,67604,1,2,0:0:0:0:
11,73,67767,2,0,L|-2:147,1,66.4999982242585,10|2,0:0|0:0,0:0:0:0:
57,203,68095,1,0,1:2:0:0:
12,278,68259,6,0,L|150:297,1,132.999996448517,2|0,1:2|0:0,0:0:0:0:
205,357,68751,1,2,1:2:0:0:
270,299,68915,2,0,P|315:300|343:314,1,66.4999982242585,2|10,0:0|0:0,0:0:0:0:
383,236,69243,2,0,P|407:258|421:287,1,66.4999982242585,2|0,0:0|1:2,0:0:0:0:
485,356,69571,6,0,L|512:212,1,132.999996448517,2|8,1:2|0:0,0:0:0:0:
461,152,70063,2,0,L|444:64,1,66.4999982242585,0|0,0:0|1:2,0:0:0:0:
375,18,70390,2,0,L|358:105,1,66.4999982242585,10|10,0:0|0:0,0:0:0:0:
302,155,70718,1,2,1:2:0:0:
218,113,70882,1,2,1:2:0:0:
119,156,71046,6,0,P|46:134|-1:186,1,154.000004699707,6|10,1:2|0:0,0:0:0:0:
16,292,71538,2,0,P|89:314|136:262,1,154.000004699707,2|2,0:0|1:2,0:0:0:0:
223,325,72030,1,8,0:0:0:0:
299,248,72194,6,0,B|394:236|394:236|422:268|465:282,1,154.000004699707,2|0,0:0|0:0,0:0:0:0:
507,186,72686,1,10,0:0:0:0:
425,116,72849,2,0,P|415:78|439:27,1,77.0000023498536,2|0,0:0|1:2,0:0:0:0:
318,42,73177,2,0,P|327:79|303:130,1,77.0000023498536,2|8,1:2|0:0,0:0:0:0:
212,147,73505,6,0,L|44:123,1,154.000004699707,2|0,0:0|0:0,0:0:0:0:
5,219,73997,2,0,P|26:261|15:315,1,77.0000023498536,10|2,0:0|0:0,0:0:0:0:
84,380,74325,1,2,1:2:0:0:
157,300,74489,2,0,L|248:309,1,77.0000023498536,2|8,1:2|0:0,0:0:0:0:
339,281,74817,6,0,P|353:240|341:207,1,77.0000023498536,2|4,0:0|1:2,0:0:0:0:
249,153,75145,1,10,0:0:0:0:
150,194,75308,1,0,1:2:0:0:
112,92,75472,2,0,L|128:8,1,77.0000023498536,10|0,0:0|1:2,0:0:0:0:
241,36,75800,5,10,0:0:0:0:
241,36,75882,1,8,0:0:0:0:
241,36,75964,2,0,L|302:46,3,38.5000011749268,0|0|8|4,1:2|1:2|3:0|3:0,0:0:0:0:
328,35,76292,6,0,P|351:74|325:168,1,140,6|8,1:2|0:0,0:0:0:0:
277,244,76784,1,2,0:0:0:0:
222,162,76948,2,0,L|147:150,1,70,2|2,1:2|1:2,0:0:0:0:
65,195,77276,1,10,0:0:0:0:
110,281,77440,6,0,B|187:273|168:331|261:315,1,140,2|2,1:2|1:2,0:0:0:0:
322,262,77931,1,8,0:0:0:0:
396,325,78095,1,2,0:0:0:0:
467,258,78259,2,0,L|472:181,1,70,2|2,1:2|1:2,0:0:0:0:
382,120,78587,2,0,L|386:189,1,70,10|2,0:0|0:0,0:0:0:0:
302,241,78915,6,0,B|246:232|246:232|221:244|221:244|153:231,1,140,2|8,1:2|0:0,0:0:0:0:
93,166,79407,1,2,0:0:0:0:
176,115,79571,2,0,P|195:69|190:42,1,70,2|2,1:2|1:2,0:0:0:0:
104,6,79899,1,10,0:0:0:0:
35,76,80063,6,0,L|50:227,1,140,2|0,1:2|1:2,0:0:0:0:
97,300,80554,2,0,P|56:315|22:312,1,70,8|2,0:0|0:0,0:0:0:0:
140,214,80882,2,0,P|174:214|206:227,1,70,2|2,1:2|1:2,0:0:0:0:
260,310,81210,1,10,0:0:0:0:
343,258,81374,1,2,0:0:0:0:
296,171,81538,6,0,B|317:89|317:89|259:48,1,140,6|10,1:2|0:0,0:0:0:0:
173,60,82030,1,10,0:0:0:0:
201,153,82194,2,0,P|215:200|214:229,1,70,0|0,1:2|0:0,0:0:0:0:
132,274,82522,1,10,0:0:0:0:
57,210,82686,6,0,B|59:156|59:156|82:140|82:140|86:68,1,140,2|2,1:2|1:2,0:0:0:0:
162,21,83177,1,8,0:0:0:0:
211,105,83341,1,2,0:0:0:0:
291,48,83505,2,0,P|337:31|367:39,1,70,2|2,1:2|1:2,0:0:0:0:
436,92,83833,2,0,L|424:175,1,70,10|2,0:0|1:2,0:0:0:0:
340,210,84161,5,14,0:0:0:0:
430,248,84325,2,0,P|455:284|463:317,1,70,8|0,0:0|1:2,0:0:0:0:
386,372,84653,1,10,0:0:0:0:
297,329,84817,2,0,L|221:341,1,70,8|0,0:0|1:2,0:0:0:0:
137,299,85145,1,10,0:0:0:0:
215,240,85308,2,0,B|225:207|225:207|208:172,1,70,2|0,1:2|1:2,0:0:0:0:
123,135,85636,5,10,0:0:0:0:
196,70,85800,1,8,0:0:0:0:
106,29,85964,1,2,1:2:0:0:
