osu file format v14

[General]
AudioFilename: Shiny Ray.mp3
AudioLeadIn: 0
PreviewTime: 54501
Countdown: 0
SampleSet: Soft
StackLeniency: 0.4
Mode: 0
LetterboxInBreaks: 0
WidescreenStoryboard: 0

[Editor]
DistanceSpacing: 1.2
BeatDivisor: 4
GridSize: 32
TimelineZoom: 1.6

[Metadata]
Title:Shiny Ray
TitleUnicode:Shiny Ray
Artist:YURiKA
ArtistUnicode:YURiKA
Creator:Hazu-
Version:Magic
Source:リトルウィッチアカデミア
Tags:little witch academia tv opening HappyRocket88 Kyuukai Alphabet vick Venax
BeatmapID:1406053
BeatmapSetID:564204

[Difficulty]
HPDrainRate:7
CircleSize:4.2
OverallDifficulty:8.5
ApproachRate:9.2
SliderMultiplier:1.8
SliderTickRate:1

[Events]
//Background and Video events
0,0,"Shiny Ray.jpg",0,0
Video,-336,"Shiny+Ray.avi"
//Break Periods
//Storyboard Layer 0 (Background)
//Storyboard Layer 1 (Fail)
//Storyboard Layer 2 (Pass)
//Storyboard Layer 3 (Foreground)
//Storyboard Sound Samples

[TimingPoints]
157,327.868852459016,4,2,1,10,1,0
157,-142.857142857143,4,2,1,10,0,0
2779,-100,4,2,1,60,0,0
13271,-125,4,2,1,30,0,0
23763,-111.111111111111,4,2,1,40,0,0
28927,-111.111111111111,4,2,1,5,0,0
29009,-111.111111111111,4,2,1,40,0,0
39501,-125,4,2,1,30,0,0
44747,-125,4,2,1,30,0,0
45238,-125,4,2,1,40,0,0
45730,-125,4,2,1,50,0,0
46222,-125,4,2,1,30,0,0
47370,-125,4,2,1,30,0,0
47861,-125,4,2,1,40,0,0
48353,-125,4,2,1,50,0,0
48845,-125,4,2,1,30,0,0
49993,-125,4,2,1,40,0,0
52616,-142.857142857143,4,2,1,40,0,0
54583,-111.111111111111,4,2,1,50,0,0
55075,-100,4,2,1,70,0,1
65238,-100,4,2,1,70,0,0
65566,-111.111111111111,4,2,1,60,0,1
70976,-100,4,2,1,60,0,1
76222,-100,4,2,1,60,0,0
85484,-100,4,2,1,5,0,0
85566,-100,4,2,1,60,0,0

[Colours]
Combo1 : 241,179,116
Combo2 : 255,121,121
Combo3 : 86,202,222
Combo4 : 244,218,138
Combo5 : 174,232,132
Combo6 : 191,153,242
SliderBorder : 225,225,225
SliderTrackOverride : 12,31,80

[HitObjects]
256,192,157,12,0,2453,0:0:0:0:
208,176,2779,6,0,P|212:208|216:276,1,90,6|0,0:0|0:0,0:0:0:0:
316,48,3107,2,0,P|312:80|308:148,1,90,10|0,0:0|0:0,0:0:0:0:
192,48,3435,1,2,0:0:0:0:
392,24,3599,1,0,0:0:0:0:
172,48,3763,1,10,0:0:0:0:
440,132,3927,6,0,P|408:176|440:292,1,180,6|0,0:0|0:0,0:0:0:0:
292,68,4419,2,0,P|300:108|304:172,1,90,10|0,0:0|0:0,0:0:0:0:
248,304,4747,1,2,0:0:0:0:
204,160,4911,1,8,0:0:0:0:
204,160,4993,1,8,0:0:0:0:
204,160,5075,1,8,0:3:0:0:
372,244,5238,1,8,0:3:0:0:
144,260,5402,6,0,P|108:256|36:252,1,90,6|0,0:0|0:0,0:0:0:0:
296,176,5730,2,0,P|340:173|385:168,1,90,10|0,0:0|0:0,0:0:0:0:
184,76,6059,1,2,0:0:0:0:
232,252,6223,1,0,0:0:0:0:
176,48,6387,1,10,0:0:0:0:
59,276,6550,6,0,B|176:296|121:231|237:252,1,180,6|0,0:0|0:0,0:0:0:0:
408,328,7042,2,0,P|400:276|396:220,1,90,10|0,0:0|0:0,0:0:0:0:
288,44,7370,1,8,0:3:0:0:
286,66,7451,1,8,0:3:0:0:
283,88,7534,1,8,0:3:0:0:
241,105,7615,1,8,0:3:0:0:
197,108,7697,1,8,0:3:0:0:
154,93,7779,1,8,0:3:0:0:
112,77,7861,1,8,0:3:0:0:
68,75,7943,1,8,0:3:0:0:
25,89,8025,6,0,P|32:132|36:200,1,90,6|0,0:0|0:0,0:0:0:0:
172,20,8353,1,8,0:0:0:0:
144,204,8517,2,0,P|137:246|133:314,1,90,2|0,0:0|0:0,0:0:0:0:
180,0,8845,1,0,0:0:0:0:
68,156,9009,1,10,0:0:0:0:
316,84,9173,6,0,P|372:116|360:244,1,180,6|0,0:0|0:0,0:0:0:0:
144,204,9665,2,0,P|192:196|252:192,1,90,10|0,0:0|0:0,0:0:0:0:
376,296,9993,1,2,0:0:0:0:
196,312,10156,1,8,0:0:0:0:
196,312,10238,1,8,0:0:0:0:
196,312,10320,1,8,0:3:0:0:
352,180,10484,1,8,0:3:0:0:
272,384,10648,5,14,0:0:0:0:
220,120,10812,1,10,0:0:0:0:
236,96,11139,5,14,0:0:0:0:
184,360,11303,1,10,0:0:0:0:
176,376,11632,5,14,0:0:0:0:
124,112,11796,1,10,0:0:0:0:
140,88,12124,5,14,0:0:0:0:
64,280,12288,1,10,0:0:0:0:
276,168,12452,1,8,0:0:0:0:
276,168,12534,1,8,0:0:0:0:
276,168,12616,1,10,3:2:0:0:
24,184,12779,1,10,3:2:0:0:
248,272,12943,1,10,3:2:0:0:
4,176,13107,1,10,3:2:0:0:
156,140,13271,6,0,P|148:196|140:292,1,144,2|0,3:2|0:0,0:0:0:0:
336,372,13927,2,0,P|341:300|351:228,1,144,10|0,0:0|0:0,0:0:0:0:
235,132,14419,6,0,P|244:203|249:275,1,144,2|0,3:2|0:0,0:0:0:0:
158,314,14911,1,0,0:0:0:0:
158,314,15075,2,0,P|122:318|70:310,1,72,2|8,0:0|0:0,0:0:0:0:
81,218,15402,2,0,P|117:214|169:222,1,72,2|0,0:0|0:0,0:0:0:0:
249,275,15730,1,2,0:0:0:0:
354,143,15894,6,0,P|347:214|342:286,1,144,2|0,3:2|0:0,0:0:0:0:
223,58,16550,2,0,P|227:90|231:142,1,72,10|0,0:0|0:0,0:0:0:0:
190,215,16878,1,2,0:0:0:0:
10,156,17042,6,0,B|102:167|61:121|148:129,1,144,2|0,3:2|0:0,0:0:0:0:
282,73,17534,2,0,P|248:70|202:64,1,72,2|0,0:0|0:0,0:0:0:0:
330,153,17861,1,10,0:0:0:0:
253,212,18025,1,2,0:0:0:0:
253,212,18189,2,0,P|219:209|173:203,1,72,2|0,0:0|0:0,0:0:0:0:
73,112,18517,6,0,P|83:156|96:268,1,144,2|0,3:2|0:0,0:0:0:0:
267,360,19173,2,0,P|290:285|258:221,1,144,10|0,0:0|0:0,0:0:0:0:
186,117,19665,6,0,P|258:139|340:157,1,144,2|0,3:2|0:0,0:0:0:0:
429,113,20156,2,0,P|419:142|412:189,1,72,2|0,0:0|0:0,0:0:0:0:
339,238,20484,2,0,P|356:307|363:379,1,144,10|2,0:0|0:0,0:0:0:0:
437,291,20977,1,2,0:0:0:0:
279,348,21140,6,0,B|195:364|234:309|143:324,1,144,2|0,3:2|0:0,0:0:0:0:
64,377,21632,1,2,0:0:0:0:
11,301,21796,2,0,P|-8:227|30:151,1,144,10|0,0:0|0:0,0:0:0:0:
175,191,22288,2,0,P|139:192|103:197,1,72,2|0,3:2|0:0,0:0:0:0:
331,244,22616,5,2,3:2:0:0:
242,95,22779,1,2,3:2:0:0:
343,255,22943,1,2,3:2:0:0:
357,47,23107,1,2,3:2:0:0:
232,219,23271,1,2,3:2:0:0:
222,228,23599,2,0,P|221:200|218:172,1,36,2|2,0:0|0:0,0:0:0:0:
305,168,23763,6,0,P|309:220|313:264,1,80.9999975280763,6|0,0:0|0:0,0:0:0:0:
429,60,24091,2,0,P|425:112|421:156,1,80.9999975280763,6|0,0:0|0:0,0:0:0:0:
296,39,24419,2,0,P|220:16|155:59,1,161.999995056153,10|0,0:0|0:0,0:0:0:0:
0,184,24911,6,0,P|40:172|108:168,1,80.9999975280763,2|0,3:2|0:0,0:0:0:0:
256,152,25238,2,0,P|220:200|248:320,1,161.999995056153,2|10,0:0|0:0,0:0:0:0:
160,136,25730,1,0,0:0:0:0:
304,236,25894,1,2,0:0:0:0:
124,240,26058,2,0,P|88:236|28:232,1,80.9999975280763,2|0,0:0|0:0,0:0:0:0:
292,136,26386,6,0,P|340:140|400:144,1,80.9999975280763,2|0,3:2|0:0,0:0:0:0:
152,55,26714,2,0,P|156:91|160:155,1,80.9999975280763,2|0,0:0|0:0,0:0:0:0:
248,24,27042,1,8,0:0:0:0:
64,8,27206,1,2,0:0:0:0:
264,24,27370,1,0,0:0:0:0:
56,124,27534,6,0,P|104:180|80:280,1,161.999995056153,2|0,3:2|0:0,0:0:0:0:
180,88,28025,1,2,0:0:0:0:
300,200,28189,2,0,P|256:196|220:192,1,80.9999975280763,8|0,0:0|0:0,0:0:0:0:
377,272,28517,1,2,0:0:0:0:
440,104,28681,2,0,P|444:144|452:240,1,121.499996292114,12|0,0:0|0:0,0:0:0:0:
477,235,29009,6,0,P|473:179|469:123,1,80.9999975280763,6|0,0:0|0:0,0:0:0:0:
355,33,29337,2,0,P|359:89|363:145,1,80.9999975280763,2|0,0:0|0:0,0:0:0:0:
372,312,29665,2,0,P|312:272|212:296,1,161.999995056153,10|0,0:0|0:0,0:0:0:0:
96,176,30156,6,0,P|104:236|112:348,1,161.999995056153,2|0,3:2|0:0,0:0:0:0:
176,140,30648,1,2,0:0:0:0:
24,244,30812,1,8,0:0:0:0:
208,228,30976,2,0,P|256:220|304:216,1,80.9999975280763,2|0,0:0|0:0,0:0:0:0:
424,116,31304,2,0,P|384:122|343:127,1,80.9999975280763,2|0,0:0|0:0,0:0:0:0:
440,332,31632,6,0,P|484:284|472:188,1,161.999995056153,2|0,3:2|0:0,0:0:0:0:
324,52,32124,1,2,0:0:0:0:
324,52,32206,1,2,0:0:0:0:
324,52,32288,1,10,0:0:0:0:
384,232,32452,1,0,0:0:0:0:
420,40,32616,1,2,0:0:0:0:
276,172,32779,6,0,B|196:200|196:144|116:172,1,161.999995056153,2|8,3:2|0:0,0:0:0:0:
16,280,33271,2,0,P|24:324|28:380,1,80.9999975280763,2|0,0:0|0:0,0:0:0:0:
160,248,33599,1,10,0:0:0:0:
24,160,33763,1,0,0:0:0:0:
120,336,33927,1,10,0:0:0:0:
132,352,34255,6,0,P|224:340|296:336,1,161.999995056153,6|0,0:0|0:0,0:0:0:0:
424,264,34747,1,0,0:0:0:0:
276,224,34911,2,0,P|232:228|176:232,1,80.9999975280763,2|0,0:0|0:0,0:0:0:0:
444,272,35238,1,0,0:0:0:0:
368,104,35402,1,2,0:0:0:0:
356,112,35484,1,2,0:0:0:0:
344,120,35566,6,0,P|348:148|352:204,1,80.9999975280763,2|0,3:2|0:0,0:0:0:0:
300,368,35894,2,0,P|248:320|152:344,1,161.999995056153,2|0,0:0|0:0,0:0:0:0:
12,248,36386,1,8,0:0:0:0:
12,248,36468,1,8,0:0:0:0:
12,248,36550,2,0,P|56:252|108:256,1,80.9999975280763,10|0,0:0|0:0,0:0:0:0:
280,196,36878,6,0,P|239:192|199:189,1,80.9999975280763,6|0,0:0|0:0,0:0:0:0:
400,112,37206,1,2,0:0:0:0:
200,88,37370,2,0,P|164:92|92:96,1,80.9999975280763,2|0,0:0|0:0,0:0:0:0:
312,36,37697,2,0,P|324:72|320:116,1,80.9999975280763,2|0,0:0|0:0,0:0:0:0:
280,276,38025,6,0,P|352:232|436:260,1,161.999995056153,2|0,3:2|0:0,0:0:0:0:
232,164,38517,1,2,0:0:0:0:
360,332,38681,1,10,3:2:0:0:
360,332,38763,1,8,0:0:0:0:
360,332,38845,1,10,3:2:0:0:
216,148,39009,1,2,3:2:0:0:
423,249,39173,1,2,3:2:0:0:
152,288,39337,1,2,3:2:0:0:
296,216,39501,6,0,P|289:287|284:359,1,144,2|0,3:2|0:0,0:0:0:0:
203,220,39993,2,0,P|198:148|191:76,1,144,2|0,0:0|0:0,0:0:0:0:
106,156,40484,1,2,0:0:0:0:
90,172,40812,6,0,P|98:216|110:324,1,144,2|0,3:2|0:0,0:0:0:0:
174,192,41304,1,2,0:0:0:0:
18,232,41468,2,0,P|22:268|26:316,1,72,2|0,0:0|0:0,0:0:0:0:
194,368,41796,2,0,P|190:332|186:296,1,72,2|0,0:0|0:0,0:0:0:0:
165,100,42124,6,0,P|217:144|305:132,1,144,2|0,3:2|0:0,0:0:0:0:
416,296,42779,2,0,P|364:252|276:264,1,144,2|0,3:2|0:0,0:0:0:0:
360,24,43435,2,0,P|364:72|372:184,1,144,2|0,3:2|0:0,0:0:0:0:
124,308,44091,5,2,3:2:0:0:
172,160,44256,1,2,0:0:0:0:
116,328,44419,1,2,0:0:0:0:
60,144,44583,1,2,0:0:0:0:
231,283,44747,6,0,B|326:299|282:247|383:269,1,144,2|0,3:2|0:0,0:0:0:0:
496,336,45238,2,0,P|488:272|480:176,1,144,2|0,3:2|0:0,0:0:0:0:
384,16,45730,2,0,P|377:87|369:159,1,144,2|0,3:2|0:0,0:0:0:0:
328,328,46222,5,0,3:0:0:0:
256,120,46386,1,8,0:0:0:0:
264,104,46714,1,0,3:0:0:0:
200,256,46878,1,0,3:0:0:0:
420,160,47042,1,8,0:0:0:0:
436,144,47370,6,0,P|408:92|444:0,1,144,2|0,3:2|0:0,0:0:0:0:
264,104,47861,2,0,P|272:148|280:256,1,144,2|0,3:2|0:0,0:0:0:0:
456,300,48353,2,0,P|421:292|370:288,1,72,2|0,3:2|0:0,0:0:0:0:
224,308,48682,5,0,3:0:0:0:
420,376,48845,1,8,0:0:0:0:
440,380,49173,1,0,3:0:0:0:
276,192,49337,1,8,0:3:0:0:
243,176,49418,1,2,0:0:0:0:
208,169,49500,1,2,0:0:0:0:
172,173,49582,1,2,0:0:0:0:
139,187,49664,1,6,0:0:0:0:
106,202,49746,1,2,0:0:0:0:
71,206,49828,1,2,0:0:0:0:
35,199,49910,1,2,0:0:0:0:
2,185,49993,6,0,P|36:224|24:328,1,144,6|0,0:0|0:0,0:0:0:0:
96,116,50484,1,2,0:0:0:0:
200,276,50648,2,0,P|176:272|124:268,1,72,10|0,0:0|0:0,0:0:0:0:
316,200,50976,2,0,P|340:204|392:208,1,72,2|0,0:0|0:0,0:0:0:0:
216,148,51304,5,2,3:2:0:0:
280,328,51468,2,0,P|344:284|428:308,1,144,10|0,0:0|0:0,0:0:0:0:
512,216,51960,2,0,P|508:252|504:304,1,72,10|0,0:0|0:0,0:0:0:0:
416,96,52288,2,0,P|420:132|424:184,1,72,2|0,0:0|0:0,0:0:0:0:
512,24,52616,5,0,3:0:0:0:
276,72,52943,1,0,3:0:0:0:
508,124,53271,1,0,3:0:0:0:
256,72,53599,1,0,3:0:0:0:
444,12,53927,1,0,3:0:0:0:
368,200,54255,1,0,3:0:0:0:
316,8,54584,5,8,0:0:0:0:
456,276,54747,1,8,0:0:0:0:
440,292,55075,6,0,P|376:244|276:280,1,180,6|0,0:0|0:0,0:0:0:0:
104,176,55566,2,0,P|148:180|204:184,1,90,10|0,0:0|0:0,0:0:0:0:
40,300,55894,1,2,0:0:0:0:
8,120,56058,1,2,0:0:0:0:
48,320,56222,1,8,0:0:0:0:
144,92,56386,6,0,P|208:60|300:120,1,180,2|0,3:2|0:0,0:0:0:0:
424,12,56878,2,0,P|420:44|416:112,1,90,10|0,0:0|0:0,0:0:0:0:
372,256,57206,1,2,0:0:0:0:
332,72,57370,1,2,0:0:0:0:
476,196,57534,1,8,0:0:0:0:
240,156,57697,6,0,B|152:124|152:204|60:168,1,180,2|0,3:2|0:0,0:0:0:0:
224,52,58189,1,10,0:0:0:0:
200,240,58353,2,0,P|192:276|192:336,1,90,2|0,0:0|0:0,0:0:0:0:
58,81,58681,2,0,P|66:117|66:177,1,90,2|8,0:0|0:0,0:0:0:0:
256,124,59009,5,2,3:2:0:0:
96,256,59173,1,2,3:2:0:0:
164,60,59337,1,2,3:2:0:0:
212,292,59501,1,10,3:2:0:0:
48,136,59665,5,2,3:2:0:0:
312,188,59829,1,2,3:2:0:0:
24,136,59993,1,2,3:2:0:0:
272,88,60156,2,0,P|328:96|368:96,1,90,8|2,0:0|0:0,0:0:0:0:
88,20,60484,6,0,P|132:76|104:196,1,180,6|8,0:0|0:0,0:0:0:0:
248,320,60976,2,0,P|244:264|240:208,1,90,2|0,0:0|0:0,0:0:0:0:
352,384,61304,1,2,0:0:0:0:
152,328,61468,1,8,0:0:0:0:
352,204,61632,6,0,P|348:236|340:328,1,90,2|0,3:2|0:0,0:0:0:0:
240,88,61960,1,2,0:0:0:0:
248,272,62124,1,8,0:0:0:0:
344,76,62288,1,2,0:0:0:0:
120,188,62452,5,0,0:0:0:0:
376,168,62616,1,2,0:0:0:0:
160,24,62779,2,0,P|164:64|168:120,1,90,8|2,0:0|0:0,0:0:0:0:
188,320,63107,5,2,3:2:0:0:
268,128,63271,1,2,0:0:0:0:
184,344,63435,1,10,0:0:0:0:
136,104,63599,1,2,0:0:0:0:
332,228,63763,2,0,P|284:232|228:240,1,90
436,328,64091,1,10,0:0:0:0:
380,112,64255,1,2,0:0:0:0:
316,368,64419,5,12,0:0:0:0:
476,116,64583,1,2,0:0:0:0:
160,208,64747,5,10,0:0:0:0:
480,264,64912,1,2,0:0:0:0:
288,24,65075,5,10,0:0:0:0:
400,364,65239,1,10,0:0:0:0:
384,370,65566,6,0,B|285:387|332:329|216:354,1,161.999995056153,6|0,0:0|0:0,0:0:0:0:
71,279,66058,1,2,0:0:0:0:
216,192,66222,2,0,P|212:236|208:288,1,80.9999975280763,2|8,0:0|0:0,0:0:0:0:
116,104,66550,2,0,P|120:56|122:14,1,80.9999975280763,2|0,0:0|0:0,0:0:0:0:
308,120,66879,6,0,P|304:164|300:216,1,80.9999975280763,2|0,3:2|0:0,0:0:0:0:
204,344,67206,2,0,P|160:304|52:328,1,161.999995056153,10|0,0:0|0:0,0:0:0:0:
328,272,67697,1,10,0:0:0:0:
168,208,67861,2,0,P|128:212|72:216,1,80.9999975280763,2|0,0:0|0:0,0:0:0:0:
348,280,68189,1,2,0:0:0:0:
240,56,68353,6,0,P|248:136|256:240,1,161.999995056153,6|0,0:0|0:0,0:0:0:0:
336,48,68845,1,2,0:0:0:0:
152,128,69009,1,8,0:0:0:0:
368,156,69173,2,0,P|408:152|468:148,1,80.9999975280763,2|0,0:0|0:0,0:0:0:0:
128,128,69501,1,2,0:0:0:0:
284,268,69665,5,10,3:2:0:0:
224,40,69829,1,8,0:0:0:0:
176,208,69993,2,0,P|180:244|184:300,1,80.9999975280763
320,72,70320,5,10,3:2:0:0:
56,128,70484,1,10,3:2:0:0:
336,68,70648,1,10,3:2:0:0:
84,16,70812,1,10,3:2:0:0:
225,261,70976,6,0,P|228:171|232:81,1,180,6|8,0:0|0:0,0:0:0:0:
84,16,71468,2,0,P|92:60|97:104,1,90,2|0,0:0|0:0,0:0:0:0:
117,283,71796,1,2,0:0:0:0:
232,81,71960,1,8,0:0:0:0:
44,196,72124,1,2,0:0:0:0:
216,365,72288,6,0,P|219:275|223:185,1,180,6|8,0:0|0:0,0:0:0:0:
91,67,72779,1,2,0:0:0:0:
119,252,72943,1,2,0:0:0:0:
79,47,73107,1,2,0:0:0:0:
223,185,73271,1,10,0:0:0:0:
0,136,73435,1,2,0:0:0:0:
316,109,73599,6,0,B|328:161|328:161|316:289,1,180,6|10,0:0|0:0,0:0:0:0:
278,17,74091,1,0,0:0:0:0:
426,172,74255,1,2,0:0:0:0:
208,132,74419,2,0,P|164:128|112:128,1,90,2|8,0:0|0:0,0:0:0:0:
380,72,74747,1,2,0:0:0:0:
308,288,74911,6,0,P|304:232|296:168,1,90,6|0,0:0|0:0,0:0:0:0:
416,384,75238,1,0,0:0:0:0:
440,200,75402,2,0,P|444:144|452:80,1,90,6|0,0:0|0:0,0:0:0:0:
300,376,75730,1,8,0:0:0:0:
300,376,75812,1,8,0:0:0:0:
300,376,75894,1,12,0:0:0:0:
508,316,76058,1,0,0:0:0:0:
300,200,76222,6,0,P|268:196|196:208,1,90,6|0,0:0|0:0,0:0:0:0:
0,140,76550,2,0,P|44:147|89:142,1,90,10|0,0:0|0:0,0:0:0:0:
272,72,76878,1,2,0:0:0:0:
72,36,77042,1,0,0:0:0:0:
288,76,77206,1,10,0:0:0:0:
0,140,77370,6,0,P|32:184|0:300,1,180,6|0,0:0|0:0,0:0:0:0:
152,384,77862,2,0,P|155:339|164:295,1,90,10|0,0:0|0:0,0:0:0:0:
216,120,78190,1,2,0:0:0:0:
256,324,78354,1,8,0:0:0:0:
256,324,78436,1,8,0:0:0:0:
256,324,78518,1,8,0:3:0:0:
132,168,78681,1,8,0:3:0:0:
380,224,78845,6,0,P|344:220|272:216,1,90,6|0,0:0|0:0,0:0:0:0:
72,280,79173,2,0,P|116:277|161:272,1,90,10|0,0:0|0:0,0:0:0:0:
332,352,79502,1,2,0:0:0:0:
224,160,79666,1,0,0:0:0:0:
208,384,79830,1,10,0:0:0:0:
380,224,79993,6,0,P|344:136|408:48,1,180,6|0,0:0|0:0,0:0:0:0:
232,12,80485,2,0,P|236:52|240:108,1,90,10|0,0:0|0:0,0:0:0:0:
200,272,80812,1,2,0:0:0:0:
144,92,80976,1,8,0:0:0:0:
292,204,81140,2,0,P|288:244|284:300,1,90,10|0,0:0|0:0,0:0:0:0:
44,184,81468,6,0,P|76:176|136:180,1,90,6|0,0:0|0:0,0:0:0:0:
312,120,81796,1,10,0:0:0:0:
152,12,81960,1,10,0:0:0:0:
152,12,82042,1,10,0:0:0:0:
152,12,82124,2,0,P|156:56|160:112,1,90,8|0,0:0|0:0,0:0:0:0:
176,272,82452,1,10,0:0:0:0:
408,176,82616,6,0,B|296:153|360:226|232:194,1,180,6|0,0:0|0:0,0:0:0:0:
52,116,83108,2,0,P|100:108|160:104,1,90,10|0,0:0|0:0,0:0:0:0:
324,88,83436,1,2,0:0:0:0:
148,200,83599,1,8,0:0:0:0:
148,200,83681,1,8,0:0:0:0:
148,200,83763,1,8,0:3:0:0:
232,8,83927,1,8,0:3:0:0:
268,272,84091,5,14,0:0:0:0:
68,92,84255,1,10,0:0:0:0:
52,80,84583,5,14,0:0:0:0:
312,168,84747,1,10,0:0:0:0:
332,164,85075,5,14,0:0:0:0:
32,244,85239,1,10,0:0:0:0:
12,256,85567,5,14,0:0:0:0:
208,60,85731,1,10,0:0:0:0:
152,356,85895,1,14,0:0:0:0:
