osu file format v14

[General]
AudioFilename: Shiny Ray.mp3
AudioLeadIn: 0
PreviewTime: 54501
Countdown: 0
SampleSet: Soft
StackLeniency: 0.7
Mode: 0
LetterboxInBreaks: 0
WidescreenStoryboard: 0

[Editor]
DistanceSpacing: 1.2
BeatDivisor: 4
GridSize: 4
TimelineZoom: 1.6

[Metadata]
Title:Shiny Ray
TitleUnicode:Shiny Ray
Artist:YURiKA
ArtistUnicode:YURiKA
Creator:Hazu-
Version:Hard
Source:リトルウィッチアカデミア
Tags:little witch academia tv opening HappyRocket88 Kyuukai Alphabet vick Venax
BeatmapID:1262939
BeatmapSetID:564204

[Difficulty]
HPDrainRate:5
CircleSize:4
OverallDifficulty:6
ApproachRate:7
SliderMultiplier:1.5
SliderTickRate:1

[Events]
//Background and Video events
0,0,"Shiny Ray.jpg",0,0
Video,-336,"Shiny+Ray.avi"
//Break Periods
//Storyboard Layer 0 (Background)
//Storyboard Layer 1 (Fail)
//Storyboard Layer 2 (Pass)
//Storyboard Layer 3 (Foreground)
//Storyboard Sound Samples

[TimingPoints]
157,327.868852459016,4,2,1,10,1,0
157,-142.857142857143,4,2,1,10,0,0
2779,-100,4,2,1,70,0,0
13271,-125,4,2,1,40,0,0
23763,-111.111111111111,4,2,1,50,0,0
28927,-111.111111111111,4,2,1,5,0,0
29009,-111.111111111111,4,2,1,50,0,0
39501,-142.857142857143,4,2,1,40,0,0
44747,-125,4,2,1,40,0,0
45238,-125,4,2,1,50,0,0
45730,-125,4,2,1,60,0,0
46222,-125,4,2,1,40,0,0
47370,-125,4,2,1,40,0,0
47861,-125,4,2,1,50,0,0
48353,-125,4,2,1,60,0,0
48845,-125,4,2,1,40,0,0
49993,-125,4,2,1,50,0,0
52616,-142.857142857143,4,2,1,20,0,0
54583,-111.111111111111,4,2,1,50,0,0
55075,-100,4,2,1,80,0,1
65238,-100,4,2,1,80,0,0
65566,-111.111111111111,4,2,1,70,0,1
70976,-100,4,2,1,70,0,1
76222,-100,4,2,1,70,0,0

[Colours]
Combo1 : 241,179,116
Combo2 : 255,121,121
Combo3 : 86,202,222
Combo4 : 244,218,138
Combo5 : 174,232,132
Combo6 : 191,153,242
SliderBorder : 225,225,225
SliderTrackOverride : 12,31,80

[HitObjects]
256,192,157,12,0,2452,0:0:0:0:
172,56,2779,6,0,P|168:116|164:224,1,150,6|10,0:0|0:0,0:0:0:0:
204,280,3271,1,0,0:0:0:0:
268,224,3435,2,0,L|276:120,2,75,2|0|10,0:0|0:0|0:0,0:0:0:0:
328,312,3927,6,0,P|412:312|448:252,1,150,6|0,0:0|0:0,0:0:0:0:
480,188,4419,2,0,P|476:140|472:92,1,75,10|0,0:0|0:0,0:0:0:0:
424,48,4747,1,2,0:0:0:0:
360,100,4911,1,8,0:0:0:0:
360,100,4993,1,8,0:0:0:0:
360,100,5075,2,0,P|316:96|272:92,1,75,8|8,0:3|0:3,0:0:0:0:
188,52,5402,6,0,P|196:120|204:224,1,150,6|10,0:0|0:0,0:0:0:0:
128,240,5894,1,0,0:0:0:0:
128,240,6058,2,0,P|124:192|120:148,1,75,2|0,0:0|0:0,0:0:0:0:
88,88,6385,1,10,0:0:0:0:
188,52,6550,6,0,B|276:32|243:91|341:65,1,150,6|0,0:0|0:0,0:0:0:0:
416,76,7042,2,0,P|404:32|400:-8,2,75,10|0|8,0:0|0:0|0:3,0:0:0:0:
452,152,7534,1,8,0:3:0:0:
452,152,7616,1,8,0:3:0:0:
452,152,7698,2,0,P|446:189|436:225,1,75,8|8,0:3|0:3,0:0:0:0:
356,292,8025,6,0,P|300:284|248:280,1,75,6|0,0:0|0:0,0:0:0:0:
204,312,8353,1,8,0:0:0:0:
168,236,8517,2,0,P|172:176|180:76,1,150,2|0,0:0|0:0,0:0:0:0:
144,12,9010,1,10,0:0:0:0:
68,84,9173,6,0,P|61:158|56:233,1,150,6|0,0:0|0:0,0:0:0:0:
94,313,9665,1,10,0:0:0:0:
94,313,9829,2,0,P|130:301|174:297,1,75,0|2,0:0|0:0,0:0:0:0:
246,273,10156,1,8,0:0:0:0:
246,273,10238,1,8,0:0:0:0:
246,273,10320,2,0,P|282:285|326:289,1,75,8|8,0:3|0:3,0:0:0:0:
415,246,10648,5,14,0:0:0:0:
415,246,10812,1,10,0:0:0:0:
311,62,11141,5,14,0:0:0:0:
311,62,11305,1,10,0:0:0:0:
136,188,11633,5,14,0:0:0:0:
136,188,11797,2,0,P|140:236|147:347,1,150,10|14,0:0|0:0,0:0:0:0:
216,380,12288,1,10,0:0:0:0:
276,324,12452,1,8,0:0:0:0:
276,324,12534,1,8,0:0:0:0:
276,324,12616,2,0,P|320:320|360:316,1,75,10|10,3:2|3:2,0:0:0:0:
384,240,12943,2,0,P|388:200|380:160,1,75,10|10,3:2|3:2,0:0:0:0:
300,104,13271,6,0,P|232:108|152:112,1,120,2|0,3:2|0:0,0:0:0:0:
44,208,13927,2,0,P|103:204|163:201,1,120,10|0,0:0|0:0,0:0:0:0:
268,200,14419,6,0,B|280:240|280:240|272:336,1,120,2|0,3:2|0:0,0:0:0:0:
352,344,14911,1,0,0:0:0:0:
352,344,15075,2,0,P|354:298|358:267,1,60,2|8,0:0|0:0,0:0:0:0:
399,212,15402,2,0,P|401:166|405:135,1,60,2|0,0:0|0:0,0:0:0:0:
377,71,15730,1,2,0:0:0:0:
280,108,15894,6,0,B|205:119|241:78|155:93,1,120,2|0,3:2|0:0,0:0:0:0:
37,202,16550,2,0,P|41:230|45:286,1,60,10|0,0:0|0:0,0:0:0:0:
97,326,16878,1,2,0:0:0:0:
169,254,17042,6,0,P|233:230|297:254,1,120,2|0,3:2|0:0,0:0:0:0:
357,279,17534,2,0,P|353:243|349:195,1,60,2|0,0:0|0:0,0:0:0:0:
380,140,17861,1,10,0:0:0:0:
413,62,18025,2,0,P|409:26|405:-22,2,60,2|2|0,0:0|0:0|0:0,0:0:0:0:
485,134,18517,6,0,P|481:186|477:282,1,120,2|0,3:2|0:0,0:0:0:0:
356,372,19173,2,0,P|312:336|236:340,1,120,10|0,0:0|0:0,0:0:0:0:
160,380,19665,6,0,P|164:320|168:252,1,120,2|0,3:2|0:0,0:0:0:0:
216,192,20156,2,0,P|212:148|208:108,1,60,2|0,0:0|0:0,0:0:0:0:
160,64,20484,2,0,P|96:56|44:92,1,120,10|2,0:0|0:0,0:0:0:0:
8,156,20976,1,2,0:0:0:0:
32,256,21140,6,0,P|96:248|176:244,1,120,2|0,3:2|0:0,0:0:0:0:
216,192,21632,1,2,0:0:0:0:
280,244,21796,2,0,P|276:288|272:368,1,120,10|0,0:0|0:0,0:0:0:0:
374,359,22288,6,0,P|376:299|381:239,1,120,2|2,3:2|3:2,0:0:0:0:
362,157,22779,2,0,P|326:149|290:153,1,60,2|2,3:2|3:2,0:0:0:0:
231,194,23107,2,0,P|201:195|172:187,1,60,2|2,3:2|3:2,0:0:0:0:
43,78,23599,1,2,0:0:0:0:
31,74,23681,1,2,0:0:0:0:
19,70,23763,6,0,P|27:134|31:218,1,134.999995880127,6|6,0:0|0:0,0:0:0:0:
100,352,24419,2,0,P|140:304|224:312,1,134.999995880127,10|0,0:0|0:0,0:0:0:0:
296,344,24911,6,0,B|368:368|368:316|448:344,1,134.999995880127,2|2,3:2|0:0,0:0:0:0:
504,372,25402,1,0,0:0:0:0:
512,292,25566,2,0,P|508:252|504:204,1,67.4999979400635,10|0,0:0|0:0,0:0:0:0:
468,152,25894,2,0,P|472:112|476:64,1,67.4999979400635,2|2,0:0|0:0,0:0:0:0:
448,8,26222,1,0,0:0:0:0:
360,40,26386,6,0,P|280:48|232:16,1,134.999995880127,2|2,3:2|0:0,0:0:0:0:
88,88,27042,2,0,P|84:48|80:16,2,67.4999979400635,8|2|0,0:0|0:0|0:0,0:0:0:0:
124,176,27534,6,0,P|116:232|112:324,1,134.999995880127,2|0,3:2|0:0,0:0:0:0:
164,372,28025,1,2,0:0:0:0:
224,316,28189,2,0,P|224:292|232:224,1,67.4999979400635,8|0,0:0|0:0,0:0:0:0:
264,176,28517,1,2,0:0:0:0:
336,216,28681,2,0,P|392:208|460:204,1,101.249996910095,12|0,0:0|0:0,0:0:0:0:
476,216,29009,6,0,P|452:152|480:88,1,134.999995880127,6|2,0:0|0:0,0:0:0:0:
340,4,29665,2,0,P|364:68|336:132,1,134.999995880127,10|0,0:0|0:0,0:0:0:0:
256,172,30156,6,0,P|216:168|112:160,1,134.999995880127,2|0,3:2|0:0,0:0:0:0:
48,192,30648,1,2,0:0:0:0:
48,192,30812,1,8,0:0:0:0:
92,260,30976,2,0,P|140:264|180:268,1,67.4999979400635,2|0,0:0|0:0,0:0:0:0:
224,316,31304,2,0,P|272:320|312:324,1,67.4999979400635,2|0,0:0|0:0,0:0:0:0:
377,361,31632,6,0,P|381:289|394:215,1,134.999995880127,2|0,3:2|0:0,0:0:0:0:
440,162,32124,1,2,0:0:0:0:
440,162,32206,1,2,0:0:0:0:
440,162,32288,2,0,P|435:119|430:77,1,67.4999979400635,10|0,0:0|0:0,0:0:0:0:
389,25,32616,1,2,0:0:0:0:
300,56,32779,6,0,P|308:120|316:208,1,134.999995880127,2|8,3:2|0:0,0:0:0:0:
284,264,33271,2,0,P|240:252|196:252,1,67.4999979400635,2|0,0:0|0:0,0:0:0:0:
144,220,33599,2,0,P|100:232|56:232,1,67.4999979400635,10|0,0:0|0:0,0:0:0:0:
0,208,33927,2,0,P|4:244|8:284,1,67.4999979400635,10|0,0:0|0:0,0:0:0:0:
64,352,34255,6,0,B|148:370|111:317|216:344,1,134.999995880127,6|0,0:0|0:0,0:0:0:0:
272,368,34747,1,0,0:0:0:0:
304,292,34911,2,0,P|300:236|296:152,1,134.999995880127,2|0,0:0|0:0,0:0:0:0:
360,84,35402,1,2,0:0:0:0:
372,76,35484,1,2,0:0:0:0:
384,68,35566,6,0,P|416:72|456:76,1,67.4999979400635,2|0,3:2|0:0,0:0:0:0:
508,136,35894,2,0,P|516:216|484:264,1,134.999995880127,2|0,0:0|0:0,0:0:0:0:
420,308,36386,1,8,0:0:0:0:
420,308,36468,1,8,0:0:0:0:
420,308,36550,2,0,P|392:304|336:300,1,67.4999979400635,10|0,0:0|0:0,0:0:0:0:
268,256,36878,6,0,P|204:264|124:272,1,134.999995880127,6|2,0:0|0:0,0:0:0:0:
116,192,37370,2,0,P|164:188|192:184,1,67.4999979400635,2|0,0:0|0:0,0:0:0:0:
256,148,37697,2,0,P|304:144|332:140,1,67.4999979400635,2|0,0:0|0:0,0:0:0:0:
412,172,38025,6,0,P|404:120|396:32,1,134.999995880127,2|0,3:2|0:0,0:0:0:0:
324,4,38517,1,2,0:0:0:0:
256,48,38681,1,10,3:2:0:0:
256,48,38763,1,8,0:0:0:0:
256,48,38845,2,0,P|216:56|176:48,1,67.4999979400635,10|2,3:2|3:2,0:0:0:0:
112,28,39173,2,0,P|72:20|32:28,1,67.4999979400635,2|2,3:2|3:2,0:0:0:0:
12,100,39501,6,0,P|20:176|28:280,2,157.499995193482,2|2|2,3:2|0:0|0:0,0:0:0:0:
164,32,40812,2,0,P|168:72|176:140,1,104.999996795654,2|0,3:2|0:0,0:0:0:0:
172,220,41304,1,2,0:0:0:0:
172,220,41468,2,0,P|216:212|248:212,1,52.4999983978272,2|0,0:0|0:0,0:0:0:0:
304,184,41796,2,0,P|348:192|380:192,1,52.4999983978272,2|0,0:0|0:0,0:0:0:0:
440,192,42124,6,0,P|416:244|424:300,1,104.999996795654,2|0,3:2|0:0,0:0:0:0:
272,368,42779,2,0,P|295:321|291:269,1,104.999996795654,2|0,3:2|0:0,0:0:0:0:
144,188,43435,2,0,P|84:192|20:196,1,104.999996795654,2|0,3:2|0:0,0:0:0:0:
64,28,44091,2,0,L|128:24,1,52.4999983978272,2|2,3:2|0:0,0:0:0:0:
196,56,44419,2,0,L|260:52,1,52.4999983978272,2|2,0:0|0:0,0:0:0:0:
348,24,44747,6,0,P|340:72|332:148,1,120,2|0,3:2|0:0,0:0:0:0:
272,204,45238,2,0,P|280:252|288:328,1,120,2|0,3:2|0:0,0:0:0:0:
356,372,45730,2,0,P|432:372|476:324,1,120,2|0,3:2|0:0,0:0:0:0:
504,272,46222,5,0,3:0:0:0:
504,272,46386,2,0,P|500:224|496:144,1,120,8|0,0:0|3:0,0:0:0:0:
448,84,46878,1,0,3:0:0:0:
388,144,47042,2,0,P|352:148|316:140,1,60,8|0,0:0|0:0,0:0:0:0:
232,104,47370,6,0,P|168:96|112:128,1,120,2|0,3:2|0:0,0:0:0:0:
88,196,47861,2,0,P|92:236|100:316,1,120,2|0,3:2|0:0,0:0:0:0:
180,348,48353,2,0,P|172:268|168:228,1,120,2|0,3:2|3:0,0:0:0:0:
244,188,48845,6,0,B|284:180|284:180|364:192,1,120,8|0,0:0|3:0,0:0:0:0:
448,196,49337,2,0,L|452:144,3,30,8|2|2|2,0:3|0:0|0:0|0:0,0:0:0:0:
468,128,49665,2,0,L|472:76,3,30,6|2|2|2,0:0|0:0|0:0|0:0,0:0:0:0:
488,60,49993,6,0,P|424:56|348:52,1,120,6|0,0:0|0:0,0:0:0:0:
292,16,50484,1,2,0:0:0:0:
236,76,50648,2,0,P|240:100|244:156,1,60,10|0,0:0|0:0,0:0:0:0:
212,216,50976,2,0,P|216:240|220:296,1,60,2|0,0:0|0:0,0:0:0:0:
124,316,51304,5,2,3:2:0:0:
124,316,51468,2,0,P|120:260|108:184,1,120,10|0,0:0|0:0,0:0:0:0:
104,112,51960,2,0,P|140:92|176:88,1,60,10|0,0:0|0:0,0:0:0:0:
232,44,52288,2,0,P|271:55|299:77,1,60,2|0,0:0|0:0,0:0:0:0:
372,52,52616,6,0,P|368:92|364:172,1,104.999996795654,0|0,3:0|3:0,0:0:0:0:
436,308,53271,2,0,P|438:255|443:203,1,104.999996795654,0|0,3:0|3:0,0:0:0:0:
288,136,53927,2,0,P|284:176|280:256,1,104.999996795654,0|0,3:0|3:0,0:0:0:0:
404,100,54583,5,8,0:0:0:0:
404,100,54747,1,8,0:0:0:0:
248,44,55075,6,0,B|155:28|203:80|92:52,1,150,6|0,0:0|0:0,0:0:0:0:
20,46,55566,2,0,P|26:79|32:144,1,75,10|0,0:0|0:0,0:0:0:0:
82,185,55894,2,0,P|76:218|70:283,2,75,2|2|8,0:0|0:0|0:0,0:0:0:0:
170,127,56386,6,0,P|234:123|338:115,1,150,2|0,3:2|0:0,0:0:0:0:
392,156,56878,2,0,P|432:152|476:148,1,75,10|0,0:0|0:0,0:0:0:0:
492,228,57206,1,2,0:0:0:0:
492,228,57370,2,0,P|454:231|417:235,1,75,2|8,0:0|0:0,0:0:0:0:
312,244,57697,6,0,P|284:284|308:388,1,150,2|0,3:2|0:0,0:0:0:0:
216,372,58189,1,10,0:0:0:0:
216,372,58353,2,0,P|176:368|128:368,1,75,2|0,0:0|0:0,0:0:0:0:
64,340,58681,2,0,P|52:296|56:260,1,75,2|8,0:0|0:0,0:0:0:0:
96,168,59009,5,2,3:2:0:0:
176,196,59173,2,0,P|216:192|264:192,1,75,2|2,3:2|3:2,0:0:0:0:
324,156,59501,2,0,P|364:160|412:160,1,75,10|2,3:2|3:2,0:0:0:0:
472,120,59829,1,2,3:2:0:0:
472,120,59993,1,2,3:2:0:0:
412,68,60156,2,0,P|374:67|337:63,1,75,8|2,0:0|0:0,0:0:0:0:
240,20,60484,6,0,B|248:64|248:64|240:176,1,150,6|8,0:0|0:0,0:0:0:0:
172,216,60976,2,0,P|132:208|92:208,1,75,2|0,0:0|0:0,0:0:0:0:
24,244,61304,2,0,P|28:284|32:336,1,75,2|8,0:0|0:0,0:0:0:0:
128,360,61632,6,0,B|216:382|187:326|284:356,1,150,2|2,3:2|0:0,0:0:0:0:
356,372,62125,1,8,0:0:0:0:
356,372,62288,2,0,P|352:328|348:280,1,75,2|0,0:0|0:0,0:0:0:0:
372,216,62616,2,0,P|368:172|364:124,1,75,2|8,0:0|0:0,0:0:0:0:
312,76,62943,1,2,0:0:0:0:
216,120,63107,6,0,P|180:116|128:112,1,75,2|2,3:2|0:0,0:0:0:0:
68,76,63435,1,10,0:0:0:0:
28,148,63599,2,0,P|32:208|36:308,1,150,2|0,0:0|0:0,0:0:0:0:
100,362,64091,1,10,0:0:0:0:
100,362,64255,1,2,0:0:0:0:
128,264,64419,6,0,P|176:256|228:260,1,75,12|2,0:0|0:0,0:0:0:0:
234,357,64747,2,0,P|271:356|308:349,1,75,10|2,0:0|0:0,0:0:0:0:
364,259,65075,1,10,0:0:0:0:
364,259,65238,1,10,0:0:0:0:
503,341,65566,6,0,P|499:293|491:197,1,134.999995880127,6|0,0:0|0:0,0:0:0:0:
413,182,66058,1,2,0:0:0:0:
413,182,66222,2,0,P|417:218|421:266,1,67.4999979400635,2|8,0:0|0:0,0:0:0:0:
340,268,66550,2,0,P|336:234|333:200,1,67.4999979400635,2|0,0:0|0:0,0:0:0:0:
242,173,66878,6,0,P|208:174|175:181,1,67.4999979400635,2|0,3:2|0:0,0:0:0:0:
105,223,67206,2,0,P|114:279|123:367,1,134.999995880127,10|0,0:0|0:0,0:0:0:0:
43,375,67697,1,10,0:0:0:0:
43,375,67861,2,0,P|39:339|34:288,1,67.4999979400635,2|0,0:0|0:0,0:0:0:0:
23,227,68189,1,2,0:0:0:0:
59,139,68353,6,0,B|107:123|107:123|204:136,1,134.999995880127,6|0,0:0|0:0,0:0:0:0:
251,79,68845,1,2,0:0:0:0:
251,79,69009,1,8,0:0:0:0:
329,100,69173,2,0,P|325:152|321:260,1,134.999995880127,2|2,0:0|0:0,0:0:0:0:
365,318,69665,5,10,3:2:0:0:
365,318,69829,1,8,0:0:0:0:
424,260,69993,2,0,P|424:244|428:168,1,67.4999979400635,0|0,0:0|0:0,0:0:0:0:
460,120,70320,2,0,P|460:104|464:28,1,67.4999979400635,10|10,3:2|3:2,0:0:0:0:
396,4,70648,1,10,3:2:0:0:
324,44,70812,1,10,3:2:0:0:
220,20,70976,6,0,P|156:24|52:32,1,150,6|8,0:0|0:0,0:0:0:0:
64,112,71468,2,0,P|104:108|164:104,1,75,2|0,0:0|0:0,0:0:0:0:
216,132,71796,1,2,0:0:0:0:
216,132,71960,2,0,P|256:128|316:124,1,75,8|2,0:0|0:0,0:0:0:0:
378,183,72288,6,0,P|383:248|391:353,1,150,6|8,0:0|0:0,0:0:0:0:
471,338,72779,1,2,0:0:0:0:
471,338,72943,2,0,P|467:294|463:246,1,75,2|2,0:0|0:0,0:0:0:0:
495,186,73271,2,0,P|491:142|487:94,1,75,10|2,0:0|0:0,0:0:0:0:
412,40,73599,6,0,P|352:20|276:60,1,150,6|10,0:0|0:0,0:0:0:0:
228,124,74091,1,0,0:0:0:0:
156,88,74255,1,2,0:0:0:0:
156,88,74419,2,0,P|104:92|72:92,1,75,2|8,0:0|0:0,0:0:0:0:
12,48,74747,1,2,0:0:0:0:
0,152,74911,6,0,P|8:208|16:308,1,150,6|0,0:0|0:0,0:0:0:0:
64,368,75402,2,0,P|104:356|140:352,1,75,6|0,0:0|0:0,0:0:0:0:
216,324,75730,1,8,0:0:0:0:
216,324,75812,1,8,0:0:0:0:
216,324,75894,2,0,P|256:336|292:340,1,75,12|0,0:0|0:0,0:0:0:0:
392,368,76222,6,0,P|364:292|399:218,1,150,6|10,0:0|0:0,0:0:0:0:
448,172,76714,1,0,0:0:0:0:
376,132,76878,2,0,P|340:136|292:140,2,75,2|0|10,0:0|0:0|0:0,0:0:0:0:
388,28,77370,6,0,P|304:36|232:40,1,150,6|0,0:0|0:0,0:0:0:0:
156,24,77862,2,0,P|160:48|164:104,1,75,10|0,0:0|0:0,0:0:0:0:
128,176,78190,1,2,0:0:0:0:
92,252,78354,1,8,0:0:0:0:
92,252,78436,1,8,0:0:0:0:
92,252,78517,2,0,P|96:276|100:332,1,75,8|8,0:3|0:3,0:0:0:0:
196,372,78845,6,0,B|272:400|272:332|360:368,1,150,6|10,0:0|0:0,0:0:0:0:
420,384,79337,1,0,0:0:0:0:
460,312,79501,2,0,P|456:264|452:220,1,75,2|0,0:0|0:0,0:0:0:0:
416,164,79828,1,10,0:0:0:0:
320,212,79993,6,0,P|240:204|144:200,1,150,6|0,0:0|0:0,0:0:0:0:
108,144,80485,2,0,P|60:140|20:136,2,75,10|0|2,0:0|0:0|0:0,0:0:0:0:
184,112,80977,1,8,0:0:0:0:
260,80,81140,2,0,P|297:83|334:86,1,75,10|0,0:0|0:0,0:0:0:0:
432,48,81468,6,0,P|428:76|424:148,1,75,6|0,0:0|0:0,0:0:0:0:
396,200,81796,1,10,0:0:0:0:
360,272,81960,1,10,0:0:0:0:
360,272,82042,1,10,0:0:0:0:
360,272,82124,2,0,P|364:300|368:372,1,75,8|0,0:0|0:0,0:0:0:0:
292,384,82453,1,10,0:0:0:0:
220,308,82616,6,0,P|156:276|76:316,1,150,6|0,0:0|0:0,0:0:0:0:
20,348,83108,1,10,0:0:0:0:
0,268,83272,2,0,P|4:228|8:168,1,75,0|2,0:0|0:0,0:0:0:0:
64,132,83599,1,8,0:0:0:0:
64,132,83681,1,8,0:0:0:0:
64,132,83763,2,0,P|96:120|152:116,1,75,8|8,0:3|0:3,0:0:0:0:
220,178,84091,5,14,0:0:0:0:
220,178,84255,1,10,0:0:0:0:
417,104,84584,5,14,0:0:0:0:
417,104,84748,1,10,0:0:0:0:
222,25,85076,5,14,0:0:0:0:
222,25,85238,1,10,0:0:0:0:
302,219,85566,5,14,0:0:0:0:
329,117,85730,1,10,0:0:0:0:
228,147,85894,1,14,0:0:0:0:
