osu file format v14

[General]
AudioFilename: audio.mp3
AudioLeadIn: 0
PreviewTime: 19357
Countdown: 0
SampleSet: Soft
StackLeniency: 0.7
Mode: 0
LetterboxInBreaks: 0
WidescreenStoryboard: 0

[Editor]
Bookmarks: 2515,10936,19357,27778,36199,44620,53041,61462,69883,78304,87646
DistanceSpacing: 1.2
BeatDivisor: 4
GridSize: 32
TimelineZoom: 1.7

[Metadata]
Title:Nemureru Honnou (TV Size)
TitleUnicode:眠れる本能 (TV Size)
Artist:YURiKA
ArtistUnicode:YURiKA
Creator:eiri-
Version:Insane
Source:BEASTARS
Tags:Ayyri Trynna ビースターズ Ending ED 2 Japanese Anime Furry Sleeping Instinct
BeatmapID:2418213
BeatmapSetID:1158834

[Difficulty]
HPDrainRate:5
CircleSize:4
OverallDifficulty:7
ApproachRate:9
SliderMultiplier:1.6
SliderTickRate:1

[Events]
//Background and Video events
0,0,"BEASTARS.jpg",0,0
Video,0,"ED.mp4"
//Break Periods
//Storyboard Layer 0 (Background)
//Storyboard Layer 1 (Fail)
//Storyboard Layer 2 (Pass)
//Storyboard Layer 3 (Foreground)
//Storyboard Layer 4 (Overlay)
//Storyboard Sound Samples

[TimingPoints]
2515,526.315789473684,4,2,1,60,1,0
10936,-100,4,2,1,70,0,0
19357,-66.6666666666667,4,2,1,80,0,1
23337,-25,4,2,1,90,0,1
23567,-66.6666666666667,4,2,1,80,0,1
26725,-25,4,2,1,90,0,1
27416,-200,4,2,1,85,0,0
27778,-66.6666666666667,4,2,1,80,0,1
31758,-25,4,2,1,90,0,1
31988,-66.6666666666667,4,2,1,80,0,1
35014,-66.6666666666667,4,2,1,75,0,0
36199,-66.6666666666667,4,2,1,60,0,0
43567,-400,4,2,1,80,0,0
43995,-133.333333333333,4,2,1,70,0,0
44620,-100,4,2,1,60,0,0
48830,-100,4,2,1,65,0,0
53041,-80,4,2,1,70,0,0
56692,-133.333333333333,4,2,1,70,0,0
57251,-80,4,2,1,70,0,0
59357,-66.6666666666667,4,2,1,70,0,0
59883,-57.1428571428571,4,2,1,70,0,0
60409,-50,4,2,1,70,0,0
61462,-80,4,2,1,70,0,0
65672,-80,4,2,1,60,0,0
67778,-80,4,2,1,70,0,0
69357,-80,4,2,1,75,0,0
69883,-50,4,2,1,80,0,1
73863,-25,4,2,1,90,0,1
74093,-50,4,2,1,80,0,1
77251,-25,4,2,1,90,0,1
77942,-200,4,2,1,85,0,0
78304,-50,4,2,1,80,0,1
82284,-25,4,2,1,90,0,1
82514,-50,4,2,1,80,0,1
87646,-50,4,2,1,80,0,0

[Colours]
Combo1 : 245,154,202
Combo2 : 145,210,247
Combo3 : 184,147,247
Combo4 : 247,223,94

[HitObjects]
96,320,2515,5,14,0:0:0:0:
96,320,2778,1,10,0:0:0:0:
96,320,3041,2,0,P|166:310|225:291,2,120,2|2|8,1:2|1:2|0:0,0:0:0:0:
16,272,4061,1,2,1:2:0:0:
21,286,4225,1,10,0:0:0:0:
416,320,4587,5,10,0:0:0:0:
416,320,4850,1,10,0:0:0:0:
416,320,5146,2,0,P|346:310|287:291,2,120,2|2|8,1:2|1:2|0:0,0:0:0:0:
496,272,6199,1,2,1:2:0:0:
491,286,6330,1,10,0:0:0:0:
441,170,6626,1,2,1:2:0:0:
443,177,6692,5,10,0:0:0:0:
379,234,6955,1,10,0:0:0:0:
297,141,7251,2,0,B|326:97|326:97|408:120,2,120,2|2|8,1:2|1:2|0:0,0:0:0:0:
256,256,8304,1,2,1:2:0:0:
71,170,8732,1,2,1:2:0:0:
66,184,8831,5,10,0:0:0:0:
133,234,9093,1,10,0:0:0:0:
215,141,9356,2,0,B|186:97|186:97|104:120,2,120,2|2|8,1:2|1:2|0:0,0:0:0:0:
256,248,10322,1,2,1:2:0:0:
256,256,10409,1,2,1:2:0:0:
256,160,10574,6,0,L|256:75,1,80,14|2,0:0|1:2,0:0:0:0:
276,45,10936,5,14,0:0:0:0:
462,110,11199,1,10,0:0:0:0:
392,9,11462,2,0,L|368:93,1,80,2|0,1:2|0:0,0:0:0:0:
341,98,11889,2,0,L|353:173,1,70,2|0,1:2|0:0,0:0:0:0:
337,207,12251,1,8,0:0:0:0:
477,373,12514,1,2,1:2:0:0:
500,287,12646,2,0,P|461:278|417:304,1,90,10|2,0:0|1:2,0:0:0:0:
343,344,13041,6,0,L|231:330,1,80,10|2,0:0|0:0,0:0:0:0:
228,353,13436,1,10,0:0:0:0:
228,353,13567,1,2,1:2:0:0:
264,187,13830,2,0,L|274:241,1,53.3333333333333,10|2,0:0|1:2,0:0:0:0:
303,242,14093,2,0,L|289:163,1,80,10|10,0:0|0:0,0:0:0:0:
280,74,14521,1,10,0:0:0:0:
280,74,14620,2,0,L|293:19,1,50,2|10,1:2|0:0,0:0:0:0:
104,61,15014,1,2,1:2:0:0:
131,37,15146,6,0,L|136:133,1,80,10|2,0:0|0:0,0:0:0:0:
161,144,15541,1,10,0:0:0:0:
161,144,15672,2,0,P|123:152|96:177,1,70,2|10,1:2|0:0,0:0:0:0:
48,243,16100,2,0,B|57:290|57:290|70:305|70:305|81:354,1,110,2|10,1:2|0:0,0:0:0:0:
103,368,16593,1,10,0:0:0:0:
123,376,16725,2,0,L|170:356,1,50,2|2,1:2|1:2,0:0:0:0:
156,376,16988,1,10,0:0:0:0:
280,284,17251,5,2,1:2:0:0:
311,304,17416,2,0,L|320:229,1,70,10|0,0:0|1:0,0:0:0:0:
326,191,17745,1,2,1:2:0:0:
360,118,17876,2,0,P|398:112|428:137,1,80,10|0,0:0|1:0,0:0:0:0:
494,223,18271,2,0,L|435:237,1,60,2|2,1:2|0:0,0:0:0:0:
440,263,18534,2,0,L|386:249,1,50,10|2,0:0|0:0,0:0:0:0:
361,271,18797,1,6,1:2:0:0:
361,271,18962,2,0,L|380:367,1,80,10|0,0:0|0:0,0:0:0:0:
232,380,19357,6,0,B|167:363|167:363|185:245,1,180.000006866455,14|0,0:0|0:0,0:0:0:0:
213,83,19883,2,0,B|278:100|278:100|265:187,1,120.000004577637,2|0,1:2|0:0,0:0:0:0:
164,239,20278,1,2,1:2:0:0:
164,239,20409,2,0,B|145:206|145:206|158:166,1,75.000002861023,10|2,0:0|0:0,0:0:0:0:
342,246,20837,2,0,B|388:263|388:263|453:236|438:164,1,165.000006294251,10|10,0:0|0:0,0:0:0:0:
407,74,21330,6,0,P|421:163|508:133,1,180.000006866455,2|10,1:2|0:0,0:0:0:0:
268,192,21857,1,10,0:0:0:0:
268,192,21988,2,0,P|290:136|292:118,1,75.000002861023,2|2,1:2|0:0,0:0:0:0:
144,28,22416,2,0,P|189:43|195:155,1,165.000006294251,2|10,1:2|0:0,0:0:0:0:
167,184,22909,1,10,0:0:0:0:
18,158,23041,2,0,P|62:136|123:130,1,60.0000022888184,2|10,1:2|0:0,0:0:0:0:
120,323,23337,6,2,L|81:127,1,160,10|2,0:0|1:2,0:1:0:0:
0,351,23567,6,0,B|51:310|51:310|174:374,1,180.000006866455,10|10,0:0|0:0,0:0:0:0:
208,231,24093,2,0,B|163:271|163:271|57:226,1,120.000004577637,2|10,1:2|0:0,0:0:0:0:
181,380,24488,1,2,1:2:0:0:
181,380,24620,2,0,P|230:341|248:337,1,75.000002861023,10|2,0:0|0:0,0:0:0:0:
472,305,25047,2,0,B|481:336|457:350|457:350|340:316,1,165.000006294251,2|10,1:2|0:0,0:0:0:0:
189,265,25541,6,0,P|264:243|297:194,1,120.000004577637,2|0,1:2|0:0,0:0:0:0:
131,149,25936,2,0,L|146:228,1,60.0000022888184,10|0,0:0|0:0,0:0:0:0:
315,69,26199,2,0,L|300:148,1,60.0000022888184,2|0,1:2|0:0,0:0:0:0:
60,71,26462,1,10,0:0:0:0:
60,71,26725,6,2,P|158:109|197:193,1,160,10|0,0:0|0:0,0:1:0:0:
353,5,26988,2,2,P|293:55|273:132,1,160,10|0,0:0|0:0,0:1:0:0:
196,0,27251,1,2,1:2:0:0:
200,13,27416,6,2,L|210:55,1,40,14|0,0:0|1:0,0:1:0:0:
273,132,27778,6,0,B|286:179|286:179|302:198|302:198|314:242,1,120.000004577637,14|10,0:0|0:0,0:0:0:0:
195,371,28304,2,0,P|226:322|283:325,1,120.000004577637,2|8,1:2|0:0,0:0:0:0:
375,361,28743,1,2,1:2:0:0:
373,371,28830,2,0,L|296:349,1,75.000002861023,10|2,0:0|0:0,0:0:0:0:
500,268,29258,2,0,B|532:188|444:182|487:101,1,165.000006294251,2|10,1:2|0:0,0:0:0:0:
490,0,29784,6,0,P|456:45|395:10,1,135.000005149841,2|2,1:2|0:0,0:0:0:0:
300,24,30179,2,0,P|313:50|318:81,1,60.0000022888184,10|10,0:0|0:0,0:0:0:0:
368,161,30409,1,2,1:2:0:0:
392,184,30541,2,0,L|319:200,1,75.000002861023,10|2,0:0|0:0,0:0:0:0:
359,299,30837,2,0,L|240:283,1,120.000004577637,2|2,1:2|0:0,0:0:0:0:
156,334,31199,1,10,0:0:0:0:
182,170,31462,1,2,1:2:0:0:
41,227,31758,6,2,B|147:243|147:243|171:229|165:198,1,160,10|2,0:0|1:2,0:1:0:0:
168,51,31988,6,0,L|182:170,1,120.000004577637,10|10,0:0|0:0,0:0:0:0:
283,65,32514,1,6,1:2:0:0:
370,43,32679,2,0,P|405:61|422:61,1,45.0000017166138,10|2,0:0|1:2,0:0:0:0:
471,129,32942,1,2,1:2:0:0:
471,129,33041,2,0,L|446:197,1,60.0000022888184,10|2,0:0|1:2,0:0:0:0:
477,303,33304,2,0,L|421:283,1,60.0000022888184,10|2,0:0|0:0,0:0:0:0:
302,312,33567,2,0,L|332:238,1,75.000002861023,2|2,1:2|1:2,0:0:0:0:
329,231,33830,2,0,L|351:168,1,60.0000022888184,10|0,0:0|0:0,0:0:0:0:
279,97,34093,5,2,1:2:0:0:
289,62,34258,1,2,1:2:0:0:
179,231,34488,5,2,1:2:0:0:
204,257,34620,1,2,1:2:0:0:
112,77,34850,5,2,1:2:0:0:
76,86,35014,1,2,1:2:0:0:
163,317,35541,5,10,0:0:0:0:
183,290,35672,2,0,L|177:207,1,60.0000022888184,2|0,1:2|0:0,0:0:0:0:
269,222,35936,2,0,L|273:281,1,60.0000022888184,2|0,1:2|0:0,0:0:0:0:
283,381,36199,5,10,0:0:0:0:
323,354,36462,1,10,0:0:0:0:
379,365,36725,1,10,0:0:0:0:
133,365,37153,1,2,1:2:0:0:
133,365,37778,1,2,1:2:0:0:
283,3,38304,5,10,0:0:0:0:
323,30,38567,1,10,0:0:0:0:
126,8,39093,1,10,0:0:0:0:
133,19,39258,1,2,1:2:0:0:
283,3,39620,1,10,0:0:0:0:
133,19,39883,1,2,1:2:0:0:
126,8,40047,1,10,0:0:0:0:
283,381,40409,5,10,0:0:0:0:
323,354,40672,1,10,0:0:0:0:
379,365,40935,1,10,0:0:0:0:
133,365,41363,1,2,1:2:0:0:
283,381,41725,1,10,0:0:0:0:
133,365,41988,1,2,1:2:0:0:
283,3,42514,5,10,0:0:0:0:
323,30,43041,1,10,0:0:0:0:
379,19,43479,1,10,0:0:0:0:
366,112,43567,6,2,L|363:85,1,20,2|0,1:2|0:0,0:1:0:0:
359,3,43995,6,2,P|352:50|348:120,1,112.500004291535,14|0,0:0|0:0,0:1:0:0:
343,253,44620,5,10,0:0:0:0:
439,198,44883,1,10,0:0:0:0:
247,185,45146,1,2,0:0:0:0:
348,362,45409,1,10,0:0:0:0:
333,354,45574,2,0,B|273:341|287:385|221:373,1,110,2|10,1:2|0:0,0:0:0:0:
21,371,46199,1,2,1:2:0:0:
101,231,46462,2,0,L|111:294,1,40,2|0,0:0|0:0,0:0:0:0:
193,279,46725,6,0,L|183:199,1,80,10|10,0:0|0:0,0:0:0:0:
166,57,47153,1,2,1:2:0:0:
176,66,47251,2,0,L|255:55,1,80,2|8,0:0|0:0,0:0:0:0:
369,39,47778,1,2,0:0:0:0:
310,192,47942,1,2,1:2:0:0:
316,206,48041,2,0,L|308:258,1,53.3333333333333,10|0,0:0|0:0,0:0:0:0:
387,267,48304,2,0,L|394:214,1,53.3333333333333,2|0,1:2|0:0,0:0:0:0:
405,204,48567,1,10,0:0:0:0:
375,356,48830,6,0,L|296:341,1,80,6|2,1:2|1:2,0:0:0:0:
215,367,49225,1,14,0:0:0:0:
84,256,49488,5,2,0:0:0:0:
129,323,49620,2,0,P|145:311|155:294,1,40,14|0,0:0|0:0,0:0:0:0:
154,215,49883,1,2,1:2:0:0:
154,215,50014,1,14,0:0:0:0:
145,66,50278,6,0,L|136:48,1,20,2|2,1:2|1:2,0:0:0:0:
177,72,50409,2,0,L|224:48,1,50,14|10,0:0|0:0,0:0:0:0:
301,75,50672,1,10,0:0:0:0:
286,146,50804,6,0,P|317:122|356:121,1,80,14|0,0:0|1:0,0:0:0:0:
441,33,51166,2,0,L|430:81,1,40,14|0,0:0|1:0,0:0:0:0:
450,150,51429,2,0,L|437:202,1,50,10|4,0:0|1:2,0:0:0:0:
417,328,51857,5,0,1:0:0:0:
395,301,51988,2,0,P|354:305|318:324,1,80,14|0,0:0|1:0,0:0:0:0:
185,316,52514,6,0,L|126:303,1,53.3333333333333,2|10,1:2|0:0,0:0:0:0:
115,315,52778,1,10,0:0:0:0:
86,165,52942,1,2,0:0:0:0:
105,187,53041,6,0,L|89:94,1,50,14|0,0:0|0:0,0:0:0:0:
160,37,53304,2,0,L|173:115,1,66.6666666666667,10|2,0:0|0:0,0:0:0:0:
166,20,53567,2,0,L|69:7,1,50,2|0,1:2|0:0,0:0:0:0:
200,137,53830,2,0,L|271:124,1,62.5,10|2,0:0|1:2,0:0:0:0:
278,113,54093,6,0,L|180:130,1,100,10|10,0:0|0:0,0:0:0:0:
422,87,54532,2,0,P|403:27|331:35,1,133.333333333333,10|0,0:0|1:0,0:0:0:0:
363,184,55047,6,0,L|383:82,1,100,10|10,0:0|0:0,0:0:0:0:
392,256,55409,1,10,0:0:0:0:
294,240,55574,1,2,0:0:0:0:
294,240,55672,2,0,P|240:195|222:198,1,50,2|8,1:2|0:0,0:0:0:0:
392,256,55935,2,0,P|409:239|432:231,1,50,2|0,0:0|1:0,0:0:0:0:
327,348,56166,6,0,L|210:316,1,112.5,10|8,0:0|0:0,0:0:0:0:
66,373,56593,1,8,0:0:0:0:
66,373,56692,6,2,B|62:340|62:340|74:316|74:316|66:270,1,105.000004005432,6|2,1:2|1:2,0:1:0:0:
50,149,57251,6,0,L|132:168,1,66.6666666666667,10|2,0:0|0:0,0:0:0:0:
36,157,57514,2,0,L|30:228,1,50,10|2,0:0|0:0,0:0:0:0:
2,49,57778,2,0,P|24:15|60:4,1,66.6666666666667,2|0,1:2|0:0,0:0:0:0:
79,21,58041,2,0,L|85:89,1,62.5,10|0,0:0|1:2,0:0:0:0:
214,166,58304,6,0,L|116:183,1,100,10|2,0:0|0:0,0:0:0:0:
115,183,58699,1,8,0:0:0:0:
252,247,58830,2,0,L|260:179,1,62.5,2|8,1:2|0:0,0:0:0:0:
262,167,59093,1,2,0:0:0:0:
219,43,59269,1,2,1:2:0:0:
219,43,59357,6,2,P|292:68|362:66,1,120.000004577637,14|8,0:0|0:0,0:1:0:0:
409,50,59795,1,8,0:0:0:0:
491,256,59883,6,2,P|447:191|432:113,1,140.000001335144,6|8,1:2|0:0,0:1:0:0:
409,50,60311,1,0,1:0:0:0:
207,156,60409,6,2,P|283:147|362:100,1,160,14|8,0:0|0:0,0:1:0:0:
409,50,60848,1,8,0:0:0:0:
356,329,60936,6,0,P|349:289|352:249,1,80,2|8,1:2|0:0,0:0:0:0:
398,128,61199,2,0,P|373:159|356:224,1,100,2|2,1:2|1:2,0:0:0:0:
393,364,61462,5,10,0:0:0:0:
241,352,61725,2,0,L|174:347,1,66.6666666666667,10|2,0:0|0:0,0:0:0:0:
78,362,61988,2,0,P|79:313|113:278,1,100,2|10,1:2|0:0,0:0:0:0:
195,217,62427,1,2,1:2:0:0:
211,227,62514,2,0,L|201:154,1,66.6666666666667,10|2,0:0|0:0,0:0:0:0:
179,5,62909,1,10,0:0:0:0:
189,18,63041,2,0,L|265:31,1,50,10|0,0:0|0:0,0:0:0:0:
340,44,63304,1,2,1:2:0:0:
417,7,63436,6,0,L|400:120,1,100,10|0,0:0|0:0,0:0:0:0:
412,133,63830,2,0,L|403:182,1,50,10|2,0:0|0:0,0:0:0:0:
436,291,64061,1,6,1:2:0:0:
436,291,64225,2,0,P|412:282|387:281,1,50,10|2,0:0|0:0,0:0:0:0:
297,249,64488,2,0,L|315:364,1,112.5,2|2,1:2|0:0,0:0:0:0:
203,251,64883,2,0,P|204:226|219:197,1,50,2|2,1:2|0:0,0:0:0:0:
76,241,65113,2,0,L|93:308,1,62.5,10|0,0:0|0:0,0:0:0:0:
137,135,65409,2,0,L|79:131,1,50,10|0,0:0|0:0,0:0:0:0:
166,30,65672,6,0,B|247:27|227:81|302:78,1,150,14|0,0:0|0:0,0:0:0:0:
318,99,66166,1,2,0:0:0:0:
460,32,66725,6,0,L|447:113,1,75,2|2,1:2|0:0,0:0:0:0:
480,177,67087,1,2,0:0:0:0:
415,259,67251,2,0,P|449:255|479:268,2,62.5,2|2|2,1:2|0:0|0:0,0:0:0:0:
404,271,67679,1,2,1:2:0:0:
395,285,67778,6,0,L|326:271,1,62.5,2|2,1:2|0:0,0:0:0:0:
322,264,68008,2,0,L|246:278,1,75,10|0,0:0|0:0,0:0:0:0:
240,273,68271,1,2,1:2:0:0:
149,348,68468,2,0,P|149:298|127:259,1,87.5,10|2,0:0|1:2,0:0:0:0:
111,247,68797,1,2,1:2:0:0:
0,297,68995,1,2,1:2:0:0:
11,306,69061,2,0,L|4:359,1,50,10|10,0:0|0:0,0:0:0:0:
0,202,69357,5,6,1:2:0:0:
275,157,69521,1,10,0:0:0:0:
160,18,69883,6,0,B|240:2|240:2|281:185,1,240,14|0,0:0|0:0,0:0:0:0:
322,367,70409,2,0,B|242:383|242:383|208:237,1,160,2|0,1:2|0:0,0:0:0:0:
402,229,70804,1,2,1:2:0:0:
402,229,70935,2,0,B|421:196|421:196|401:124,1,100,10|2,0:0|0:0,0:0:0:0:
192,224,71363,2,0,B|132:214|132:214|117:164|117:164|3:150,1,220,10|0,0:0|0:0,0:0:0:0:
329,16,71857,6,0,P|364:88|330:253,1,240,2|10,1:2|0:0,0:0:0:0:
261,205,72383,1,10,0:0:0:0:
261,205,72514,2,0,P|285:149|275:96,1,100,2|2,1:2|0:0,0:0:0:0:
11,96,72942,2,0,P|94:82|219:2,1,220,2|10,1:2|0:0,0:0:0:0:
119,106,73468,1,10,0:0:0:0:
119,106,73567,2,0,L|131:-1,1,100,2|10,1:2|0:0,0:0:0:0:
52,194,73863,6,2,B|118:142|118:142|180:204,1,160,10|2,0:0|1:2,0:1:0:0:
167,340,74093,6,0,P|109:377|127:267,1,240,10|10,0:0|0:0,0:0:0:0:
299,290,74620,2,0,B|376:289|352:200|434:198,1,160,2|10,1:2|0:0,0:0:0:0:
460,371,75047,1,2,1:2:0:0:
460,371,75146,2,0,P|435:310|452:266,1,100,10|2,0:0|0:0,0:0:0:0:
289,63,75574,2,0,B|326:30|377:37|377:37|317:96|313:158,1,220,2|10,1:2|0:0,0:0:0:0:
302,322,76067,6,0,P|245:251|167:242,1,160,2|0,1:2|0:0,0:0:0:0:
22,307,76462,2,0,L|1:207,1,80,10|0,0:0|0:0,0:0:0:0:
223,146,76725,2,0,L|202:246,1,80,2|0,1:2|0:0,0:0:0:0:
85,53,76988,1,10,0:0:0:0:
85,53,77251,6,2,P|175:61|220:187,1,160,10|0,0:0|0:0,0:1:0:0:
495,79,77514,2,2,P|416:124|429:257,1,160,10|0,0:0|0:0,0:1:0:0:
334,20,77778,1,2,1:2:0:0:
334,20,77942,6,2,L|328:61,1,40,14|0,0:0|1:0,0:1:0:0:
218,111,78304,6,0,L|239:270,1,160,14|10,0:0|0:0,0:0:0:0:
261,351,78699,1,2,0:0:0:0:
313,291,78830,2,0,P|240:269|187:324,1,160,2|8,1:2|0:0,0:0:0:0:
78,351,79258,1,2,1:2:0:0:
96,371,79357,2,0,L|88:256,1,100,10|2,0:0|0:0,0:0:0:0:
192,98,79784,2,0,B|142:97|142:97|101:118|101:118|42:115,1,140,2|0,1:2|0:0,0:0:0:0:
112,29,80146,1,10,0:0:0:0:
112,29,80311,6,0,L|128:200,1,160,2|0,1:2|1:0,0:0:0:0:
189,233,80705,2,0,L|296:220,1,100,10|10,0:0|0:0,0:0:0:0:
383,214,80936,1,2,1:2:0:0:
383,214,81100,1,10,0:0:0:0:
269,343,81363,2,0,P|330:297|397:316,1,140,2|0,1:2|1:0,0:0:0:0:
495,353,81725,2,0,L|485:263,1,80,10|0,0:0|0:0,0:0:0:0:
469,123,81988,1,2,1:2:0:0:
294,99,82284,6,2,B|389:77|364:152|443:125,1,160,10|2,0:0|1:2,0:1:0:0:
336,11,82514,6,0,P|243:21|200:85,1,160,14|10,0:0|0:0,0:0:0:0:
263,203,83041,2,0,L|271:321,1,100,2|10,1:2|0:0,0:0:0:0:
91,313,83403,2,0,L|203:322,1,100,2|10,1:2|0:0,0:0:0:0:
211,353,83655,1,2,1:2:0:0:
211,353,83743,2,0,L|154:349,1,53.3333333333333,2|10,0:0|0:0,0:0:0:0:
78,291,83995,5,2,0:0:0:0:
78,291,84093,2,0,L|66:175,1,100,2|2,1:2|1:2,0:0:0:0:
86,154,84357,2,0,L|76:58,1,80,10|0,0:0|1:0,0:0:0:0:
203,73,84620,5,2,1:2:0:0:
194,106,84784,1,2,1:2:0:0:
391,85,85047,5,2,1:2:0:0:
366,60,85146,1,2,1:2:0:0:
287,242,85442,5,2,1:2:0:0:
320,233,85574,1,2,1:2:0:0:
299,128,85848,5,10,0:0:0:0:
299,128,85936,2,0,L|318:222,1,80,2|2,1:2|1:2,0:0:0:0:
365,297,86199,2,0,L|350:373,1,60,2|10,1:2|0:0,0:0:0:0:
353,355,86462,1,10,0:0:0:0:
145,345,86725,5,2,1:2:0:0:
121,355,86889,1,2,1:2:0:0:
97,212,87153,5,2,1:2:0:0:
71,208,87252,1,2,1:2:0:0:
145,73,87514,5,2,1:2:0:0:
124,56,87646,1,6,1:2:0:0:
