osu file format v14

[General]
AudioFilename: audio.mp3
AudioLeadIn: 0
PreviewTime: 55223
Countdown: 0
SampleSet: Normal
StackLeniency: 0.7
Mode: 0
LetterboxInBreaks: 0
WidescreenStoryboard: 1

[Editor]
Bookmarks: 44390,44557,44723,44807,44890,45057,45223,45390,46223,46307,46390,46473,46557,46723,47057,47223,47557,76223,76390,76557,76890,77223,77557
DistanceSpacing: 0.8
BeatDivisor: 4
GridSize: 4
TimelineZoom: 1.4

[Metadata]
Title:MIND CONDUCTOR (TV size)
TitleUnicode:MIND CONDUCTOR (TV size)
Artist:YURiKA
ArtistUnicode:YURiKA
Creator:H i r o k i
Version:Insane
Source:リトルウィッチアカデミア
Tags:
BeatmapID:2167151
BeatmapSetID:857972

[Difficulty]
HPDrainRate:6
CircleSize:3.8
OverallDifficulty:7
ApproachRate:9
SliderMultiplier:1.49999990463257
SliderTickRate:1

[Events]
//Background and Video events
0,0,"cropped-1920-1080-795465.jpg",0,0
//Break Periods
//Storyboard Layer 0 (Background)
//Storyboard Layer 1 (Fail)
//Storyboard Layer 2 (Pass)
//Storyboard Layer 3 (Foreground)
//Storyboard Layer 4 (Overlay)
//Storyboard Sound Samples

[TimingPoints]
224,333.333333333333,4,1,0,50,1,0
2723,-76.9230769230769,4,1,0,50,0,0
3390,-100,4,1,0,50,0,0
5557,-83.3333333333333,4,1,0,50,0,0
6890,-83.3333333333333,4,1,0,50,0,0
16223,-90.9090909090909,4,1,0,50,0,0
40723,-111.111111111111,4,1,0,50,0,0
41057,-90.9090909090909,4,1,0,50,0,0
41723,-111.111111111111,4,1,0,50,0,0
42057,-90.9090909090909,4,1,0,50,0,0
42890,-76.9230769230769,4,1,0,50,0,0
43223,-90.9090909090909,4,1,0,50,0,0
45557,-76.9230769230769,4,1,0,50,0,0
46973,-90.9090909090909,4,1,0,50,0,0
55223,-133.333333333333,4,1,0,50,0,0
56223,-76.9230769230769,4,1,0,50,0,1
66890,-83.3333333333333,4,1,0,50,0,0
67140,-83.3333333333333,4,1,0,5,0,0
67223,-83.3333333333333,4,1,0,50,0,0
67473,-83.3333333333333,4,1,0,5,0,0
67573,-83.3333333333333,4,1,0,50,0,0
68307,-83.3333333333333,4,1,0,5,0,0
68390,-83.3333333333333,4,1,0,50,0,0
68640,-83.3333333333333,4,1,0,5,0,0
68723,-83.3333333333333,4,1,0,50,0,0
68973,-83.3333333333333,4,1,0,50,0,0
68973,-83.3333333333333,4,1,0,5,0,0
69057,-83.3333333333333,4,1,0,50,0,0
69807,-83.3333333333333,4,1,0,5,0,0
69890,-83.3333333333333,4,1,0,50,0,0
70140,-83.3333333333333,4,1,0,5,0,0
70223,-83.3333333333333,4,1,0,50,0,0
70473,-83.3333333333333,4,1,0,50,0,0
70473,-83.3333333333333,4,1,0,5,0,0
70557,-83.3333333333333,4,1,0,50,0,0
72473,-83.3333333333333,4,1,0,5,0,0
72557,-83.3333333333333,4,1,0,50,0,0
72807,-83.3333333333333,4,1,0,5,0,0
72890,-83.3333333333333,4,1,0,50,0,0
73140,-83.3333333333333,4,1,0,5,0,0
73223,-83.3333333333333,4,1,0,50,0,0
73640,-83.3333333333333,4,1,0,5,0,0
73723,-83.3333333333333,4,1,0,50,0,0
73973,-83.3333333333333,4,1,0,5,0,0
74057,-83.3333333333333,4,1,0,50,0,0
74307,-83.3333333333333,4,1,0,5,0,0
74390,-83.3333333333333,4,1,0,50,0,0
75640,-83.3333333333333,4,1,0,5,0,0
75723,-83.3333333333333,4,1,0,50,0,0
75973,-83.3333333333333,4,1,0,5,0,0
76057,-83.3333333333333,4,1,0,50,0,0
77557,-90.9090909090909,4,1,0,50,0,0

[Colours]
Combo1 : 192,192,192
Combo2 : 255,128,64
Combo3 : 128,64,0

[HitObjects]
432,286,224,6,0,P|357:234|291:278,1,149.999990463257
226,319,723,2,0,P|220:261|206:217,1,74.9999952316285
137,154,1057,1,0,0:0:0:0:
136,248,1223,1,0,0:0:0:0:
226,161,1390,2,0,P|217:111|189:79,1,74.9999952316285
207,62,1723,5,0,0:0:0:0:
351,113,1890,2,0,P|395:113|437:99,2,74.9999952316285
275,185,2390,1,0,0:0:0:0:
275,60,2557,1,0,0:0:0:0:
386,222,2723,2,0,P|405:276|406:356,2,97.4999893379217
392,330,3223,5,0,0:0:0:0:
273,290,3390,2,0,B|222:270|198:290|177:307|114:284,1,149.999990463257
221,189,3890,1,0,0:0:0:0:
62,202,4057,2,0,P|28:278|43:358,1,149.999990463257
139,149,4557,2,0,P|104:115|62:108,1,74.9999952316285
243,137,4890,5,0,0:0:0:0:
138,30,5057,2,0,P|182:10|227:17,2,74.9999952316285
352,32,5557,6,0,P|342:123|344:217,1,179.999983062745
412,297,6057,2,0,P|337:316|294:288,1,89.9999915313724
245,201,6390,1,0,0:0:0:0:
326,338,6557,1,0,0:0:0:0:
167,303,6723,6,0,P|143:262|141:203,1,89.9999915313724
224,102,7057,2,0,P|248:143|250:202,1,89.9999915313724
120,126,7390,2,0,P|119:78|147:26,1,89.9999915313724
310,26,7723,2,0,P|327:67|326:111,1,89.9999915313724
308,266,8057,1,0,0:0:0:0:
345,99,8223,6,0,P|417:105|454:108,1,89.9999915313724
483,206,8557,1,0,0:0:0:0:
366,177,8723,2,0,P|321:180|276:184,1,89.9999915313724
323,341,9057,2,0,P|367:344|412:348,1,89.9999915313724
290,264,9390,6,0,P|245:267|200:271,1,89.9999915313724
92,330,9723,2,0,P|106:221|96:119,1,179.999983062745
42,55,10223,1,0,0:0:0:0:
14,184,10390,1,0,0:0:0:0:
140,67,10557,1,0,0:0:0:0:
207,216,10723,1,0,0:0:0:0:
321,6,10890,6,0,P|349:45|353:98,1,89.9999915313724
327,225,11223,1,0,0:0:0:0:
452,148,11390,2,0,P|424:187|418:241,1,89.9999915313724
440,353,11723,1,0,0:0:0:0:
405,205,11890,1,0,0:0:0:0:
324,332,12057,6,0,P|263:350|221:339,1,89.9999915313724
143,248,12390,2,0,P|133:300|125:347,1,89.9999915313724
254,247,12723,2,0,P|246:202|237:158,1,89.9999915313724
157,74,13057,2,0,P|218:56|260:67,1,89.9999915313724
396,133,13390,1,0,0:0:0:0:
380,24,13557,6,0,P|361:94|359:223,1,179.999983062745
362,321,14057,2,0,P|306:314|265:312,1,89.9999915313724
134,358,14390,1,0,0:0:0:0:
251,267,14557,1,0,0:0:0:0:
118,245,14723,2,0,P|112:186|119:149,1,89.9999915313724
229,203,15057,5,0,0:0:0:0:
112,117,15223,1,0,0:0:0:0:
40,185,15390,1,0,0:0:0:0:
175,52,15557,2,0,P|220:51|233:53,3,44.9999957656862
279,125,15890,2,0,P|324:124|337:126,3,44.9999957656862
459,208,16223,6,0,P|404:207|388:235,2,82.4999972724915
319,308,16723,2,0,P|296:270|295:226,1,82.4999972724915
276,207,17057,1,0,0:0:0:0:
196,288,17223,6,0,P|141:287|125:315,2,82.4999972724915
48,356,17723,2,0,P|28:308|28:266,1,82.4999972724915
72,133,18057,1,0,0:0:0:0:
72,133,18223,2,0,P|92:181|92:223,1,82.4999972724915
217,34,18557,2,0,B|197:78|197:78|197:124,1,82.4999972724915
315,116,18890,6,0,P|370:115|386:143,2,82.4999972724915
422,221,19390,2,0,P|384:244|340:245,1,82.4999972724915
315,270,19724,1,0,0:0:0:0:
205,210,19890,6,0,P|204:265|232:281,2,82.4999972724915
276,353,20390,2,0,P|228:373|187:364,1,82.4999972724915
120,312,20723,1,0,0:0:0:0:
205,211,20890,2,0,P|154:186|73:193,1,123.749995908737
55,215,21223,1,0,0:0:0:0:
55,183,21306,1,0,0:0:0:0:
55,152,21389,1,0,0:0:0:0:
55,120,21472,1,0,0:0:0:0:
55,86,21557,6,0,P|132:50|214:94,1,164.999994544983
297,161,22057,2,0,P|291:116|292:72,1,82.4999972724915
379,213,22390,1,0,0:0:0:0:
434,94,22557,1,0,0:0:0:0:
465,227,22723,2,0,B|379:212|379:212|323:275,1,164.999994544983
245,363,23223,6,0,P|234:320|209:288,1,82.4999972724915
114,203,23557,2,0,P|81:270|79:291,1,82.4999972724915
198,116,23890,2,0,P|231:183|233:204,1,82.4999972724915
100,107,24223,2,0,P|156:35|238:31,1,164.999994544983
326,71,24723,2,0,B|299:118|321:146|346:172|316:230,1,164.999994544983
387,360,25390,1,0,0:0:0:0:
387,360,25557,6,0,P|342:344|298:349,1,82.4999972724915
164,302,25890,1,0,0:0:0:0:
164,302,26057,2,0,P|209:286|253:291,1,82.4999972724915
73,347,26390,2,0,P|69:296|61:248,1,82.4999972724915
128,174,26723,1,0,0:0:0:0:
20,160,26890,6,0,B|76:135|102:155|129:174|182:148,1,164.999994544983
282,145,27390,2,0,P|252:61|178:52,1,164.999994544983
257,268,28057,1,0,0:0:0:0:
282,145,28223,5,0,0:0:0:0:
408,229,28390,1,0,0:0:0:0:
407,51,28557,1,0,0:0:0:0:
446,216,28723,2,0,P|454:266|462:316,1,82.4999972724915
320,374,29057,2,0,P|328:323|336:274,1,82.4999972724915
249,174,29390,1,0,0:0:0:0:
194,323,29557,6,0,P|182:281|156:245,1,82.4999972724915
96,354,29890,1,0,0:0:0:0:
34,242,30057,2,0,P|46:200|72:164,1,82.4999972724915
151,272,30390,1,0,0:0:0:0:
191,147,30557,2,0,P|179:105|153:69,1,82.4999972724915
276,122,30890,5,0,0:0:0:0:
79,95,31057,2,0,P|118:76|165:74,1,82.4999972724915
312,107,31390,2,0,P|329:149|330:160,1,41.2499986362457
406,210,31557,2,0,P|412:190|422:172,3,41.2499986362457
321,254,31890,2,0,P|338:296|339:307,2,41.2499986362457
178,219,32223,6,0,P|238:196|271:197,1,82.4999972724915
174,303,32557,1,0,0:0:0:0:
82,200,32723,2,0,P|122:150|151:134,1,82.4999972724915
92,280,33057,1,0,0:0:0:0:
138,107,33223,1,0,0:0:0:0:
255,195,33390,2,0,P|276:230|280:283,1,82.4999972724915
376,359,33723,5,0,0:0:0:0:
301,236,33890,1,0,0:0:0:0:
259,375,34057,1,0,0:0:0:0:
382,267,34223,2,0,P|435:260|470:267,1,82.4999972724915
346,165,34557,2,0,P|293:158|258:165,1,82.4999972724915
148,222,34890,6,0,B|122:180|143:154|161:132|131:77,1,123.749995908737
181,69,35223,1,0,0:0:0:0:
56,129,35390,2,0,P|42:174|50:228,1,82.4999972724915
103,307,35723,1,0,0:0:0:0:
182,224,35890,1,0,0:0:0:0:
274,300,36057,6,0,P|348:248|343:154,1,164.999994544983
274,112,36557,2,0,P|254:168|255:207,1,82.4999972724915
355,20,36890,2,0,P|375:76|374:115,1,82.4999972724915
500,91,37223,2,0,P|480:147|481:186,1,82.4999972724915
489,323,37557,6,0,B|423:350|403:324|380:296|298:339,1,164.999994544983
208,349,38057,2,0,P|243:268|188:196,1,164.999994544983
117,295,38557,1,0,0:0:0:0:
101,140,38723,2,0,P|152:93|197:86,1,82.4999972724915
290,150,39057,5,0,0:0:0:0:
309,10,39223,2,0,P|375:30|403:66,1,82.4999972724915
455,165,39557,2,0,P|393:153|352:163,1,82.4999972724915
312,293,39890,2,0,P|374:281|415:291,1,82.4999972724915
224,324,40223,6,0,B|173:331|146:289|146:289|178:237|221:244,1,164.999994544983
101,100,40723,1,0,0:0:0:0:
50,170,40890,2,0,P|36:209|36:250,1,67.4999936485293
173,153,41223,2,0,P|206:93|150:20,1,164.999994544983
240,150,41723,6,0,B|276:160|312:138|312:138|348:161|385:150,1,134.999987297059
440,91,42223,1,0,0:0:0:0:
436,75,42390,1,0,0:0:0:0:
416,79,42557,1,0,0:0:0:0:
421,97,42723,1,0,0:0:0:0:
433,254,42890,1,0,0:0:0:0:
201,353,43223,6,0,P|186:309|188:269,1,82.4999972724915
242,133,43557,1,0,0:0:0:0:
233,292,43723,1,0,0:0:0:0:
222,104,43890,1,0,0:0:0:0:
88,252,44057,2,0,P|65:289|62:335,1,82.4999972724915
38,171,44390,5,0,0:0:0:0:
179,311,44557,1,0,0:0:0:0:
278,166,44723,2,0,P|271:209|271:222,2,41.2499986362457
393,250,45057,1,0,0:0:0:0:
486,111,45223,2,0,P|475:58|452:24,1,82.4999972724915
363,153,45557,6,0,P|400:197|455:201,1,97.4999893379217
330,43,45890,2,0,P|286:80|282:135,1,97.4999893379217
265,230,46223,1,0,0:0:0:0:
225,229,46306,1,0,0:0:0:0:
192,209,46389,1,0,0:0:0:0:
172,175,46473,1,0,0:0:0:0:
172,136,46556,1,0,0:0:0:0:
54,55,46723,2,0,P|74:108|73:170,1,97.4999893379217
88,315,47057,5,0,0:0:0:0:
192,209,47223,2,0,P|246:201|311:204,1,82.4999972724915
298,334,47557,1,0,0:0:0:0:
409,237,47723,2,0,B|396:200|396:200|426:147|426:147|395:89|395:89,1,164.999994544983
326,140,48223,5,0,0:0:0:0:
326,140,48557,1,0,0:0:0:0:
326,140,48890,1,0,0:0:0:0:
326,140,49223,1,0,0:0:0:0:
247,74,49390,6,0,P|195:65|157:73,1,82.4999972724915
74,174,49723,2,0,P|126:165|164:173,1,82.4999972724915
265,268,50057,2,0,P|213:259|175:267,1,82.4999972724915
92,368,50390,2,0,P|144:359|182:367,2,82.4999972724915
50,281,50890,5,0,0:0:0:0:
112,189,51057,1,0,0:0:0:0:
79,300,51223,1,0,0:0:0:0:
33,155,51390,1,0,0:0:0:0:
176,246,51557,5,0,0:0:0:0:
10,244,51723,1,0,0:0:0:0:
161,116,51890,1,0,0:0:0:0:
6,77,52057,1,0,0:0:0:0:
227,175,52223,5,0,0:0:0:0:
95,26,52390,1,0,0:0:0:0:
104,236,52557,1,0,0:0:0:0:
236,88,52723,1,0,0:0:0:0:
310,207,52890,5,0,0:0:0:0:
176,33,53057,1,0,0:0:0:0:
353,85,53223,1,0,0:0:0:0:
229,258,53390,1,0,0:0:0:0:
425,171,53557,6,0,P|417:221|417:266,1,82.4999972724915
342,354,53890,1,0,0:0:0:0:
310,182,54057,1,0,0:0:0:0:
220,343,54223,1,0,0:0:0:0:
220,343,54307,1,0,0:0:0:0:
220,343,54390,2,0,P|222:302|228:282,1,41.2499986362457
150,176,54557,1,0,0:0:0:0:
150,176,54641,1,0,0:0:0:0:
150,176,54724,2,0,P|148:217|142:237,1,41.2499986362457
33,344,54890,5,0,0:0:0:0:
33,344,55223,6,0,P|99:331|157:351,2,112.499997138977
286,354,56223,6,0,P|288:297|291:241,1,97.4999893379217
214,160,56557,1,0,0:0:0:0:
205,256,56723,1,0,0:0:0:0:
293,216,56890,1,0,0:0:0:0:
135,104,57057,1,0,0:0:0:0:
126,200,57223,1,0,0:0:0:0:
223,64,57390,1,0,0:0:0:0:
56,48,57557,6,0,P|41:107|140:200,1,194.999978675843
135,104,58057,1,0,0:0:0:0:
214,160,58223,2,0,P|272:157|313:137,1,97.4999893379217
406,46,58557,2,0,P|350:21|304:23,1,97.4999893379217
413,150,58890,6,0,P|471:147|512:127,1,97.4999893379217
348,213,59223,1,0,0:0:0:0:
348,213,59390,2,0,L|358:319,1,97.4999893379217
241,254,59723,2,0,L|231:360,1,97.4999893379217
124,199,60057,2,0,L|134:305,2,97.4999893379217
121,64,60557,6,0,P|176:88|203:140,1,97.4999893379217
361,129,60890,2,0,P|306:153|279:205,1,97.4999893379217
374,324,61223,2,0,P|409:275|407:217,1,97.4999893379217
245,352,61557,6,0,P|242:295|240:239,1,97.4999893379217
317,158,61891,1,0,0:0:0:0:
326,254,62057,1,0,0:0:0:0:
238,214,62224,1,0,0:0:0:0:
396,102,62391,1,0,0:0:0:0:
405,198,62557,1,0,0:0:0:0:
308,62,62724,1,0,0:0:0:0:
475,46,62891,6,0,P|490:105|391:198,1,194.999978675843
396,102,63391,1,0,0:0:0:0:
317,158,63557,2,0,P|259:155|218:135,1,97.4999893379217
125,44,63891,2,0,P|181:19|227:21,1,97.4999893379217
118,148,64224,6,0,P|60:145|19:125,1,97.4999893379217
183,211,64557,1,0,0:0:0:0:
183,211,64724,2,0,L|173:317,1,97.4999893379217
290,252,65057,2,0,L|300:358,1,97.4999893379217
407,197,65391,2,0,L|397:303,1,97.4999893379217
337,135,65723,5,0,0:0:0:0:
337,135,65807,1,0,0:0:0:0:
337,135,65890,1,0,0:0:0:0:
487,117,66057,1,0,0:0:0:0:
393,26,66223,1,0,0:0:0:0:
391,34,66390,1,0,0:0:0:0:
385,27,66557,1,0,0:0:0:0:
396,25,66723,1,0,0:0:0:0:
248,107,66890,6,0,P|202:190|222:266,1,134.999987297059
232,250,67223,2,0,B|181:228|165:251|151:270|66:239,1,134.999987297059
65,209,67557,2,0,P|81:307|76:386,1,134.999987297059
197,316,67890,1,0,0:0:0:0:
206,167,68057,6,0,B|227:145|227:145|233:273,1,134.999987297059
268,232,68390,2,0,B|337:249|337:249|413:230,1,134.999987297059
393,192,68723,2,0,B|404:159|435:140|435:140|461:160|467:209,1,134.999987297059
472,283,69057,1,0,0:0:0:0:
391,190,69223,1,0,0:0:0:0:
486,85,69390,1,0,0:0:0:0:
334,127,69557,6,0,P|288:126|270:29,1,134.999987297059
223,31,69890,2,0,B|168:73|168:73|118:28,1,134.999987297059
91,46,70223,2,0,P|102:104|101:193,1,134.999987297059
130,212,70557,1,0,0:0:0:0:
267,110,70723,2,0,P|256:157|255:206,1,89.9999915313724
194,312,71057,5,0,0:0:0:0:
320,289,71223,2,0,B|393:238|393:238|367:141,1,179.999983062745
265,59,71723,1,0,0:0:0:0:
300,207,71890,1,0,0:0:0:0:
440,130,72057,1,0,0:0:0:0:
291,49,72223,6,0,B|235:54|211:92|211:92|160:78,1,134.999987297059
138,101,72557,2,0,B|136:212|136:212|170:191,1,134.999987297059
196,220,72890,2,0,P|184:320|139:336,1,134.999987297059
146,363,73223,1,0,0:0:0:0:
196,220,73390,6,0,P|283:174|336:216,1,134.999987297059
272,237,73723,2,0,P|370:240|395:303,1,134.999987297059,0|0,3:0|3:0,3:0:0:0:
323,292,74057,2,0,P|406:239|396:172,1,134.999987297059,0|0,3:0|3:0,3:0:0:0:
443,180,74390,1,0,0:0:0:0:
291,120,74557,1,0,0:0:0:0:
460,53,74723,1,0,0:0:0:0:
267,96,74890,6,0,P|243:53|122:56,1,179.999983062745
98,226,75390,2,0,P|126:166|199:139,1,134.999987297059
209,167,75723,2,0,B|227:197|227:197|214:257|214:257|228:299|228:299,1,134.999987297059
219,327,76057,2,0,P|279:306|319:317,1,89.9999915313724
446,346,76390,5,0,0:0:0:0:
376,230,76557,2,0,P|438:224|473:208,1,89.9999915313724
391,120,76890,1,0,0:0:0:0:
248,281,77223,1,0,0:0:0:0:
261,62,77557,1,0,0:0:0:0:
