osu file format v14

[General]
AudioFilename: audio.mp3
AudioLeadIn: 0
PreviewTime: 54909
Countdown: 1
SampleSet: Soft
StackLeniency: 0.7
Mode: 0
LetterboxInBreaks: 0
WidescreenStoryboard: 1

[Editor]
Bookmarks: 5409,16075,21409,42742,50742,56075,61075
DistanceSpacing: 1
BeatDivisor: 4
GridSize: 4
TimelineZoom: 1.7

[Metadata]
Title:MIND CONDUCTOR (TV VER.)
TitleUnicode:MIND CONDUCTOR (TV VER.)
Artist:YURiKA
ArtistUnicode:YURiKA
Creator:AllieBork
Version:Standard
Source:Little Witch Academia
Tags:
BeatmapID:1291351
BeatmapSetID:603973

[Difficulty]
HPDrainRate:3
CircleSize:3.5
OverallDifficulty:3
ApproachRate:4
SliderMultiplier:0.9
SliderTickRate:1

[Events]
//Background and Video events
0,0,"background.jpg",0,0
//Break Periods
//Storyboard Layer 0 (Background)
//Storyboard Layer 1 (Fail)
//Storyboard Layer 2 (Pass)
//Storyboard Layer 3 (Foreground)
//Storyboard Sound Samples

[TimingPoints]
76,333.333333333333,4,2,1,60,1,0
5409,-100,4,2,1,70,0,0
21409,-100,4,2,1,70,0,0
42742,-100,4,2,1,70,0,0
50742,-100,4,2,1,80,0,0
56075,-100,4,2,1,100,0,1
77409,-100,4,2,1,70,0,0
86575,-100,4,2,1,70,0,0

[Colours]
Combo1 : 0,128,255
Combo2 : 255,0,0

[HitObjects]
300,189,76,6,0,P|362:151|433:133,2,135,2|0|0,0:2|0:2|0:2,0:2:0:0:
187,329,1742,1,0,0:2:0:0:
135,156,2409,1,0,0:2:0:0:
198,95,2742,6,0,P|260:57|331:39,2,135,2|0|0,0:2|0:2|0:2,0:2:0:0:
132,262,4409,1,0,0:2:0:0:
309,235,5075,1,0,0:2:0:0:
398,222,5409,6,0,P|446:205|492:129,1,135,2|2,0:2|0:2,0:2:0:0:
508,49,6242,1,0,0:2:0:0:
423,78,6576,1,2,0:2:0:0:
356,19,6909,1,0,0:2:0:0:
271,48,7242,1,2,0:2:0:0:
338,107,7575,1,0,0:2:0:0:
338,242,8075,6,0,P|328:293|268:358,1,135,2|2,0:2|0:2,0:2:0:0:
189,382,8909,1,0,0:2:0:0:
99,381,9242,1,2,0:2:0:0:
144,303,9575,1,0,0:2:0:0:
143,167,10075,2,0,P|140:123|128:79,1,90,2|2,0:2|0:2,0:2:0:0:
82,2,10742,6,0,P|40:61|49:124,1,135,2|2,0:2|0:2,0:2:0:0:
94,196,11575,1,0,0:2:0:0:
4,198,11908,1,2,0:2:0:0:
50,273,12241,1,0,0:2:0:0:
9,351,12575,1,2,0:2:0:0:
96,348,12908,1,0,0:2:0:0:
231,348,13409,6,0,P|276:344|356:300,1,135,2|2,0:2|0:2,0:2:0:0:
408,230,14242,1,0,0:2:0:0:
417,140,14575,2,0,P|473:166|499:231,1,135,2|8,0:2|0:2,0:2:0:0:
495,321,15409,1,8,0:2:0:0:
428,382,15742,1,8,0:2:0:0:
408,293,16075,6,0,P|373:246|296:238,1,135,0|0,0:2|0:2,0:2:0:0:
427,188,17075,2,0,P|366:159|296:157,1,135,0|0,0:2|0:2,0:2:0:0:
166,180,18075,2,0,P|121:165|85:131,1,90,0|8,0:2|0:2,0:2:0:0:
97,47,18742,6,0,P|151:37|242:45,1,135,0|0,0:2|0:2,0:2:0:0:
125,127,19742,2,0,P|74:130|17:73,1,135,0|0,0:2|0:2,0:2:0:0:
132,3,20742,2,8,P|182:12|232:11,1,90,8|8,0:2|0:2,0:2:0:0:
310,1,21409,5,2,0:2:0:0:
373,120,21909,2,0,L|278:110,1,90,2|0,3:2|3:2,3:2:0:0:
194,100,22575,2,0,P|129:96|49:104,1,135,8|8,3:2|3:2,3:2:0:0:
4,273,23742,1,8,3:2:0:0:
88,304,24075,5,2,0:2:0:0:
103,169,24575,2,0,L|170:232,1,90,2|0,3:2|3:2,3:2:0:0:
235,291,25242,2,8,P|295:318|363:288,1,135,8|8,3:2|3:2,3:2:0:0:
427,128,26409,1,8,3:2:0:0:
342,100,26742,5,2,0:2:0:0:
296,227,27242,2,0,L|201:218,1,90,2|0,3:2|3:2,3:2:0:0:
116,210,27909,2,0,P|63:184|28:112,1,135,8|8,3:2|3:2,3:2:0:0:
165,2,29075,1,8,3:2:0:0:
235,57,29409,6,2,P|262:120|239:180,1,135,2|2,0:2|0:2,0:2:0:0:
115,230,30409,2,2,P|123:161|172:120,1,135,2|2,0:2|0:2,0:2:0:0:
305,140,31409,2,2,B|293:186|249:214|202:206|202:206|210:233|198:269,1,180,2|0,0:2|0:2,0:2:0:0:
219,338,32409,6,0,P|276:374|343:382,1,135,0|0,3:2|3:2,3:2:0:0:
432,371,33242,2,8,P|402:315|330:294,1,135,8|8,3:2|3:2,3:2:0:0:
256,254,34075,1,0,3:2:0:0:
331,204,34408,1,8,3:2:0:0:
412,243,34742,5,2,0:2:0:0:
405,153,35075,2,0,B|416:114|447:95|447:95|482:73|490:37,1,135,2|0,0:2|3:2,3:2:0:0:
402,17,35909,2,0,P|329:12|247:33,1,135,8|8,3:2|3:2,3:2:0:0:
215,96,36742,1,0,3:2:0:0:
179,13,37076,1,8,3:2:0:0:
125,84,37409,6,0,P|57:86|8:37,1,135,2|0,0:2|0:2,0:2:0:0:
90,1,38242,1,0,3:2:0:0:
179,13,38575,2,0,P|209:53|200:134,1,135,8|8,3:2|3:2,3:2:0:0:
121,177,39409,1,0,3:2:0:0:
77,98,39742,1,8,3:2:0:0:
31,175,40075,6,8,P|47:228|124:267,1,135,8|8,0:2|0:2,0:2:0:0:
242,230,41075,2,8,P|288:216|384:227,1,135,8|8,0:2|0:2,0:2:0:0:
457,329,42075,2,8,P|411:353|355:355,1,90,8|8,0:2|0:2,0:2:0:0:
283,347,42742,5,0,0:2:0:0:
115,280,43409,1,8,0:2:0:0:
163,154,43909,2,8,P|175:105|170:62,1,90,8|8,0:2|0:2,0:2:0:0:
88,31,44575,2,0,P|64:93|67:161,1,135,8|0,0:2|0:2,0:2:0:0:
117,235,45409,5,0,0:2:0:0:
284,300,46075,1,8,0:2:0:0:
330,173,46575,2,8,P|342:127|340:84,1,90,8|8,0:2|0:2,0:2:0:0:
271,26,47242,2,0,B|239:14|206:30|206:30|170:47|137:33,1,135,8|0,0:2|0:2,0:2:0:0:
56,1,48075,6,0,B|42:27|46:63|66:91|66:91|84:117|87:153|73:190,1,180,4|0,0:2|0:2,0:2:0:0:
45,303,49242,2,0,P|57:361|89:380,1,90,0|0,0:2|0:2,0:2:0:0:
213,362,50075,2,0,P|257:345|304:342,1,90,0|0,0:2|0:2,0:2:0:0:
389,348,50742,6,0,B|405:309|436:286|436:286|473:262|481:220|469:187|448:163|410:147|362:167,1,270,4|0,0:1|0:2,0:2:0:0:
312,212,52075,2,0,P|268:227|219:208,1,90,2|0,0:2|0:2,0:2:0:0:
222,124,52742,2,0,P|266:109|315:128,1,90,2|0,0:2|0:2,0:2:0:0:
256,192,53409,12,4,54742,0:1:0:0:
188,214,56075,6,2,P|254:175|363:172,1,180,4|2,0:1|0:2,0:2:0:0:
462,252,57242,2,2,P|417:334|294:369,1,225,2|8,0:2|0:2,0:2:0:0:
209,345,58409,1,8,0:2:0:0:
124,376,58742,6,2,P|64:377|11:319,1,135,2|2,0:2|0:2,0:2:0:0:
28,237,59575,1,0,0:2:0:0:
94,298,59909,2,0,L|228:255,1,135,2|0,0:2|0:2,0:2:0:0:
309,233,60742,1,8,0:2:0:0:
286,319,61076,1,8,0:2:0:0:
372,295,61409,6,2,P|436:284|494:375,1,180,4|2,0:1|0:2,0:2:0:0:
359,372,62575,2,0,P|301:330|313:248,1,135,2|0,0:2|0:2,0:2:0:0:
359,204,63409,1,8,0:2:0:0:
434,253,63742,1,8,0:2:0:0:
488,181,64075,6,2,B|509:140|481:94|481:94|457:54|481:7,2,180,2|2|2,0:2|0:2|0:2,0:2:0:0:
418,227,65742,1,0,0:2:0:0:
343,189,66076,1,8,0:2:0:0:
413,143,66409,1,8,0:2:0:0:
338,105,66742,6,0,L|243:64,1,90,4|0,0:1|0:2,0:2:0:0:
171,36,67409,2,2,P|112:31|50:70,1,135,2|2,0:2|0:2,0:2:0:0:
25,156,68242,1,2,0:2:0:0:
48,242,68575,2,0,P|102:279|169:276,1,135,2|0,0:2|0:2,0:2:0:0:
223,203,69409,6,0,P|276:186|328:184,1,90,4|0,0:1|0:2,0:2:0:0:
396,207,70075,2,2,P|446:207|506:150,2,135,2|2|2,0:2|0:2|0:2,0:2:0:0:
334,140,71409,1,0,0:2:0:0:
422,123,71742,1,0,0:2:0:0:
364,56,72075,6,0,P|309:54|266:82,1,90,4|0,0:1|0:2,0:2:0:0:
209,126,72742,2,2,P|158:163|86:167,1,135,2|2,0:2|0:2,0:2:0:0:
6,129,73575,1,2,0:2:0:0:
60,57,73909,2,0,B|93:41|130:47|130:47|165:53|194:37,1,135,2|0,0:2|0:2,0:2:0:0:
278,15,74742,6,0,P|345:6|418:12,1,135,4|0,0:1|0:2,0:2:0:0:
502,26,75575,1,0,0:2:0:0:
466,108,75909,1,0,0:2:0:0:
243,140,76742,1,0,0:2:0:0:
155,118,77075,1,0,0:2:0:0:
180,206,77409,6,0,B|207:230|247:239|287:220|287:220|320:205|359:212,3,180,2|0|0|0,0:2|0:2|0:2|0:2,0:2:0:0:
440,224,79742,1,2,0:2:0:0:
505,280,80075,6,0,P|492:329|371:367,1,180,2|0,0:2|0:2,0:2:0:0:
254,322,81242,2,0,P|198:309|44:368,1,225,2|0,0:2|0:2,0:2:0:0:
19,268,82409,1,0,0:2:0:0:
104,231,82742,5,4,0:1:0:0:
88,142,83075,2,0,L|74:52,2,90,8|0|8,0:2|0:2|0:2,0:2:0:0:
173,172,84075,1,0,0:2:0:0:
189,261,84409,2,0,L|203:351,2,90,8|0|8,0:2|0:2|0:2,0:2:0:0:
258,202,85409,5,0,0:2:0:0:
242,113,85742,1,8,0:2:0:0:
327,143,86075,1,0,0:2:0:0:
316,277,86575,5,2,0:2:0:0:
227,290,86908,1,2,0:2:0:0:
284,362,87241,1,2,0:2:0:0:
