osu file format v14

[General]
AudioFilename: audio.mp3
AudioLeadIn: 0
PreviewTime: 54909
Countdown: 1
SampleSet: Soft
StackLeniency: 0.5
Mode: 0
LetterboxInBreaks: 0
WidescreenStoryboard: 1

[Editor]
Bookmarks: 5409,16075,21409,42742,50742,56075
DistanceSpacing: 1.3
BeatDivisor: 4
GridSize: 4
TimelineZoom: 1.8

[Metadata]
Title:MIND CONDUCTOR (TV VER.)
TitleUnicode:MIND CONDUCTOR (TV VER.)
Artist:YURiKA
ArtistUnicode:YURiKA
Creator:AllieBork
Version:Hard
Source:Little Witch Academia
Tags:
BeatmapID:1304679
BeatmapSetID:603973

[Difficulty]
HPDrainRate:4.5
CircleSize:4
OverallDifficulty:6
ApproachRate:7
SliderMultiplier:1.1
SliderTickRate:1

[Events]
//Background and Video events
0,0,"background.jpg",0,0
//Break Periods
//Storyboard Layer 0 (Background)
//Storyboard Layer 1 (Fail)
//Storyboard Layer 2 (Pass)
//Storyboard Layer 3 (Foreground)
//Storyboard Sound Samples

[TimingPoints]
76,333.333333333333,4,2,1,60,1,0
5409,-83.3333333333333,4,2,1,70,0,0
16075,-100,4,2,1,70,0,0
18409,-83.3333333333333,4,2,1,70,0,0
18742,-100,4,2,1,70,0,0
21409,-100,4,2,1,70,0,0
42742,-125,4,2,1,70,0,0
48075,-100,4,2,1,70,0,0
50742,-90.9090909090909,4,2,1,80,0,0
56075,-83.3333333333333,4,2,1,100,0,1
77409,-100,4,2,1,70,0,0
86575,-100,4,2,1,70,0,0
87242,-105.263157894737,4,2,1,70,0,0

[Colours]
Combo1 : 0,128,255
Combo2 : 255,0,0

[HitObjects]
142,193,76,6,0,P|114:193|85:188,2,55,0|0|4,0:2|0:2|0:2,0:2:0:0:
209,171,575,2,0,P|253:142|313:138,1,110,0|0,0:2|0:2,0:2:0:0:
376,161,1075,1,4,0:2:0:0:
354,229,1242,2,0,P|358:283|387:328,1,110,0|0,0:2|0:2,0:2:0:0:
450,363,1742,1,4,0:2:0:0:
448,291,1909,1,0,0:2:0:0:
387,328,2075,5,0,0:2:0:0:
314,325,2242,1,0,0:2:0:0:
265,271,2409,1,4,0:2:0:0:
268,199,2575,1,0,3:2:0:0:
321,149,2742,6,0,P|355:140|386:138,1,55,0|0,3:2|3:2,3:2:0:0:
445,147,3075,1,4,3:2:0:0:
437,75,3242,2,0,P|373:66|311:76,1,110,0|0,0:2|0:2,0:2:0:0:
265,105,3742,1,4,0:2:0:0:
288,172,3909,2,0,P|297:236|287:298,1,110,0|0,0:2|0:2,0:2:0:0:
259,344,4409,1,4,0:2:0:0:
196,378,4575,1,0,0:2:0:0:
198,306,4742,5,0,0:2:0:0:
143,259,4909,1,0,0:2:0:0:
72,267,5075,1,4,0:2:0:0:
33,327,5242,1,0,0:2:0:0:
118,339,5409,6,0,P|156:282|144:222,1,131.99999597168,2|0,0:2|0:2,0:2:0:0:
70,183,5909,2,0,P|65:114|105:68,1,131.99999597168,2|0,0:2|0:2,0:2:0:0:
190,71,6409,1,0,0:2:0:0:
147,143,6575,2,0,B|176:202|130:215|156:271,1,131.99999597168,2|0,0:2|0:2,0:2:0:0:
270,159,7242,2,0,B|243:102|289:89|260:30,1,131.99999597168,2|0,0:2|0:2,0:2:0:0:
91,2,7909,1,2,0:2:0:0:
23,53,8075,6,0,B|5:86|5:86|10:187,1,131.99999597168,2|0,0:2|0:2,0:2:0:0:
0,306,8575,2,0,P|30:269|110:247,1,131.99999597168,2|0,0:2|0:2,0:2:0:0:
279,363,9242,2,0,P|233:316|170:303,1,131.99999597168,2|0,0:2|0:2,0:2:0:0:
0,384,9909,1,2,0:2:0:0:
74,342,10075,2,0,P|92:309|97:277,1,65.9999979858399,2|0,0:2|0:2,0:2:0:0:
83,195,10409,2,0,P|89:162|105:134,1,65.9999979858399,2|0,0:2|0:2,0:2:0:0:
175,83,10742,6,0,P|239:62|310:63,1,131.99999597168,2|0,0:2|0:2,0:2:0:0:
387,78,11242,1,2,0:2:0:0:
431,243,11575,1,0,0:2:0:0:
395,321,11742,1,0,0:2:0:0:
313,348,11909,2,0,B|257:366|234:333|181:351,1,131.99999597168,2|0,0:2|0:2,0:2:0:0:
0,285,12575,2,0,B|56:267|79:300|132:282,1,131.99999597168,2|0,0:2|0:2,0:2:0:0:
203,89,13242,1,2,0:2:0:0:
262,26,13409,6,0,P|320:0|380:23,1,131.99999597168,2|0,0:2|0:2,0:2:0:0:
406,104,13909,2,0,P|450:73|463:0,1,131.99999597168,2|0,0:2|0:2,0:2:0:0:
380,23,14409,1,0,0:2:0:0:
322,84,14575,2,0,P|332:148|384:186,1,131.99999597168,2|0,0:2|0:2,0:2:0:0:
466,162,15075,2,0,P|468:204|456:232,1,65.9999979858399,8|0,0:2|0:2,0:2:0:0:
426,311,15409,6,0,P|473:316|509:324,1,65.9999979858399,8|0,0:2|0:2,0:2:0:0:
377,384,15742,2,0,P|330:379|294:371,1,65.9999979858399,8|0,0:2|0:2,0:2:0:0:
287,294,16075,5,2,0:2:0:0:
287,294,16242,1,0,0:2:0:0:
100,224,16575,2,0,P|150:221|212:225,1,110,2|0,0:2|0:2,0:2:0:0:
308,193,17075,5,2,0:2:0:0:
308,193,17242,1,0,0:2:0:0:
121,123,17575,2,0,P|171:120|233:124,1,110,2|0,0:2|0:2,0:2:0:0:
336,88,18075,2,0,P|381:92|419:99,1,82.5,0|0,0:2|0:2,0:2:0:0:
471,104,18409,2,0,P|451:146|444:176,1,65.9999979858399,8|0,0:2|0:2,0:2:0:0:
421,249,18742,6,0,P|449:247|476:247,1,55,2|0,0:2|0:2,0:2:0:0:
230,282,19242,2,0,P|285:285|340:283,1,110,2|0,0:2|0:2,0:2:0:0:
289,197,19742,2,0,P|317:194|344:194,1,55,2|0,0:2|0:2,0:2:0:0:
80,194,20242,2,0,P|134:190|189:193,1,110,2|0,0:2|0:2,0:2:0:0:
246,115,20742,2,0,P|274:85|318:73,1,82.5,8|8,0:2|0:2,0:2:0:0:
354,88,21075,2,0,L|392:90,2,27.5,0|0|0,3:2|3:2|3:2,3:2:0:0:
441,48,21409,6,0,P|465:32|494:26,2,55,0|0|8,0:2|0:2|0:2,0:2:0:0:
384,161,21909,2,0,P|372:222|370:288,3,110,0|0|8|0,0:2|3:2|3:2|3:2,3:2:0:0:
370,357,23075,2,0,P|313:333|210:325,1,165,8|0,3:2|3:2,3:2:0:0:
126,350,23742,1,8,0:2:0:0:
126,350,24075,6,0,P|108:368|83:383,2,55,0|0|8,0:2|0:2|0:2,0:2:0:0:
173,236,24575,2,0,P|182:196|183:126,1,110,0|0,3:2|3:2,3:2:0:0:
6,126,25242,2,0,P|-1:190|10:242,1,110,8|0,3:2|3:2,3:2:0:0:
86,285,25742,2,0,B|147:272|147:272|181:244|181:244|240:232,1,165,8|0,3:2|3:2,3:2:0:0:
292,157,26409,1,8,3:2:0:0:
292,157,26742,6,0,L|351:169,2,55,0|0|8,0:2|0:2|0:2,0:2:0:0:
170,138,27242,2,0,L|163:24,2,110,0|0|8,3:2|3:2|3:2,3:2:0:0:
309,245,28242,1,0,3:2:0:0:
373,185,28409,2,0,P|367:118|289:71,1,165,8|0,3:2|3:2,3:2:0:0:
290,160,29075,1,8,3:2:0:0:
290,160,29409,6,0,P|349:144|390:110,1,110,2|0,0:2|0:2,0:2:0:0:
437,42,29909,1,2,0:2:0:0:
505,203,30242,1,0,0:2:0:0:
505,203,30409,2,0,P|446:187|405:153,1,110,2|0,0:2|0:2,0:2:0:0:
362,82,30909,1,2,0:2:0:0:
292,243,31242,1,8,0:2:0:0:
292,243,31409,2,0,P|228:231|175:239,1,110,8|8,0:2|0:2,0:2:0:0:
73,384,32075,6,0,P|99:337|105:278,1,110,0|8,0:2|0:2,0:2:0:0:
103,193,32575,1,0,0:2:0:0:
0,49,32909,1,0,3:2:0:0:
166,0,33242,2,0,P|159:46|161:118,1,110,8|0,3:2|3:2,3:2:0:0:
174,196,33742,2,0,B|222:187|242:140|242:140|260:101|302:91,1,165,8|0,3:2|3:2,3:2:0:0:
381,72,34409,1,8,3:2:0:0:
381,72,34742,6,0,P|407:125|423:182,1,110,0|8,0:2|0:2,0:2:0:0:
434,260,35242,1,0,3:2:0:0:
305,380,35575,1,0,3:2:0:0:
296,203,35909,2,0,P|271:224|215:298,1,110,8|0,3:2|3:2,3:2:0:0:
204,370,36409,2,0,P|153:341|145:238,1,165,8|0,3:2|3:2,3:2:0:0:
199,176,37075,1,8,3:2:0:0:
199,176,37409,6,0,P|174:133|116:88,1,110,0|8,0:2|0:2,0:2:0:0:
48,57,37909,1,0,0:2:0:0:
51,232,38242,1,0,3:2:0:0:
51,232,38409,1,0,3:2:0:0:
51,232,38575,2,0,P|76:189|134:144,1,110,8|0,3:2|3:2,3:2:0:0:
206,128,39075,2,0,B|290:114|270:63|354:47,1,165,8|0,3:2|3:2,3:2:0:0:
434,35,39742,1,8,3:2:0:0:
434,35,40075,6,0,P|452:80|454:153,1,110,0|0,0:2|0:2,0:2:0:0:
391,201,40575,2,0,P|343:193|311:192,1,55,0|8,0:2|0:2,0:2:0:0:
259,235,40909,1,8,0:2:0:0:
329,286,41075,2,0,P|377:278|409:277,1,55,0|8,0:2|0:2,0:2:0:0:
385,369,41409,2,0,P|337:361|305:360,1,55,8|0,0:2|0:2,0:2:0:0:
243,375,41742,2,8,P|211:377|171:368,1,55,8|8,0:2|0:2,0:2:0:0:
109,334,42075,5,0,3:2:0:0:
64,261,42242,1,0,3:2:0:0:
59,178,42409,1,0,3:2:0:0:
89,104,42575,1,0,3:2:0:0:
150,60,42742,6,0,B|215:83|214:32|286:57,1,132,2|0,0:2|0:2,0:2:0:0:
343,90,43409,2,0,P|381:98|405:101,2,44,0|0|0,3:2|3:2|3:2,3:2:0:0:
278,128,43909,2,0,L|272:222,1,88,0|0,0:2|0:2,0:2:0:0:
197,214,44409,2,0,L|201:158,1,44,8|0,3:2|3:2,3:2:0:0:
128,122,44742,2,0,L|122:216,1,88,8|0,0:2|0:2,0:2:0:0:
156,276,45242,1,0,0:2:0:0:
196,371,45409,6,0,P|151:352|102:353,1,88,2|0,0:2|0:2,0:2:0:0:
39,368,45909,1,0,0:2:0:0:
21,295,46075,2,8,P|24:243|44:198,1,88,10|8,0:2|0:2,0:2:0:0:
105,114,46575,2,0,P|98:135|87:154,1,44,2|0,0:2|0:2,0:2:0:0:
11,137,46909,2,0,P|18:116|29:97,1,44,2|0,0:2|0:2,0:2:0:0:
82,41,47242,2,0,L|174:37,1,88,2|0,0:2|0:2,0:2:0:0:
235,73,47742,2,0,L|297:44,1,66,2|0,0:2|0:2,0:2:0:0:
320,5,48075,6,0,P|360:49|376:105,1,110,2|0,0:2|0:2,0:2:0:0:
374,184,48575,1,0,0:2:0:0:
285,184,48742,2,0,P|218:189|171:205,1,110,2|0,0:2|0:2,0:2:0:0:
99,242,49242,1,2,0:2:0:0:
207,379,49575,1,0,0:2:0:0:
99,242,49909,1,2,0:2:0:0:
97,154,50075,6,0,L|95:94,1,55,2|0,0:2|0:2,0:2:0:0:
170,50,50409,2,0,L|172:117,1,55,2|0,0:2|0:2,0:2:0:0:
224,222,50742,6,0,B|228:163|265:169|268:110,1,121.000003692627,2|8,0:2|0:2,0:2:0:0:
255,27,51242,1,0,0:2:0:0:
337,8,51409,2,0,L|401:4,1,60.5000018463135,2|0,0:2|0:2,0:2:0:0:
471,46,51742,2,0,L|474:108,1,60.5000018463135,10|0,0:2|0:2,0:2:0:0:
486,220,52075,6,0,B|460:180|421:197|392:141,1,121.000003692627,2|8,0:2|0:2,0:2:0:0:
316,111,52575,1,0,0:2:0:0:
287,190,52742,2,0,L|277:254,1,60.5000018463135,2|0,0:2|0:2,0:2:0:0:
358,230,53075,2,0,L|365:292,1,60.5000018463135,10|0,0:2|0:2,0:2:0:0:
290,333,53409,6,0,B|229:341|226:298|169:305,1,121.000003692627,2|8,0:2|0:2,0:2:0:0:
90,309,53909,1,0,0:2:0:0:
13,345,54075,2,0,P|40:376|59:387,1,60.5000018463135,8|0,0:2|0:2,0:2:0:0:
174,316,54409,2,0,P|166:275|155:256,1,60.5000018463135,8|0,0:2|0:2,0:2:0:0:
75,139,54742,1,8,0:2:0:0:
75,139,55075,5,0,0:2:0:0:
202,27,55409,1,0,0:2:0:0:
216,195,55742,1,0,0:2:0:0:
343,83,56075,6,0,B|383:101|383:101|419:193,1,131.99999597168,2|8,0:2|0:2,0:2:0:0:
397,274,56575,1,0,0:2:0:0:
284,199,56742,2,0,P|220:185|142:190,1,131.99999597168,2|8,0:2|0:2,0:2:0:0:
1,308,57242,2,0,B|100:273|106:339|206:304,1,197.99999395752,2|8,0:2|0:2,0:2:0:0:
281,257,57909,1,0,0:2:0:0:
366,310,58075,1,2,0:2:0:0:
282,159,58409,1,8,0:2:0:0:
120,102,58742,6,0,P|59:124|29:181,1,131.99999597168,2|8,0:2|0:2,0:2:0:0:
141,308,59242,2,0,P|152:245|118:191,1,131.99999597168,2|0,0:2|0:2,0:2:0:0:
65,263,59742,1,8,0:2:0:0:
237,297,59909,1,2,0:2:0:0:
237,297,60409,5,10,0:2:0:0:
407,227,60742,1,0,0:2:0:0:
510,379,61075,1,10,0:2:0:0:
500,194,61409,6,0,P|451:138|369:135,1,131.99999597168,2|8,0:2|0:2,0:2:0:0:
318,187,61909,1,0,0:2:0:0:
341,330,62075,2,0,P|397:281|400:199,1,131.99999597168,2|8,0:2|0:2,0:2:0:0:
431,24,62575,2,0,B|335:12|334:97|226:83,1,197.99999395752,2|8,0:2|0:2,0:2:0:0:
147,85,63242,1,0,0:2:0:0:
96,1,63409,1,2,0:2:0:0:
13,153,63742,1,8,0:2:0:0:
165,235,64075,6,0,P|228:219|289:239,1,131.99999597168,2|8,0:2|0:2,0:2:0:0:
156,334,64575,2,0,P|107:350|22:323,1,131.99999597168,2|0,0:2|0:2,0:2:0:0:
1,249,65075,1,8,0:2:0:0:
77,193,65242,2,0,B|121:104|29:94|91:0|136:-6,1,197.99999395752,2|8,0:2|0:2,0:2:0:0:
251,43,66075,1,0,0:2:0:0:
169,74,66242,1,0,0:2:0:0:
179,194,66409,1,10,0:2:0:0:
326,82,66742,6,0,P|368:57|462:64,1,131.99999597168,2|8,0:2|0:2,0:2:0:0:
419,227,67409,2,0,P|395:269|310:310,1,131.99999597168,2|8,0:2|0:2,0:2:0:0:
238,304,67909,1,2,0:2:0:0:
199,150,68242,1,0,0:2:0:0:
141,298,68575,1,2,0:2:0:0:
275,213,68909,2,0,P|317:216|351:223,2,65.9999979858399,0|8|0,0:2|0:2|0:2,0:2:0:0:
116,204,69409,6,0,B|78:189|78:189|19:119,1,131.99999597168,2|8,0:2|0:2,0:2:0:0:
162,25,70075,2,0,B|200:40|200:40|259:110,1,131.99999597168,2|8,0:2|0:2,0:2:0:0:
281,192,70575,1,2,0:2:0:0:
452,192,70909,1,0,0:2:0:0:
465,107,71075,1,2,0:2:0:0:
203,276,71575,5,0,0:2:0:0:
169,347,71742,1,8,0:2:0:0:
124,282,71909,1,0,0:2:0:0:
90,353,72075,5,2,0:2:0:0:
0,223,72409,1,8,0:2:0:0:
157,211,72742,1,2,0:2:0:0:
247,341,73075,1,8,0:2:0:0:
169,347,73242,5,2,0:2:0:0:
79,218,73576,1,0,0:2:0:0:
11,359,73909,1,2,0:2:0:0:
236,206,74242,5,0,0:2:0:0:
280,132,74409,1,8,0:2:0:0:
238,57,74575,1,0,0:2:0:0:
153,41,74742,6,0,L|16:33,1,131.99999597168,2|8,0:2|0:2,0:2:0:0:
62,144,75242,2,0,L|193:130,1,131.99999597168,2|0,0:2|0:2,0:2:0:0:
267,88,75742,1,8,0:0:0:0:
341,43,75909,2,0,L|472:28,1,131.99999597168,2|8,0:2|0:2,0:2:0:0:
509,105,76409,2,0,L|504:172,1,65.9999979858399,8|0,0:2|0:2,0:2:0:0:
423,116,76742,2,0,P|373:142|331:213,1,131.99999597168,8|0,0:2|0:2,0:2:0:0:
443,369,77409,6,0,P|403:333|341:301,1,110,2|0,0:2|0:2,0:2:0:0:
218,350,78075,1,0,0:2:0:0:
148,315,78242,1,0,0:2:0:0:
79,351,78409,1,0,0:2:0:0:
9,317,78575,2,0,L|3:204,1,110,2|0,0:2|0:2,0:2:0:0:
82,74,79242,2,0,B|134:89|148:154|148:154|160:213|221:235,1,220,2|0,0:2|0:2,0:2:0:0:
303,238,80075,6,0,P|363:236|431:220,1,110,2|0,0:2|0:2,0:2:0:0:
506,117,80742,1,0,0:2:0:0:
488,41,80909,1,0,0:2:0:0:
414,19,81075,1,0,0:2:0:0:
432,95,81242,2,0,B|428:120|428:120|446:208,1,110,2|0,0:2|0:2,0:2:0:0:
483,352,81909,1,0,0:2:0:0:
483,352,82075,2,0,B|462:337|462:337|374:316,1,110,2|0,0:2|0:2,0:2:0:0:
195,348,82742,6,0,P|255:312|276:273,1,110,2|8,0:2|0:2,0:2:0:0:
252,204,83242,1,0,0:2:0:0:
267,127,83409,1,0,0:2:0:0:
343,142,83575,1,0,0:2:0:0:
328,219,83742,1,8,0:2:0:0:
193,153,83909,2,0,P|141:142|73:136,1,110,2|0,0:2|0:2,0:2:0:0:
10,147,84409,1,8,0:0:0:0:
34,282,84575,1,2,0:2:0:0:
34,282,84742,2,0,L|79:330,1,55,2|0,0:2|0:2,0:2:0:0:
125,374,85075,1,8,0:2:0:0:
269,250,85409,6,0,P|215:240|161:248,1,110,2|8,0:2|0:2,0:2:0:0:
56,136,86075,1,0,0:2:0:0:
123,99,86242,1,0,0:2:0:0:
191,135,86409,1,8,0:2:0:0:
256,96,86575,5,2,0:2:0:0:
344,247,86909,1,2,0:2:0:0:
168,248,87242,1,2,0:2:0:0:
