osu file format v14

[General]
AudioFilename: audio.mp3
AudioLeadIn: 0
PreviewTime: 54909
Countdown: 1
SampleSet: Soft
StackLeniency: 0.7
Mode: 0
LetterboxInBreaks: 0
WidescreenStoryboard: 1

[Editor]
Bookmarks: 16075,21409,42742,50742,56075,61075
DistanceSpacing: 1
BeatDivisor: 2
GridSize: 4
TimelineZoom: 1.7

[Metadata]
Title:MIND CONDUCTOR (TV VER.)
TitleUnicode:MIND CONDUCTOR (TV VER.)
Artist:YURiKA
ArtistUnicode:YURiKA
Creator:AllieBork
Version:Easy
Source:Little Witch Academia
Tags:
BeatmapID:1291483
BeatmapSetID:603973

[Difficulty]
HPDrainRate:1.5
CircleSize:3
OverallDifficulty:1.5
ApproachRate:2
SliderMultiplier:0.8
SliderTickRate:1

[Events]
//Background and Video events
0,0,"background.jpg",0,0
//Break Periods
//Storyboard Layer 0 (Background)
//Storyboard Layer 1 (Fail)
//Storyboard Layer 2 (Pass)
//Storyboard Layer 3 (Foreground)
//Storyboard Sound Samples

[TimingPoints]
76,333.333333333333,4,2,1,60,1,0
5409,-100,4,2,1,70,0,0
21409,-100,4,2,1,70,0,0
42742,-100,4,2,1,70,0,0
50742,-100,4,2,1,80,0,0
56075,-100,4,2,1,100,0,1
77409,-100,4,2,1,70,0,0
86575,-100,4,2,1,70,0,0

[Colours]
Combo1 : 0,128,255
Combo2 : 255,0,0

[HitObjects]
34,164,76,6,0,B|96:121|168:138|168:138|247:160|311:126,1,280,4|0,0:1|0:2,0:2:0:0:
411,75,1742,1,4,0:2:0:0:
484,217,2409,1,4,0:2:0:0:
417,260,2742,6,0,B|354:302|283:285|283:285|203:263|140:298,1,280,4|0,0:1|0:2,0:2:0:0:
79,195,4409,2,0,L|-2:203,2,80,4|0|4,0:2|0:2|0:2,0:2:0:0:
153,166,5409,6,0,P|210:152|241:98,2,120,4|0|0,0:1|0:2|0:2,0:2:0:0:
89,116,6742,2,0,P|45:89|29:56,1,80,0|0,0:2|0:2,0:2:0:0:
106,39,7409,2,0,P|141:56|163:89,1,80,0|0,0:2|0:2,0:2:0:0:
197,161,8075,6,0,L|188:289,2,120,4|0|0,0:1|0:2|0:2,0:2:0:0:
243,95,9409,2,0,P|269:51|304:34,1,80,0|0,0:2|0:2,0:2:0:0:
320,112,10075,2,0,P|370:112|403:134,1,80,0|0,0:2|0:2,0:2:0:0:
343,187,10742,6,0,P|397:205|459:173,2,120,4|0|0,0:1|0:2|0:2,0:2:0:0:
264,170,12075,2,0,P|223:160|184:159,1,80,0|0,0:2|0:2,0:2:0:0:
141,226,12742,2,0,P|100:236|61:237,1,80,0|0,0:2|0:2,0:2:0:0:
7,178,13409,6,0,L|1:58,2,120,4|0|0,0:1|0:2|0:2,0:2:0:0:
5,258,14742,2,0,P|21:313|40:338,1,80,0|0,0:2|0:2,0:2:0:0:
105,366,15409,1,8,0:2:0:0:
184,363,15742,1,8,0:2:0:0:
259,337,16075,6,0,P|313:323|379:320,1,120,4|0,0:1|0:2,0:2:0:0:
478,256,17075,2,0,P|424:242|358:239,1,120,0|0,0:1|0:2,0:2:0:0:
241,257,18075,1,0,0:0:0:0:
214,181,18409,1,8,0:2:0:0:
247,108,18742,6,0,P|306:99|367:99,1,120,4|0,0:1|0:2,0:2:0:0:
436,196,19742,2,0,P|382:182|316:179,1,120,0|0,0:1|0:2,0:2:0:0:
217,245,20742,2,8,P|255:255|305:254,1,80,8|8,0:2|0:2,0:2:0:0:
303,335,21409,6,0,B|244:333|242:359|183:355,1,120,0|2,0:2|0:2,0:2:0:0:
25,350,22575,1,8,0:2:0:0:
80,243,23075,1,8,3:2:0:0:
0,110,23742,1,8,3:2:0:0:
0,110,24075,6,0,P|71:96|127:99,1,120,0|2,0:2|0:2,0:2:0:0:
278,114,25241,1,8,0:2:0:0:
389,70,25742,1,8,3:2:0:0:
501,210,26409,1,8,3:2:0:0:
512,289,26742,6,0,P|452:293|386:285,1,120,0|2,0:2|0:2,0:2:0:0:
243,229,27908,1,8,0:2:0:0:
272,345,28409,1,8,3:2:0:0:
113,324,29075,1,8,3:2:0:0:
135,246,29409,6,0,P|122:185|106:127,1,120,0|2,0:2|0:2,0:2:0:0:
225,112,30409,2,0,P|240:169|253:228,1,120,0|2,0:2|0:2,0:2:0:0:
134,245,31409,1,8,3:2:0:0:
92,313,31742,1,8,3:2:0:0:
171,316,32075,6,0,P|237:307|295:310,1,120,0|2,0:2|0:2,0:2:0:0:
446,344,33242,2,0,L|461:225,1,120,8|8,3:2|3:2,3:2:0:0:
470,145,34075,1,0,3:2:0:0:
414,86,34409,1,8,3:2:0:0:
491,68,34742,6,0,P|464:24|390:10,1,120,0|0,0:2|0:2,0:2:0:0:
294,127,35909,2,0,L|195:59,1,120,8|8,3:2|3:2,3:2:0:0:
131,10,36742,1,0,3:2:0:0:
101,84,37075,1,8,3:2:0:0:
49,22,37409,6,0,B|11:61|25:111|25:111|28:123|29:137,1,120,0|2,0:2|0:2,0:2:0:0:
40,293,38575,2,0,P|88:330|143:356,1,120,8|8,3:2|3:2,3:2:0:0:
217,382,39409,1,0,3:2:0:0:
264,317,39742,1,8,3:2:0:0:
219,250,40075,6,2,P|156:224|103:244,1,120,2|2,0:2|0:2,0:2:0:0:
93,358,41075,2,2,P|163:385|216:365,1,120,2|2,0:2|0:2,0:2:0:0:
311,315,42075,1,0,3:2:0:0:
364,374,42409,1,8,3:2:0:0:
391,298,42742,6,0,B|385:258|345:238|345:238|304:218|296:173,1,160,4|0,0:1|0:2,0:2:0:0:
368,82,43909,2,0,P|371:122|378:161,1,80,2|0,0:2|0:2,0:2:0:0:
439,212,44575,1,2,0:2:0:0:
276,94,45409,6,0,P|198:86|152:157,1,160,4|0,0:1|0:2,0:2:0:0:
240,239,46575,2,2,P|240:199|231:161,2,80,2|2|2,0:2|0:2|0:2,0:2:0:0:
249,357,47742,1,0,0:2:0:0:
169,358,48075,6,0,P|90:359|3:381,2,160,4|0|0,0:1|0:2|0:2,0:2:0:0:
208,288,49742,1,0,0:2:0:0:
178,213,50075,2,2,P|139:166|119:149,1,80,2|2,0:2|0:2,0:2:0:0:
106,75,50742,6,0,P|155:37|253:14,1,160,4|0,0:1|0:2,0:2:0:0:
327,29,51742,1,0,0:2:0:0:
389,79,52075,2,0,P|412:118|410:159,1,80,2|0,0:2|0:2,0:2:0:0:
354,209,52742,2,0,P|333:176|332:137,1,80,2|0,0:2|0:2,0:2:0:0:
268,88,53409,5,4,0:1:0:0:
250,165,53742,1,8,0:2:0:0:
171,171,54075,1,0,0:2:0:0:
140,97,54409,1,8,0:2:0:0:
201,46,54742,1,8,0:2:0:0:
96,232,56075,5,4,0:1:0:0:
109,72,56742,2,2,P|171:89|224:131,1,120,2|2,0:2|0:2,0:2:0:0:
310,298,58075,1,0,0:2:0:0:
365,240,58409,1,0,0:2:0:0:
380,161,58742,2,2,P|382:106|372:39,2,120,2|2|2,0:2|0:2|0:2,0:2:0:0:
304,186,60075,1,0,0:2:0:0:
232,149,60409,5,0,0:0:0:0:
218,227,60742,1,0,0:0:0:0:
157,279,61075,1,0,0:0:0:0:
219,328,61409,5,4,0:1:0:0:
378,316,62075,2,2,P|444:329|488:375,1,120,2|2,0:2|0:2,0:2:0:0:
508,165,63409,1,0,0:2:0:0:
495,85,63742,1,0,0:2:0:0:
499,5,64075,2,2,L|378:17,1,120,2|2,0:2|0:2,0:2:0:0:
299,27,64909,1,0,0:2:0:0:
222,2,65242,1,2,0:2:0:0:
409,151,66409,1,0,0:0:0:0:
374,224,66742,6,0,P|331:208|296:201,1,80,4|0,0:1|0:2,0:2:0:0:
217,193,67409,1,2,0:2:0:0:
129,275,67909,2,2,P|99:313|78:357,2,80,2|2|2,0:2|0:2|0:2,0:2:0:0:
243,310,69075,1,0,0:2:0:0:
322,298,69409,2,0,L|409:308,1,80,4|0,0:1|0:2,0:2:0:0:
458,251,70075,2,2,L|472:129,2,120,2|2|2,0:2|0:2|0:2,0:2:0:0:
379,232,71409,1,0,0:0:0:0:
332,167,71742,1,0,0:0:0:0:
261,131,72075,6,0,L|174:135,1,80,4|0,0:1|0:2,0:2:0:0:
101,142,72742,1,2,0:2:0:0:
184,55,73242,2,2,L|263:51,1,80,2|2,0:2|0:2,0:2:0:0:
343,46,73909,1,2,0:2:0:0:
421,136,74409,1,0,0:2:0:0:
408,214,74742,2,0,P|376:278|321:310,1,120,4|0,0:1|0:2,0:2:0:0:
260,326,75575,1,0,0:2:0:0:
181,312,75909,1,2,0:2:0:0:
34,176,76742,1,0,0:0:0:0:
100,131,77075,1,0,0:0:0:0:
107,209,77409,6,0,P|196:200|268:166,1,160,4|0,0:1|0:2,0:2:0:0:
366,116,78575,2,0,P|380:157|374:206,1,80
328,256,79242,1,0,0:2:0:0:
141,183,80075,6,0,P|218:138|289:113,1,160,4|0,0:1|0:2,0:2:0:0:
301,233,81242,2,0,L|216:267,1,80
115,218,82075,1,0,0:2:0:0:
65,280,82409,1,0,0:0:0:0:
102,352,82742,6,0,P|179:335|243:260,1,160,4|0,0:1|0:2,0:2:0:0:
251,200,83742,1,0,0:0:0:0:
293,132,84075,2,0,P|363:88|439:85,1,160,0|0,0:2|0:2,0:2:0:0:
426,164,85075,1,0,0:0:0:0:
408,243,85409,6,0,P|345:283|261:289,1,160,4|0,0:1|0:2,0:2:0:0:
225,173,86575,2,2,P|256:148|292:131,1,80,2|2,0:2|0:2,0:2:0:0:
372,126,87242,1,2,0:2:0:0:
