osu file format v14

[General]
AudioFilename: audio.mp3
AudioLeadIn: 0
PreviewTime: 54909
Countdown: 1
SampleSet: Soft
StackLeniency: 0.7
Mode: 0
LetterboxInBreaks: 0
WidescreenStoryboard: 1

[Editor]
Bookmarks: 5409,16075,21409,42742,50742,56075
DistanceSpacing: 1
BeatDivisor: 4
GridSize: 4
TimelineZoom: 1.8

[Metadata]
Title:MIND CONDUCTOR (TV VER.)
TitleUnicode:MIND CONDUCTOR (TV VER.)
Artist:YURiKA
ArtistUnicode:YURiKA
Creator:AllieBork
Version:Normal
Source:Little Witch Academia
Tags:
BeatmapID:1291261
BeatmapSetID:603973

[Difficulty]
HPDrainRate:4
CircleSize:3.5
OverallDifficulty:5
ApproachRate:6
SliderMultiplier:1
SliderTickRate:1

[Events]
//Background and Video events
0,0,"background.jpg",0,0
//Break Periods
//Storyboard Layer 0 (Background)
//Storyboard Layer 1 (Fail)
//Storyboard Layer 2 (Pass)
//Storyboard Layer 3 (Foreground)
//Storyboard Sound Samples

[TimingPoints]
76,333.333333333333,4,2,1,60,1,0
5409,-83.3333333333333,4,2,1,70,0,0
16075,-100,4,2,1,70,0,0
21409,-100,4,2,1,70,0,0
42742,-125,4,2,1,70,0,0
48075,-100,4,2,1,70,0,0
50742,-90.9090909090909,4,2,1,80,0,0
56075,-83.3333333333333,4,2,1,100,0,1
77409,-100,4,2,1,70,0,0
86575,-100,4,2,1,70,0,0
87242,-105.263157894737,4,2,1,70,0,0

[Colours]
Combo1 : 0,128,255
Combo2 : 255,0,0

[HitObjects]
113,137,76,6,0,P|163:157|210:160,1,100,0|4,0:2|0:2,0:2:0:0:
263,170,575,2,0,P|307:198|336:255,2,100,0|0|0,0:2|0:2|0:2,0:2:0:0:
227,274,1575,1,0,0:2:0:0:
227,274,1742,2,0,P|178:263|130:274,2,100,4|0|4,0:2|0:2|0:2,0:2:0:0:
330,312,2742,6,0,L|394:225,1,100,8|4,0:2|0:2,0:2:0:0:
400,177,3242,2,0,P|404:127|423:81,2,100,8|0|0,0:2|0:2|0:2,0:2:0:0:
453,273,4242,1,0,0:2:0:0:
453,273,4409,2,0,P|450:320|411:365,1,100,4|8,0:2|0:2,0:2:0:0:
312,330,5075,1,4,0:2:0:0:
206,361,5409,6,2,P|152:332|107:217,2,179.999994506836,2|2|2,0:2|0:2|0:2,0:2:0:0:
250,357,6575,1,2,0:2:0:0:
251,224,6909,1,0,0:2:0:0:
360,302,7242,1,2,0:2:0:0:
361,169,7575,1,0,0:2:0:0:
470,247,7909,1,2,0:2:0:0:
475,181,8075,6,2,P|457:106|370:56,1,179.999994506836,2|2,0:2|0:2,0:2:0:0:
241,72,8909,1,0,0:2:0:0:
284,196,9242,1,2,0:2:0:0:
370,97,9575,1,0,0:2:0:0:
413,221,9909,1,2,0:2:0:0:
413,221,10075,6,0,P|384:283|328:321,1,119.999996337891,2|0,0:2|0:2,0:2:0:0:
213,331,10742,6,0,P|107:344|30:369,1,179.999994506836,2|2,0:2|0:2,0:2:0:0:
10,236,11575,2,0,P|6:203|4:167,1,59.9999981689454,0|0,0:2|0:2,0:2:0:0:
0,109,11909,1,2,0:2:0:0:
76,1,12242,1,0,0:2:0:0:
184,77,12575,1,2,0:2:0:0:
108,185,12909,1,0,0:2:0:0:
108,316,13242,1,2,0:2:0:0:
108,316,13409,6,0,B|175:306|175:306|236:309|236:309|304:298,1,179.999994506836,2|0,0:2|0:2,0:2:0:0:
401,235,14242,2,0,L|425:172,1,59.9999981689454,0|0,0:2|0:2,0:2:0:0:
430,113,14575,2,0,P|409:66|349:16,1,119.999996337891,2|0,0:2|0:2,0:2:0:0:
293,7,15075,2,0,L|262:61,1,59.9999981689454,0|0,0:2|0:2,0:2:0:0:
246,123,15409,1,8,0:0:0:0:
128,83,15742,1,8,0:0:0:0:
23,125,16075,6,0,L|34:179,1,50,0|0,0:2|0:2,0:2:0:0:
60,280,16575,2,0,L|165:257,1,100,0|0,0:2|0:2,0:2:0:0:
203,228,17075,2,0,L|214:282,1,50,0|0,0:2|0:2,0:2:0:0:
240,383,17575,2,0,L|345:360,1,100,0|0,0:2|0:2,0:2:0:0:
391,348,18075,1,2,0:2:0:0:
424,242,18409,1,2,0:2:0:0:
391,136,18742,6,0,L|335:113,1,50,0|0,0:2|0:2,0:2:0:0:
241,79,19242,2,0,P|201:91|143:81,1,100,0|0,0:2|0:2,0:2:0:0:
93,59,19742,2,0,L|70:115,1,50,0|0,0:2|0:2,0:2:0:0:
42,210,20242,2,0,P|82:198|140:208,1,100,0|0,0:2|0:2,0:2:0:0:
188,230,20742,2,0,L|243:222,2,50,8|0|0,3:2|3:2|3:2,3:2:0:0:
283,252,21409,5,0,0:2:0:0:
283,252,21575,1,0,0:2:0:0:
366,323,21909,2,0,L|467:336,3,100,0|0|8|0,3:2|3:2|3:2|3:2,3:2:0:0:
504,374,23075,1,8,3:2:0:0:
509,209,23575,1,0,3:2:0:0:
509,209,23742,1,8,3:2:0:0:
401,234,24075,5,0,0:2:0:0:
401,234,24242,1,0,0:2:0:0:
432,128,24575,2,0,B|432:72|432:72|450:28,3,100,0|0|8|0,3:2|3:2|3:2|3:2,3:2:0:0:
495,2,25742,1,8,3:2:0:0:
332,4,26242,1,0,3:2:0:0:
332,4,26409,1,8,3:2:0:0:
357,110,26742,5,0,0:2:0:0:
357,110,26909,1,0,0:2:0:0:
252,78,27242,2,0,P|198:84|143:103,3,100,0|0|8|0,3:2|3:2|3:2|3:2,3:2:0:0:
115,136,28409,1,8,3:2:0:0:
140,300,28909,1,0,3:2:0:0:
140,300,29075,1,8,3:2:0:0:
223,228,29409,6,0,L|235:126,1,100,2|0,0:2|0:2,0:2:0:0:
289,131,29909,2,0,L|300:230,1,100,2|0,0:2|0:2,0:2:0:0:
355,229,30409,2,0,L|367:127,1,100,2|0,0:2|0:2,0:2:0:0:
421,132,30909,2,0,L|432:231,1,100,2|0,0:2|0:2,0:2:0:0:
439,286,31409,1,0,0:2:0:0:
329,276,31742,1,0,0:2:0:0:
297,381,32075,5,2,0:2:0:0:
189,357,32409,1,0,0:2:0:0:
189,357,32575,1,2,0:2:0:0:
81,382,32909,1,0,0:2:0:0:
81,382,33075,1,2,0:2:0:0:
5,300,33409,1,0,0:2:0:0:
5,300,33575,1,2,0:2:0:0:
38,193,33909,1,0,0:2:0:0:
38,193,34075,1,2,0:2:0:0:
147,168,34409,1,2,0:2:0:0:
223,250,34742,6,0,P|274:242|340:244,1,100,2|0,0:2|0:2,0:2:0:0:
361,280,35242,2,0,P|412:288|478:286,1,100,2|0,0:2|0:2,0:2:0:0:
509,263,35742,1,0,0:2:0:0:
509,207,35909,2,0,P|501:156|503:90,1,100,2|0,0:2|0:2,0:2:0:0:
511,53,36409,2,0,P|478:52|444:54,1,50,0|0,0:2|0:2,0:2:0:0:
409,71,36742,2,0,P|376:72|342:70,1,50,0|0,0:2|0:2,0:2:0:0:
304,63,37075,1,2,0:2:0:0:
209,8,37409,6,0,P|171:5|101:18,1,100,2|0,0:2|0:2,0:2:0:0:
65,46,37909,2,0,P|43:77|19:144,1,100,2|0,0:2|0:2,0:2:0:0:
14,189,38409,1,2,0:2:0:0:
14,189,38575,1,8,0:2:0:0:
68,282,38909,1,0,0:2:0:0:
68,282,39075,1,8,0:2:0:0:
122,188,39409,1,0,0:2:0:0:
224,227,39742,1,8,0:2:0:0:
207,118,40075,6,2,P|200:76|178:22,1,100,0|8,0:2|0:2,0:2:0:0:
233,30,40575,2,2,P|275:23|329:1,1,100,0|8,0:2|0:2,0:2:0:0:
321,56,41075,2,2,P|328:98|350:152,1,100,0|8,0:2|0:2,0:2:0:0:
295,144,41575,2,2,P|253:151|199:173,1,100,0|8,0:2|0:2,0:2:0:0:
154,202,42075,1,8,0:2:0:0:
115,305,42409,1,8,0:2:0:0:
45,219,42742,6,0,P|34:152|17:89,1,120,4|0,0:1|0:2,0:2:0:0:
2,61,43409,1,0,3:2:0:0:
19,20,43575,1,0,3:2:0:0:
59,2,43742,1,0,3:2:0:0:
102,5,43909,2,0,P|143:22|196:32,3,80,0|0|2|0,3:2|3:2|3:2|3:2,3:2:0:0:
221,33,45075,1,0,3:2:0:0:
265,30,45242,1,0,3:2:0:0:
307,17,45409,6,0,P|348:8|389:10,1,80,2|0,3:2|3:2,3:2:0:0:
429,15,45909,1,0,3:2:0:0:
461,44,46075,2,0,P|452:83|454:122,1,80,2|0,3:2|3:2,3:2:0:0:
492,134,46575,2,0,P|506:171|511:210,3,80,2|0|2|0,3:2|3:2|3:2|3:2,3:2:0:0:
509,251,47742,1,2,0:2:0:0:
488,347,48075,6,0,P|438:329|386:330,1,100,0|0,0:2|0:2,0:2:0:0:
293,277,48742,2,0,P|344:271|388:237,1,100,0|0,0:2|0:2,0:2:0:0:
417,199,49242,1,4,0:2:0:0:
381,95,49575,1,4,0:2:0:0:
309,179,49909,1,4,0:2:0:0:
309,179,50075,1,0,0:2:0:0:
273,75,50409,1,0,0:2:0:0:
165,53,50742,6,0,P|115:49|52:65,1,110.000003356934,2|0,0:2|0:2,0:2:0:0:
35,119,51242,1,0,0:0:0:0:
64,172,51409,2,0,P|114:176|177:160,1,110.000003356934,2|0,0:2|0:2,0:2:0:0:
224,132,51909,1,0,0:0:0:0:
256,81,52075,5,2,0:0:0:0:
377,73,52409,1,2,0:0:0:0:
387,195,52742,1,2,0:0:0:0:
265,205,53075,1,2,0:0:0:0:
346,297,53409,6,0,P|391:306|458:279,1,110.000003356934,2|0,0:2|0:2,0:2:0:0:
490,240,53909,1,0,0:0:0:0:
502,180,54075,1,2,0:2:0:0:
428,83,54409,1,0,0:2:0:0:
371,102,54575,1,0,0:2:0:0:
311,92,54742,1,2,0:2:0:0:
394,195,55075,5,0,0:2:0:0:
339,314,55409,1,0,0:2:0:0:
220,259,55742,1,0,0:2:0:0:
275,140,56075,6,0,P|314:85|356:52,1,119.999996337891,4|8,0:1|0:2,0:2:0:0:
410,30,56575,1,0,0:2:0:0:
464,55,56742,2,0,B|487:83|487:83|496:180,1,119.999996337891,10|8,0:2|0:2,0:2:0:0:
483,225,57242,2,0,P|440:212|290:232,1,179.999994506836,2|8,0:2|0:2,0:2:0:0:
204,285,58075,1,8,0:2:0:0:
308,343,58409,1,8,0:2:0:0:
411,282,58742,6,0,P|446:234|459:172,1,119.999996337891,4|8,0:1|0:2,0:2:0:0:
457,115,59242,2,0,L|446:51,1,59.9999981689454,2|8,0:2|0:2,0:2:0:0:
395,24,59575,2,0,L|345:65,1,59.9999981689454,2|8,0:2|0:2,0:2:0:0:
348,124,59909,2,0,L|408:146,1,59.9999981689454,2|0,0:2|0:2,0:2:0:0:
397,264,60409,1,8,0:2:0:0:
277,260,60742,1,8,0:2:0:0:
159,235,61075,1,8,0:2:0:0:
47,189,61409,6,0,B|13:152|13:152|6:75,1,119.999996337891,4|8,0:1|0:2,0:2:0:0:
4,22,61909,1,0,0:2:0:0:
63,36,62075,2,0,P|122:45|186:32,1,119.999996337891,10|8,0:2|0:2,0:2:0:0:
232,3,62575,2,0,B|244:47|283:65|283:65|324:86|341:140,1,179.999994506836,2|8,0:2|0:2,0:2:0:0:
350,259,63409,1,8,0:2:0:0:
418,160,63742,1,8,0:2:0:0:
403,41,64075,6,0,P|351:60|309:111,1,119.999996337891,4|8,0:1|0:2,0:2:0:0:
290,165,64575,2,0,L|271:232,1,59.9999981689454,2|8,0:2|0:2,0:2:0:0:
214,210,64909,2,0,L|195:143,1,59.9999981689454,2|8,0:2|0:2,0:2:0:0:
137,139,65242,2,0,B|123:177|123:177|161:319,1,179.999994506836,2|8,0:2|0:2,0:2:0:0:
269,358,66075,2,0,L|339:351,1,59.9999981689454,8|0,0:2|0:2,0:2:0:0:
389,354,66409,2,0,L|459:361,1,59.9999981689454,8|0,0:2|0:2,0:2:0:0:
508,368,66742,6,0,P|493:316|483:230,1,119.999996337891,4|8,0:1|0:2,0:2:0:0:
493,130,67409,2,0,P|490:81|444:24,1,119.999996337891,2|8,0:2|0:2,0:2:0:0:
390,8,67909,2,0,L|328:2,1,59.9999981689454,2|0,0:2|0:2,0:2:0:0:
338,61,68242,2,0,L|281:86,1,59.9999981689454,2|8,0:2|0:2,0:2:0:0:
319,132,68575,2,0,L|282:182,1,59.9999981689454,2|0,0:2|0:2,0:2:0:0:
338,202,68909,1,0,0:2:0:0:
332,261,69075,1,8,0:2:0:0:
296,309,69242,1,0,0:2:0:0:
241,334,69409,6,0,P|200:343|114:332,1,119.999996337891,4|8,0:1|0:2,0:2:0:0:
61,232,70075,2,0,P|102:223|188:234,1,119.999996337891,2|8,0:2|0:2,0:2:0:0:
235,252,70575,1,0,0:2:0:0:
355,252,70909,1,0,0:2:0:0:
411,231,71075,1,8,0:2:0:0:
358,58,71575,2,0,P|386:45|416:40,2,59.9999981689454,0|8|0,0:2|0:2|0:2,0:2:0:0:
314,99,72075,6,0,P|273:131|191:157,1,119.999996337891,4|8,0:1|0:2,0:2:0:0:
195,273,72742,2,0,P|236:305|318:331,1,119.999996337891,2|8,0:2|0:2,0:2:0:0:
359,328,73242,2,0,L|424:315,1,59.9999981689454,2|0,0:2|0:2,0:2:0:0:
449,265,73575,2,0,L|405:214,1,59.9999981689454,2|8,0:2|0:2,0:2:0:0:
350,218,73909,2,0,L|328:280,1,59.9999981689454,2|0,0:2|0:2,0:2:0:0:
299,328,74242,1,0,0:2:0:0:
248,360,74409,1,8,0:2:0:0:
188,366,74575,1,0,0:2:0:0:
132,342,74742,6,0,B|109:322|97:287|97:287|88:261|65:239,1,119.999996337891,4|8,0:1|0:2,0:2:0:0:
26,198,75242,2,0,P|12:172|6:139,1,59.9999981689454,2|0,0:2|0:2,0:2:0:0:
53,105,75575,2,0,P|78:120|99:146,1,59.9999981689454,2|0,0:2|0:2,0:2:0:0:
142,184,75909,2,0,B|181:202|226:196|226:196|275:189|317:213,1,179.999994506836,2|8,0:2|0:2,0:2:0:0:
364,248,76575,1,0,0:2:0:0:
389,302,76742,1,8,0:2:0:0:
503,339,77075,1,8,0:2:0:0:
479,222,77409,6,0,P|473:167|478:117,1,100,4|0,0:1|0:2,0:2:0:0:
497,14,78075,2,0,P|434:6|388:9,1,100,2|0,0:2|0:2,0:2:0:0:
344,21,78575,1,2,0:2:0:0:
282,109,78909,1,2,0:2:0:0:
390,119,79242,1,2,0:2:0:0:
390,119,79409,1,2,0:2:0:0:
282,310,80075,6,0,P|232:292|183:286,1,100,4|0,0:1|0:2,0:2:0:0:
76,270,80742,2,0,P|33:254|6:209,1,100,2|0,0:2|0:2,0:2:0:0:
0,154,81242,1,2,0:2:0:0:
74,73,81575,1,2,0:2:0:0:
107,177,81909,1,2,0:2:0:0:
107,177,82075,2,0,P|152:180|209:176,1,100,2|0,0:2|0:2,0:2:0:0:
307,132,82742,6,0,P|343:104|379:60,1,100,4|8,0:1|0:2,0:2:0:0:
421,29,83242,1,0,0:2:0:0:
474,41,83409,2,0,P|502:86|502:132,1,100,2|8,0:2|0:2,0:2:0:0:
491,185,83909,1,2,0:2:0:0:
387,220,84242,1,2,0:2:0:0:
409,112,84575,2,0,B|386:72|386:72|290:20,1,150,2|8,0:2|0:2,0:2:0:0:
209,91,85409,6,0,P|200:140|167:197,1,100,4|8,0:1|0:2,0:2:0:0:
137,222,85909,1,0,0:2:0:0:
86,243,86075,2,0,L|29:246,2,50,2|0|8,0:2|0:2|0:2,0:2:0:0:
130,275,86575,5,2,0:2:0:0:
252,320,86909,1,2,0:2:0:0:
230,192,87242,1,2,0:0:0:0:
