osu file format v14

[General]
AudioFilename: audio.mp3
AudioLeadIn: 0
PreviewTime: 54909
Countdown: 0
SampleSet: Soft
StackLeniency: 0.6
Mode: 0
LetterboxInBreaks: 0
WidescreenStoryboard: 1

[Editor]
Bookmarks: 5409,16075,21409,42742,50742,56075
DistanceSpacing: 1.2
BeatDivisor: 4
GridSize: 4
TimelineZoom: 3.199999

[Metadata]
Title:MIND CONDUCTOR (TV VER.)
TitleUnicode:MIND CONDUCTOR (TV VER.)
Artist:YURiKA
ArtistUnicode:YURiKA
Creator:AllieBork
Version:Hyper
Source:Little Witch Academia
Tags:
BeatmapID:1284438
BeatmapSetID:603973

[Difficulty]
HPDrainRate:5
CircleSize:4
OverallDifficulty:7
ApproachRate:8
SliderMultiplier:1.2
SliderTickRate:1

[Events]
//Background and Video events
0,0,"background.jpg",0,0
//Break Periods
//Storyboard Layer 0 (Background)
//Storyboard Layer 1 (Fail)
//Storyboard Layer 2 (Pass)
//Storyboard Layer 3 (Foreground)
//Storyboard Sound Samples

[TimingPoints]
76,333.333333333333,4,2,1,60,1,0
5409,-83.3333333333333,4,2,1,70,0,0
16075,-111.111111111111,4,2,1,70,0,0
18075,-166.666666666666,4,2,1,70,0,0
18409,-111.111111111111,4,2,1,70,0,0
21409,-90.9090909090908,4,2,1,70,0,0
42742,-142.857142857143,4,2,1,70,0,0
44742,-100,4,2,1,70,0,0
45409,-142.857142857143,4,2,1,70,0,0
46075,-100,4,2,1,70,0,0
46575,-142.857142857143,4,2,1,70,0,0
47242,-100,4,2,1,70,0,0
48075,-83.3333333333333,4,2,1,70,0,0
49242,-90.9090909090909,4,2,1,70,0,0
50075,-83.3333333333333,4,2,1,70,0,0
50742,-71.4285714285714,4,2,1,80,0,0
55075,-111.111111111111,4,2,1,70,0,0
55409,-86.9565217391304,4,2,1,70,0,0
55742,-76.9230769230769,4,2,1,70,0,0
56075,-71.4285714285714,4,2,1,100,0,1
60409,-90.9090909090909,4,2,1,70,0,1
61409,-71.4285714285714,4,2,1,100,0,1
66742,-76.9230769230769,4,2,1,85,0,1
77409,-83.3333333333333,4,2,1,70,0,0
82742,-76.9230769230769,4,2,1,70,0,0
86575,-76.9230769230769,4,2,1,70,0,0

[Colours]
Combo1 : 0,128,255
Combo2 : 255,0,0

[HitObjects]
296,200,76,6,0,L|362:192,2,60,2|0|4,0:2|0:2|0:2,0:2:0:0:
224,184,575,2,0,P|176:172|104:188,1,120,2|0,0:2|0:2,0:2:0:0:
69,267,1075,1,4,0:2:0:0:
113,345,1242,2,0,P|161:357|233:341,1,120,2|0,0:2|0:2,0:2:0:0:
292,278,1742,1,4,0:2:0:0:
201,259,1909,1,0,0:2:0:0:
320,362,2075,5,2,0:2:0:0:
383,297,2242,1,0,0:2:0:0:
355,213,2409,1,4,0:2:0:0:
264,194,2575,1,0,3:2:0:0:
327,129,2742,6,0,P|365:126|396:135,2,60,2|0|4,3:2|3:2|3:2,3:2:0:0:
264,194,3242,2,0,P|191:199|140:164,1,120,2|0,0:2|0:2,0:2:0:0:
131,89,3742,1,4,0:2:0:0:
221,100,3909,2,0,P|226:173|191:224,1,120,2|0,0:2|0:2,0:2:0:0:
128,260,4409,1,4,0:2:0:0:
47,219,4575,1,0,0:2:0:0:
122,170,4742,5,2,3:2:0:0:
53,309,4909,1,0,3:2:0:0:
207,299,5075,2,0,L|239:297,3,30,0|0|0|0,0:2|0:2|0:2|0:2,0:2:0:0:
280,317,5409,6,0,P|326:276|413:257,1,143.999995605469,2|8,0:2|0:2,0:2:0:0:
512,373,5909,2,0,P|476:381|436:383,1,71.9999978027344,2|0,0:2|0:2,0:2:0:0:
347,381,6242,1,0,0:2:0:0:
301,298,6409,1,8,0:2:0:0:
395,300,6575,6,0,L|475:292,1,71.9999978027344,2|0,0:2|0:2,0:2:0:0:
512,209,6909,2,0,L|432:201,1,71.9999978027344,0|8,0:2|0:2,0:2:0:0:
395,118,7242,2,0,L|475:110,1,71.9999978027344,2|0,0:2|0:2,0:2:0:0:
512,27,7575,2,0,L|432:19,1,71.9999978027344,0|8,0:2|0:2,0:2:0:0:
319,9,7909,1,2,0:2:0:0:
395,118,8075,6,0,P|421:183|401:256,1,143.999995605469,2|8,0:2|0:2,0:2:0:0:
240,196,8575,2,0,P|275:188|311:189,1,71.9999978027344,2|0,0:2|0:2,0:2:0:0:
328,316,8909,2,0,P|292:323|257:322,1,71.9999978027344,0|8,0:2|0:2,0:2:0:0:
140,248,9242,2,0,P|105:247|70:255,1,71.9999978027344,2|0,0:2|0:2,0:2:0:0:
81,378,9576,2,0,P|116:379|151:371,1,71.9999978027344,0|8,0:2|0:2,0:2:0:0:
217,304,9909,1,2,0:2:0:0:
140,248,10075,5,2,0:2:0:0:
120,139,10242,1,0,0:2:0:0:
225,120,10409,1,10,0:2:0:0:
245,228,10575,1,0,0:2:0:0:
140,248,10742,6,0,P|63:234|18:185,1,143.999995605469,2|8,0:2|0:2,0:2:0:0:
32,53,11242,2,0,L|102:40,1,71.9999978027344,2|0,0:2|0:2,0:2:0:0:
288,8,11575,5,0,0:2:0:0:
195,24,11742,1,8,0:2:0:0:
159,115,11909,2,0,L|131:185,1,71.9999978027344,2|0,0:2|0:2,0:2:0:0:
233,177,12242,2,0,L|224:251,1,71.9999978027344,0|8,0:2|0:2,0:2:0:0:
320,217,12575,2,0,L|330:291,1,71.9999978027344,2|0,0:2|0:2,0:2:0:0:
414,233,12909,2,0,L|443:302,1,71.9999978027344,0|8,0:2|0:2,0:2:0:0:
381,370,13242,1,2,0:2:0:0:
268,321,13409,6,0,B|220:304|220:304|126:309,1,143.999995605469,2|8,0:2|0:2,0:2:0:0:
0,379,13909,2,0,P|36:383|71:379,1,71.9999978027344,2|0,0:2|0:2,0:2:0:0:
96,269,14242,1,0,0:2:0:0:
142,378,14409,1,8,0:2:0:0:
25,249,14575,6,0,B|14:197|14:197|27:104,1,143.999995605469,2|0,0:2|0:2,0:2:0:0:
53,0,15075,1,8,0:2:0:0:
60,100,15242,1,0,0:2:0:0:
96,13,15409,1,8,0:2:0:0:
107,98,15575,1,0,0:2:0:0:
149,31,15742,1,8,0:2:0:0:
173,98,15909,1,0,0:2:0:0:
220,44,16075,6,0,P|251:36|280:32,1,53.9999983520508,2|0,0:2|0:2,0:2:0:0:
426,97,16575,2,0,P|372:86|307:85,1,107.999996704102,2|0,0:2|0:2,0:2:0:0:
218,149,17075,6,0,P|249:141|278:137,1,53.9999983520508,2|0,0:2|0:2,0:2:0:0:
424,202,17575,2,0,P|370:191|305:190,1,107.999996704102,2|0,0:2|0:2,0:2:0:0:
185,304,18075,6,0,P|214:301|242:303,1,53.9999983520508,2|0,0:2|0:2,0:2:0:0:
281,316,18409,2,0,L|287:260,1,53.9999983520508,8|0,0:2|0:2,0:2:0:0:
261,178,18742,5,2,0:2:0:0:
261,178,18909,1,0,0:2:0:0:
93,140,19242,2,0,P|147:129|212:128,1,107.999996704102,2|0,0:2|0:2,0:2:0:0:
260,80,19742,5,2,0:2:0:0:
260,80,19909,1,0,0:2:0:0:
92,42,20242,2,0,P|146:31|211:30,1,107.999996704102,2|0,0:2|0:2,0:2:0:0:
268,6,20742,6,0,L|329:2,1,53.9999983520508,8|0,3:2|3:2,3:2:0:0:
352,13,20992,1,0,3:2:0:0:
374,36,21075,2,0,L|378:70,3,26.9999991760254,0|0|0|0,3:2|3:2|3:2|3:2,3:2:0:0:
413,94,21409,6,0,P|452:88|489:88,2,66.0000020141602,2|0|8,0:2|0:2|0:2,0:2:0:0:
285,141,21909,1,2,0:2:0:0:
285,141,22242,6,0,B|274:6,2,132.00000402832,0|8|0,3:2|3:2|3:2,3:2:0:0:
297,259,23075,1,8,3:2:0:0:
91,327,23575,1,0,3:2:0:0:
83,213,23742,1,8,3:2:0:0:
83,213,24075,6,0,P|45:220|14:220,2,66.0000020141602,2|0|8,0:2|0:2|0:2,0:2:0:0:
225,197,24575,1,2,0:2:0:0:
225,197,24909,6,0,B|229:151|229:151|215:109|215:109|218:66,2,132.00000402832,0|8|0,3:2|3:2|3:2,3:2:0:0:
214,315,25742,1,8,3:2:0:0:
428,354,26242,1,0,3:2:0:0:
443,240,26409,1,8,3:2:0:0:
443,240,26742,6,0,P|478:238|509:240,2,66.0000020141602,2|0|8,0:2|0:2|0:2,0:2:0:0:
302,250,27242,1,2,0:2:0:0:
302,250,27575,6,0,B|307:207|307:207|298:117,2,132.00000402832,0|8|0,3:2|3:2|3:2,3:2:0:0:
281,367,28409,1,8,3:2:0:0:
76,296,28909,1,0,3:2:0:0:
101,183,29075,1,8,3:2:0:0:
101,183,29409,6,0,P|158:179|206:167,1,99.0000030212403,2|0,0:2|0:2,0:2:0:0:
231,140,29742,2,0,P|247:163|255:220,1,66.0000020141602,0|2,0:2|0:2,0:2:0:0:
469,265,30242,1,0,0:2:0:0:
469,265,30409,6,0,P|412:261|364:249,1,99.0000030212403,2|0,0:2|0:2,0:2:0:0:
339,222,30742,2,0,P|323:245|315:302,1,66.0000020141602,0|2,0:2|0:2,0:2:0:0:
101,347,31242,1,8,0:2:0:0:
101,347,31409,6,0,P|158:343|206:331,1,99.0000030212403,8|0,0:2|0:2,0:2:0:0:
231,304,31742,2,0,P|235:273|250:242,1,66.0000020141602,8|0,0:2|0:2,0:2:0:0:
417,257,32075,6,0,P|362:256|288:224,1,132.00000402832,4|8,0:1|0:2,0:2:0:0:
177,149,32575,1,0,0:2:0:0:
177,149,32909,6,0,B|168:91|168:91|155:62|155:62|149:15,2,132.00000402832,0|8|0,3:2|3:2|3:2,3:2:0:0:
195,267,33742,1,8,3:2:0:0:
404,328,34242,1,0,3:2:0:0:
390,214,34409,1,8,3:2:0:0:
390,214,34742,6,0,P|425:206|456:203,2,66.0000020141602,0|0|8,0:2|0:2|1:2,0:2:0:0:
264,259,35242,1,0,0:2:0:0:
264,259,35575,6,0,B|274:115,2,132.00000402832,0|8|0,3:2|3:2|3:2,3:2:0:0:
253,382,36409,1,8,3:2:0:0:
73,255,36909,1,0,3:2:0:0:
88,136,37075,1,8,3:2:0:0:
88,136,37409,6,0,B|45:145|17:145,2,66.0000020141602,0|0|8,0:2|0:2|1:2,0:2:0:0:
224,109,37909,1,0,0:2:0:0:
224,109,38242,6,0,B|217:60|217:60|157:1,2,132.00000402832,0|8|0,3:2|3:2|3:2,3:2:0:0:
239,226,39075,1,8,3:2:0:0:
436,137,39575,1,0,3:2:0:0:
425,24,39742,1,8,3:2:0:0:
425,24,40075,6,0,P|458:20|490:20,2,66.0000020141602,0|8|8,0:2|0:2|0:2,0:2:0:0:
311,65,40575,2,0,P|278:61|246:61,2,66.0000020141602,0|8|8,0:2|0:2|0:2,0:2:0:0:
425,106,41075,2,0,P|458:102|490:102,2,66.0000020141602,0|8|8,1:2|3:2|3:2,3:2:0:0:
311,147,41575,2,0,P|278:143|246:143,2,66.0000020141602,0|8|0,1:2|3:2|3:2,3:2:0:0:
425,188,42075,5,8,1:2:0:0:
311,229,42242,1,0,3:2:0:0:
425,270,42409,1,8,1:2:0:0:
311,311,42575,1,0,3:2:0:0:
382,384,42742,6,0,P|328:358|260:356,1,125.999996154785,4|0,0:1|0:2,0:2:0:0:
140,369,43409,1,2,3:2:0:0:
164,301,43575,1,0,3:2:0:0:
164,229,43742,1,0,3:2:0:0:
139,160,43909,6,0,P|185:148|221:127,1,83.9999974365235,2|0,3:2|0:2,0:2:0:0:
340,112,44409,2,0,P|353:133|367:171,1,62.9999980773926,8|0,0:2|0:2,0:2:0:0:
370,210,44742,2,0,P|343:205|306:208,1,60,8|0,0:2|0:2,0:2:0:0:
357,321,45075,2,0,P|384:326|421:323,1,60,0|0,0:2|0:2,0:2:0:0:
488,228,45409,6,0,P|486:177|465:137,1,83.9999974365235,4|0,0:1|0:2,0:2:0:0:
423,95,45909,1,0,0:2:0:0:
351,86,46075,2,0,L|347:126,4,30,0|0|0|0|0,3:2|3:2|3:2|3:2|3:2,3:2:0:0:
259,51,46575,6,0,P|274:89|274:131,1,83.9999974365235,0|8,0:2|0:2,0:2:0:0:
250,198,47075,1,8,0:2:0:0:
195,246,47242,2,0,L|134:251,1,60,0|8,0:2|0:2,0:2:0:0:
0,309,47575,1,0,0:2:0:0:
0,309,47742,2,0,L|61:314,1,60,0|0,0:2|0:2,0:2:0:0:
206,323,48075,6,0,B|263:318|263:318|338:274,1,143.999995605469,0|0,0:2|0:2,0:2:0:0:
403,217,48575,1,0,0:2:0:0:
320,190,48742,2,0,L|275:133,2,71.9999978027344,0|0|0,0:2|0:2|0:2,0:2:0:0:
337,274,49242,2,0,B|344:348,1,66.0000020141602,4|0,0:2|0:2,0:2:0:0:
493,274,49575,2,0,B|486:348,1,66.0000020141602,4|0,0:2|0:2,0:2:0:0:
414,227,49909,1,4,0:2:0:0:
479,149,50075,6,0,P|498:118|506:82,1,71.9999978027344,0|4,0:2|0:2,0:2:0:0:
381,3,50409,2,0,P|363:33|355:68,1,71.9999978027344,0|4,0:2|0:2,0:2:0:0:
350,167,50742,6,0,P|306:155|278:130,1,83.9999974365235,0|0,0:2|0:2,0:2:0:0:
209,37,51075,2,0,P|177:9|136:0,1,83.9999974365235,8|0,0:2|0:2,0:2:0:0:
0,0,51409,2,0,L|18:81,1,83.9999974365235,0|0,0:2|0:2,0:2:0:0:
146,185,51742,2,0,L|128:104,1,83.9999974365235,8|0,0:2|0:2,0:2:0:0:
45,205,52075,6,0,P|61:244|90:272,1,83.9999974365235,0|0,0:2|0:2,0:2:0:0:
227,180,52409,2,0,P|185:174|146:185,1,83.9999974365235,8|0,0:2|0:2,0:2:0:0:
192,277,52742,5,0,0:2:0:0:
210,131,52909,1,0,0:2:0:0:
105,238,53076,1,8,0:2:0:0:
258,210,53243,1,0,0:2:0:0:
123,142,53409,2,0,P|94:172|84:213,1,83.9999974365235,0|0,0:2|0:2,0:2:0:0:
205,201,53742,6,0,L|164:211,3,41.9999987182618,8|0|0|0,3:2|3:2|3:2|3:2,3:2:0:0:
272,142,54074,2,0,L|284:102,3,41.9999987182618,8|0|0|0,3:2|3:2|3:2|3:2,3:2:0:0:
289,230,54409,2,0,L|318:260,3,41.9999987182618,8|0|0|0,3:2|3:2|3:2|3:2,3:2:0:0:
255,192,54742,1,12,0:1:0:0:
256,192,54825,12,0,55742,0:2:0:0:
65,211,56075,6,0,B|100:194|146:198|146:198|192:202|230:184,1,167.999994873047,4|8,0:1|0:2,0:2:0:0:
323,113,56575,1,0,0:2:0:0:
360,224,56742,2,0,P|360:308|282:360,1,167.999994873047,10|8,0:2|0:2,0:2:0:0:
129,323,57242,6,0,B|167:281|167:281|277:265,1,167.999994873047,4|0,0:1|0:2,0:2:0:0:
391,235,57742,1,8,0:2:0:0:
298,161,57909,1,0,0:2:0:0:
281,279,58075,6,0,P|308:324|345:347,1,83.9999974365235,8|0,0:2|0:2,0:2:0:0:
471,221,58409,2,0,P|418:221|380:242,1,83.9999974365235,8|0,0:2|0:2,0:2:0:0:
244,373,58742,6,0,B|118:382|118:382|76:356,1,167.999994873047,4|8,0:1|0:2,0:2:0:0:
23,257,59242,2,0,B|8:215|8:215|6:176,1,83.9999974365235,2|8,0:2|0:2,0:2:0:0:
192,223,59575,2,0,B|163:256|163:256|130:278,1,83.9999974365235,2|8,0:2|0:2,0:2:0:0:
79,94,59909,2,0,B|122:102|122:102|158:120|158:120|194:101|194:101|238:93,1,167.999994873047,4|0,0:1|0:2,0:2:0:0:
327,78,60409,6,0,L|345:150,1,66.0000020141602,8|0,0:2|0:2,0:2:0:0:
508,185,60742,2,0,L|435:203,1,66.0000020141602,8|0,0:2|0:2,0:2:0:0:
401,366,61075,2,0,L|382:293,1,66.0000020141602,8|0,0:2|0:2,0:2:0:0:
219,259,61409,6,0,P|174:213|210:125,1,167.999994873047,4|8,0:1|0:2,0:2:0:0:
315,217,61909,1,0,0:2:0:0:
244,190,62075,2,0,P|182:194|154:290,1,167.999994873047,10|8,0:2|0:2,0:2:0:0:
298,376,62575,6,0,B|356:373|356:373|411:350|411:350|462:346,1,167.999994873047,4|0,0:1|0:2,0:2:0:0:
400,245,63075,1,8,0:2:0:0:
461,346,63242,1,0,0:2:0:0:
474,231,63409,6,0,L|468:147,1,83.9999974365235,8|0,0:2|0:2,0:2:0:0:
386,34,63742,2,0,L|316:81,1,83.9999974365235,8|0,0:2|0:2,0:2:0:0:
259,208,64075,2,0,L|334:244,1,83.9999974365235,4|0,0:1|0:2,0:2:0:0:
458,320,64409,1,10,0:2:0:0:
458,320,64575,6,0,B|414:307|377:324|377:324|337:343|293:325,1,167.999994873047,2|2,0:2|0:2,0:2:0:0:
215,238,65075,1,8,0:2:0:0:
334,244,65242,2,0,B|344:241|377:226|417:226|417:226|453:226|483:203|487:172,1,167.999994873047,4|0,0:1|0:2,0:2:0:0:
498,77,65742,1,8,0:2:0:0:
421,156,65909,1,0,0:2:0:0:
398,49,66075,1,8,0:2:0:0:
321,128,66242,1,0,0:2:0:0:
321,128,66409,2,0,P|266:112|216:113,1,83.9999974365235,8|0,0:2|0:2,0:2:0:0:
69,118,66742,6,0,B|124:132|124:132|161:162|161:162|210:175,1,155.999992858887,4|8,0:1|0:2,0:2:0:0:
307,206,67242,1,0,0:2:0:0:
285,108,67409,2,0,P|236:90|141:126,1,155.999992858887,2|8,0:2|0:2,0:2:0:0:
76,235,67909,6,0,P|70:285|79:328,1,77.9999964294435,2|0,0:2|0:2,0:2:0:0:
220,235,68242,2,0,P|179:204|137:191,1,77.9999964294435,2|8,0:2|0:2,0:2:0:0:
148,359,68575,2,0,P|194:339|227:309,1,77.9999964294435,2|0,0:2|0:2,0:2:0:0:
294,257,68909,5,0,0:2:0:0:
283,357,69075,1,8,0:2:0:0:
376,317,69242,1,0,0:2:0:0:
360,215,69409,6,0,B|347:163|347:163|315:127|315:127|302:70,1,155.999992858887,4|8,0:1|0:2,0:2:0:0:
229,3,69909,1,0,0:2:0:0:
147,62,70075,2,0,B|114:91|111:133|111:133|107:177|74:208,1,155.999992858887,2|8,0:2|0:2,0:2:0:0:
116,289,70575,6,0,B|160:294|160:294|232:270|232:270|274:275,1,155.999992858887,2|0,0:2|0:2,0:2:0:0:
278,353,71075,2,0,B|242:348|242:348|171:373|171:373|126:367,1,155.999992858887,10|0,0:2|0:2,0:2:0:0:
146,298,71575,1,0,0:2:0:0:
28,304,71742,1,8,0:2:0:0:
54,372,71909,1,0,0:2:0:0:
85,259,72075,6,0,B|95:218|121:189|121:189|146:163|154:117,1,155.999992858887,4|8,0:1|0:2,0:2:0:0:
165,35,72575,1,0,0:2:0:0:
85,68,72742,2,0,P|69:135|120:199,1,155.999992858887,2|8,0:2|0:2,0:2:0:0:
228,102,73242,6,0,B|191:107|191:107|153:120,1,77.9999964294435,2|0,0:2|0:2,0:2:0:0:
246,231,73575,2,0,B|283:226|283:226|321:212,1,77.9999964294435,2|8,0:2|0:2,0:2:0:0:
218,72,73909,6,0,B|180:76|180:76|112:101|112:101|67:106,1,155.999992858887,2|0,0:2|0:2,0:2:0:0:
23,40,74409,1,8,0:2:0:0:
6,156,74576,1,0,0:2:0:0:
101,42,74742,6,0,B|151:39|151:39|202:65|202:65|250:61,1,155.999992858887,4|8,0:1|0:2,0:2:0:0:
348,6,75242,2,0,L|426:1,1,77.9999964294435,2|0,0:2|0:2,0:2:0:0:
293,126,75575,2,0,L|249:60,1,77.9999964294435,2|8,0:2|0:2,0:2:0:0:
425,114,75909,6,0,L|390:184,1,77.9999964294435,2|0,0:2|0:2,0:2:0:0:
336,287,76242,1,8,0:2:0:0:
336,287,76409,2,0,P|292:273|251:272,1,77.9999964294435,8|0,0:2|0:2,0:2:0:0:
133,297,76742,2,0,P|78:296|9:228,1,155.999992858887,8|0,0:2|0:2,0:2:0:0:
77,56,77409,6,0,B|91:106|91:106|91:147|91:147|108:196,1,143.999995605469,4|0,0:1|0:2,0:2:0:0:
193,132,77909,1,0,0:2:0:0:
108,196,78075,2,0,P|80:228|62:268,2,71.9999978027344,2|0|0,0:2|0:2|0:2,0:2:0:0:
250,221,78575,6,0,P|291:236|323:238,1,71.9999978027344,2|0,0:2|0:2,0:2:0:0:
374,172,78909,2,0,P|366:128|352:100,1,71.9999978027344,2|0,0:2|0:2,0:2:0:0:
270,90,79242,1,2,0:2:0:0:
270,90,79409,6,0,P|236:118|218:144,2,71.9999978027344,2|0|0,0:2|0:2|0:2,0:2:0:0:
406,268,80075,6,0,P|327:255|242:285,1,143.999995605469,4|0,0:1|0:2,0:2:0:0:
205,342,80575,1,0,0:2:0:0:
266,271,80742,2,0,B|280:237|286:203,2,71.9999978027344,2|0|0,0:2|0:2|0:2,0:2:0:0:
117,309,81242,6,0,L|38:304,1,71.9999978027344,2|0,0:2|0:2,0:2:0:0:
0,213,81575,2,0,L|79:208,1,71.9999978027344,2|0,0:2|0:2,0:2:0:0:
146,138,81909,1,2,0:2:0:0:
146,138,82075,2,0,P|198:117|291:119,1,143.999995605469,2|0,0:2|0:2,0:2:0:0:
500,160,82742,6,0,P|427:180|363:139,1,155.999992858887,4|8,0:1|0:2,0:2:0:0:
358,45,83242,1,0,0:2:0:0:
441,88,83409,5,2,0:2:0:0:
358,45,83575,1,0,0:2:0:0:
279,95,83742,1,8,0:2:0:0:
196,52,83909,6,0,P|151:38|111:37,1,77.9999964294435,2|0,0:2|0:2,0:2:0:0:
200,145,84242,2,0,P|165:176|144:211,1,77.9999964294435,2|8,0:2|0:2,0:2:0:0:
282,188,84575,1,2,0:2:0:0:
282,188,84742,2,0,P|292:233|323:264,1,77.9999964294435,2|0,0:2|0:2,0:2:0:0:
434,212,85075,2,0,P|389:198|349:196,1,77.9999964294435,10|0,0:2|0:2,0:2:0:0:
257,317,85409,6,0,B|176:313|176:313|105:281,1,155.999992858887,4|8,0:1|0:2,0:2:0:0:
76,193,85909,1,0,0:2:0:0:
16,264,86075,5,2,3:2:0:0:
76,193,86242,1,0,3:2:0:0:
168,211,86409,1,10,0:2:0:0:
224,136,86575,5,2,0:2:0:0:
407,223,86909,1,2,0:2:0:0:
239,338,87242,1,2,0:2:0:0:
