osu file format v14

[General]
AudioFilename: audio.mp3
AudioLeadIn: 0
PreviewTime: 54909
Countdown: 0
SampleSet: Soft
StackLeniency: 0.5
Mode: 0
LetterboxInBreaks: 0
WidescreenStoryboard: 1

[Editor]
Bookmarks: 5409,16075,21409,42742,50742,56075,62575
DistanceSpacing: 1
BeatDivisor: 4
GridSize: 4
TimelineZoom: 1.7

[Metadata]
Title:MIND CONDUCTOR (TV VER.)
TitleUnicode:MIND CONDUCTOR (TV VER.)
Artist:YURiKA
ArtistUnicode:YURiKA
Creator:AllieBork
Version:Extra
Source:Little Witch Academia
Tags:
BeatmapID:1275968
BeatmapSetID:603973

[Difficulty]
HPDrainRate:6
CircleSize:4
OverallDifficulty:9
ApproachRate:9.3
SliderMultiplier:1.4
SliderTickRate:1

[Events]
//Background and Video events
0,0,"background.jpg",0,0
//Break Periods
//Storyboard Layer 0 (Background)
//Storyboard Layer 1 (Fail)
//Storyboard Layer 2 (Pass)
//Storyboard Layer 3 (Foreground)
//Storyboard Sound Samples

[TimingPoints]
76,333.333333333333,4,2,1,60,1,0
5409,-83.3333333333333,4,2,1,80,0,0
16075,-111.111111111111,4,2,1,80,0,0
18075,-166.666666666666,4,2,1,80,0,0
18409,-111.111111111111,4,2,1,80,0,0
21409,-111.111111111111,4,2,1,80,0,0
40075,-83.3333333333333,4,2,1,70,0,0
42742,-142.857142857143,4,2,1,70,0,0
43909,-100,4,2,1,70,0,0
45409,-142.857142857143,4,2,1,70,0,0
46575,-100,4,2,1,70,0,0
48075,-71.4285714285715,4,2,1,70,0,0
49242,-90.9090909090909,4,2,1,70,0,0
49575,-83.3333333333333,4,2,1,70,0,0
50075,-76.9230769230769,4,2,1,70,0,0
50409,-71.4285714285714,4,2,1,70,0,0
50742,-66.6666666666667,4,2,1,80,0,0
55075,-111.111111111111,4,2,1,70,0,0
55325,-111.111111111111,4,2,1,5,0,0
55409,-86.9565217391304,4,2,1,70,0,0
55659,-86.9565217391304,4,2,1,5,0,0
55742,-76.9230769230769,4,2,1,70,0,0
55992,-76.9230769230769,4,2,1,5,0,0
56075,-62.5,4,2,1,100,0,1
60409,-111.111111111111,4,2,1,70,0,1
60659,-111.111111111111,4,2,1,5,0,1
60742,-86.9565217391304,4,2,1,70,0,1
60992,-86.9565217391304,4,2,1,5,0,1
61075,-76.9230769230769,4,2,1,70,0,1
61325,-76.9230769230769,4,2,1,5,0,1
61409,-62.5,4,2,1,100,0,1
66742,-71.4285714285714,4,2,1,85,0,1
77409,-83.3333333333333,4,2,1,70,0,0
86575,-66.6666666666667,4,2,1,70,0,0
87492,-66.6666666666667,4,2,1,40,0,0
87742,-66.6666666666667,4,2,1,35,0,0
87909,-66.6666666666667,4,2,1,30,0,0
88075,-66.6666666666667,4,2,1,25,0,0
88242,-66.6666666666667,4,2,1,20,0,0
88409,-66.6666666666667,4,2,1,15,0,0
88575,-66.6666666666667,4,2,1,10,0,0
88742,-66.6666666666667,4,2,1,5,0,0

[Colours]
Combo1 : 0,128,255
Combo2 : 255,0,0

[HitObjects]
71,211,76,6,0,P|47:167|26:139,2,70,0|0|4,0:2|0:2|0:2,0:2:0:0:
101,289,575,2,0,P|155:329|222:316,1,140,2|0,0:0|0:0,0:0:0:0:
290,267,1075,1,4,0:2:0:0:
289,182,1242,6,0,P|290:134|359:77,1,140,2|0,0:0|0:0,0:0:0:0:
454,171,1742,1,6,0:2:0:0:
370,160,1909,1,0,0:2:0:0:
207,201,2075,5,2,0:2:0:0:
265,262,2242,1,0,0:2:0:0:
349,240,2409,1,4,0:2:0:0:
370,160,2575,5,0,3:2:0:0:
452,336,2742,1,2,3:2:0:0:
323,289,2909,1,0,3:2:0:0:
499,207,3075,1,4,3:2:0:0:
368,369,3242,6,0,P|297:377|242:330,1,140,2|0,0:2|0:2,0:2:0:0:
243,246,3742,1,4,0:2:0:0:
334,247,3909,2,0,P|305:312|237:336,1,140,2|0,0:2|0:2,0:2:0:0:
161,329,4409,1,6,0:2:0:0:
155,245,4575,1,0,3:2:0:0:
86,293,4742,5,2,3:2:0:0:
243,98,4909,1,0,3:2:0:0:
280,308,5075,6,0,L|267:340,1,35,0|0,0:2|0:2,0:2:0:0:
155,167,5242,2,0,L|138:137,1,35,0|0,0:2|0:2,0:2:0:0:
341,131,5409,6,0,L|426:118,1,83.9999974365235,2|0,0:2|0:2,0:2:0:0:
509,222,5742,1,8,0:2:0:0:
351,7,5909,2,0,L|266:20,1,83.9999974365235,2|0,0:2|0:2,0:2:0:0:
140,124,6242,1,0,0:2:0:0:
294,182,6408,1,8,0:0:0:0:
198,36,6575,6,0,P|158:20|113:21,1,83.9999974365235,2|0,0:2|0:2,0:2:0:0:
82,212,6909,2,0,P|122:228|167:227,1,83.9999974365235,2|8,0:2|0:2,0:2:0:0:
140,124,7242,2,0,P|100:108|55:109,1,83.9999974365235,2|0,0:2|0:2,0:2:0:0:
24,300,7576,2,0,P|64:316|109:315,1,83.9999974365235,2|8,0:2|0:2,0:2:0:0:
162,227,7909,1,2,0:2:0:0:
140,124,8075,6,0,P|167:66|258:18,1,167.999994873047,2|8,0:2|0:2,0:2:0:0:
354,148,8575,2,0,L|271:152,1,83.9999974365235,2|0,0:2|0:2,0:2:0:0:
325,67,8909,2,0,L|408:70,1,83.9999974365235,0|8,0:2|0:2,0:2:0:0:
361,229,9242,2,0,L|357:312,1,83.9999974365235,2|0,0:2|0:2,0:2:0:0:
443,234,9575,2,0,L|439:150,1,83.9999974365235,0|8,0:2|0:2,0:2:0:0:
325,67,9909,1,2,0:2:0:0:
171,272,10075,5,2,0:2:0:0:
195,88,10242,1,0,0:2:0:0:
284,252,10409,1,10,0:2:0:0:
116,172,10575,1,0,0:2:0:0:
299,138,10742,6,0,P|313:182|303:227,1,83.9999974365235,2|0,0:2|0:2,0:2:0:0:
244,351,11075,1,8,0:2:0:0:
214,186,11242,2,0,B|208:157|189:113|189:113|169:65|188:18,1,167.999994873047,2|0,0:2|0:2,0:2:0:0:
313,67,11742,1,8,0:2:0:0:
284,252,11909,6,0,L|270:335,1,83.9999974365235,2|0,0:2|0:2,0:2:0:0:
190,179,12242,2,0,L|204:262,1,83.9999974365235,0|8,0:2|0:2,0:2:0:0:
123,105,12575,2,0,L|109:188,1,83.9999974365235,2|0,0:2|0:2,0:2:0:0:
29,32,12909,2,0,L|43:115,1,83.9999974365235,0|8,0:2|0:2,0:2:0:0:
71,260,13242,1,2,0:2:0:0:
145,92,13409,6,0,P|171:60|208:40,1,83.9999974365235,2|0,0:2|0:2,0:2:0:0:
293,28,13742,1,8,0:2:0:0:
252,153,13909,2,0,P|242:208|253:256,1,83.9999974365235,2|0,0:2|0:2,0:2:0:0:
283,316,14242,1,0,0:2:0:0:
395,207,14409,1,8,0:2:0:0:
143,243,14575,6,0,L|50:258,1,83.9999974365235,2|0,0:2|0:2,0:2:0:0:
0,144,14909,1,0,0:2:0:0:
189,186,15075,1,10,0:2:0:0:
58,329,15242,1,0,0:2:0:0:
107,101,15409,5,8,3:2:0:0:
141,77,15492,1,0,3:2:0:0:
182,67,15575,1,0,3:2:0:0:
223,73,15659,1,0,3:2:0:0:
260,92,15742,1,8,3:2:0:0:
297,112,15825,1,0,3:2:0:0:
338,117,15908,1,0,3:2:0:0:
379,107,15992,1,0,3:2:0:0:
414,84,16075,6,0,L|466:47,1,62.9999980773926,2|0,0:2|0:2,0:2:0:0:
328,9,16409,1,0,0:2:0:0:
389,257,16575,2,0,P|351:225|259:216,1,125.999996154785,2|0,0:2|0:2,0:2:0:0:
134,308,17075,2,0,L|199:304,1,62.9999980773926,2|0,0:2|0:2,0:2:0:0:
294,332,17409,1,0,0:2:0:0:
96,241,17575,2,0,B|52:152|52:152|57:118,1,125.999996154785,2|0,0:2|0:2,0:2:0:0:
206,224,18075,2,0,L|254:219,1,41.9999987182618,2|0,0:2|0:2,0:2:0:0:
335,221,18325,1,0,0:2:0:0:
335,221,18409,2,0,P|325:179|303:152,1,62.9999980773926,8|0,0:2|0:2,0:2:0:0:
96,64,18742,6,0,L|174:76,1,62.9999980773926,2|0,0:2|0:2,0:2:0:0:
37,18,19075,1,0,0:2:0:0:
51,242,19242,2,0,P|98:188|154:175,1,125.999996154785,2|0,0:2|0:2,0:2:0:0:
209,298,19742,2,0,L|149:281,1,62.9999980773926,2|0,0:2|0:2,0:2:0:0:
66,344,20075,1,0,0:2:0:0:
293,274,20242,2,0,B|379:243|379:243|400:210,1,125.999996154785,2|0,0:2|0:2,0:2:0:0:
417,10,20742,5,8,0:2:0:0:
207,65,20909,1,0,3:2:0:0:
175,91,20992,1,0,3:2:0:0:
151,124,21075,1,0,3:2:0:0:
136,162,21159,1,0,3:2:0:0:
133,202,21242,1,0,3:2:0:0:
138,242,21325,1,0,3:2:0:0:
153,280,21409,5,2,0:2:0:0:
291,201,21575,1,0,0:2:0:0:
291,201,21742,1,8,0:2:0:0:
96,384,21909,1,2,0:2:0:0:
96,384,22242,5,0,3:2:0:0:
31,163,22575,1,8,0:2:0:0:
0,320,22909,5,0,3:2:0:0:
31,163,23075,1,8,0:2:0:0:
228,318,23409,5,0,3:2:0:0:
228,318,23492,1,0,3:2:0:0:
228,318,23575,1,0,3:2:0:0:
295,163,23742,1,8,0:2:0:0:
448,320,24075,5,0,0:2:0:0:
292,248,24242,1,0,0:2:0:0:
292,248,24409,1,8,0:2:0:0:
421,62,24575,1,0,0:2:0:0:
421,62,24909,5,0,3:2:0:0:
192,12,25242,1,8,0:2:0:0:
296,126,25575,5,0,3:2:0:0:
192,12,25742,1,8,0:2:0:0:
94,263,26242,5,0,3:2:0:0:
128,44,26409,1,8,0:2:0:0:
216,204,26742,5,0,0:2:0:0:
48,158,26909,1,0,0:2:0:0:
48,158,27075,1,8,0:2:0:0:
255,347,27242,1,0,0:2:0:0:
255,347,27575,5,0,3:2:0:0:
330,138,27909,1,8,0:2:0:0:
370,287,28242,5,0,3:2:0:0:
330,138,28409,1,8,0:2:0:0:
159,243,28742,5,0,3:2:0:0:
159,243,28825,1,0,3:2:0:0:
159,243,28909,1,0,3:2:0:0:
210,41,29075,1,8,0:2:0:0:
281,167,29409,5,0,0:2:0:0:
423,213,29575,1,0,0:2:0:0:
423,213,29742,1,8,0:2:0:0:
222,366,29909,1,0,3:2:0:0:
222,366,30242,5,0,3:2:0:0:
222,366,30409,1,0,0:2:0:0:
144,178,30575,2,0,L|212:193,1,62.9999980773926,8|0,0:0|0:0,0:0:0:0:
337,215,30909,1,0,0:2:0:0:
292,102,31075,5,8,3:2:0:0:
264,70,31159,1,0,3:2:0:0:
224,60,31242,1,0,3:2:0:0:
185,72,31325,1,0,3:2:0:0:
155,95,31409,5,8,3:2:0:0:
120,110,31492,1,0,3:2:0:0:
83,99,31575,1,0,3:2:0:0:
68,63,31659,1,0,3:2:0:0:
81,27,31742,1,8,3:2:0:0:
115,12,31825,1,0,3:2:0:0:
150,26,31909,1,0,3:2:0:0:
173,55,31992,1,0,3:2:0:0:
185,90,32075,6,0,P|198:121|224:147,1,62.9999980773926,4|0,0:1|3:2,0:2:0:0:
301,54,32409,1,8,0:2:0:0:
80,207,32575,1,0,0:2:0:0:
80,207,32909,5,0,3:2:0:0:
80,207,33075,1,0,3:2:0:0:
306,288,33242,1,8,0:2:0:0:
125,312,33575,5,0,3:2:0:0:
306,288,33742,1,8,0:2:0:0:
248,200,33909,1,8,0:2:0:0:
280,380,34075,5,0,3:2:0:0:
280,380,34159,1,0,3:2:0:0:
280,380,34242,1,0,3:2:0:0:
248,200,34409,1,8,0:2:0:0:
440,284,34742,5,0,0:2:0:0:
280,304,34909,1,0,0:2:0:0:
280,304,35075,1,8,0:2:0:0:
512,380,35242,1,0,0:2:0:0:
512,380,35575,5,0,3:2:0:0:
456,168,35909,1,8,0:2:0:0:
388,304,36242,5,0,3:2:0:0:
456,168,36409,1,8,0:2:0:0:
304,176,36575,1,8,0:2:0:0:
456,256,36742,5,0,3:2:0:0:
456,256,36909,1,0,3:2:0:0:
224,216,37075,1,8,0:2:0:0:
152,344,37409,5,0,0:2:0:0:
303,260,37575,1,0,0:2:0:0:
303,260,37742,1,8,0:2:0:0:
116,168,37909,1,0,0:2:0:0:
116,168,38242,5,0,3:2:0:0:
116,168,38409,1,0,3:2:0:0:
240,0,38575,1,8,0:2:0:0:
276,164,38909,5,0,3:2:0:0:
240,0,39075,1,8,0:2:0:0:
400,50,39242,1,8,0:2:0:0:
360,251,39409,5,0,3:2:0:0:
360,251,39492,1,0,3:2:0:0:
360,251,39575,1,0,3:2:0:0:
400,50,39742,1,8,0:2:0:0:
192,172,40075,6,0,P|151:182|110:179,1,83.9999974365235,0|8,0:2|0:2,0:2:0:0:
33,96,40409,1,8,3:2:0:0:
137,42,40575,1,0,0:2:0:0:
254,79,40742,5,8,3:2:0:0:
254,79,40909,2,0,P|289:111|303:152,1,83.9999974365235,8|0,3:2|1:2,3:2:0:0:
108,269,41242,5,8,0:2:0:0:
108,269,41409,2,0,P|60:269|22:248,1,83.9999974365235,8|0,3:2|1:2,3:2:0:0:
86,180,41742,1,8,3:2:0:0:
254,226,41909,1,0,3:2:0:0:
134,351,42075,5,8,3:2:0:0:
170,203,42242,1,0,3:2:0:0:
280,308,42409,1,8,3:2:0:0:
316,160,42576,1,0,3:2:0:0:
378,363,42742,6,0,P|391:293|346:217,1,146.999995513916,4|0,0:1|0:2,0:2:0:0:
131,120,43409,5,2,1:2:0:0:
172,248,43575,1,0,3:2:0:0:
241,104,43742,1,0,3:2:0:0:
89,273,43909,2,0,P|106:305|139:327,1,70,2|0,1:2|3:2,3:2:0:0:
255,223,44242,2,0,P|233:187|206:169,1,70,2|8,1:2|3:2,3:2:0:0:
34,145,44575,1,2,3:2:0:0:
34,145,44659,1,0,3:2:0:0:
34,145,44742,5,8,3:2:0:0:
76,23,44909,1,0,3:2:0:0:
197,65,45075,1,0,3:2:0:0:
155,187,45242,1,0,3:2:0:0:
9,226,45409,6,0,P|46:198|85:189,1,73.4999977569581,2|0,1:2|3:2,3:2:0:0:
145,162,45742,1,0,1:2:0:0:
171,274,45909,1,0,1:2:0:0:
295,196,46075,5,2,3:2:0:0:
288,168,46159,1,0,3:2:0:0:
281,140,46242,1,0,3:2:0:0:
275,112,46325,1,0,3:2:0:0:
269,84,46409,1,0,3:2:0:0:
427,117,46575,6,0,L|442:184,1,70,2|0,1:2|3:2,3:2:0:0:
344,344,46909,1,10,1:2:0:0:
232,212,47075,1,8,3:2:0:0:
376,208,47242,2,0,L|448:206,1,70,2|8,1:2|3:2,3:2:0:0:
320,75,47575,1,0,1:2:0:0:
168,80,47742,2,0,P|122:93|76:142,1,105,2|0,1:2|3:2,3:2:0:0:
70,245,48075,6,0,B|105:240|139:259|139:259|176:278|214:274,1,146.999995513916,4|0,1:1|0:2,0:2:0:0:
277,239,48409,5,2,0:2:0:0:
84,343,48575,1,0,0:2:0:0:
195,176,48742,1,2,0:2:0:0:
236,355,48909,1,0,0:2:0:0:
292,135,49075,1,2,0:2:0:0:
342,307,49242,6,0,L|365:383,1,77.0000023498536,6|0,0:0|0:2,0:2:0:0:
448,218,49575,2,0,L|427:301,1,83.9999974365235,6|0,0:2|0:2,0:2:0:0:
357,224,49909,1,6,0:2:0:0:
393,99,50075,2,0,P|401:61|384:13,1,90.9999958343508,2|4,0:2|0:2,0:2:0:0:
214,125,50409,2,0,P|206:163|226:217,1,97.9999970092774,2|4,0:2|0:2,0:2:0:0:
311,65,50742,6,0,P|270:25|206:13,1,105.000004005432,2|0,0:2|0:2,0:2:0:0:
153,176,51075,1,8,0:2:0:0:
332,156,51242,1,0,0:2:0:0:
144,10,51409,6,0,P|87:15|36:57,1,105.000004005432,2|0,0:2|0:2,0:2:0:0:
141,229,51742,1,8,0:2:0:0:
259,51,51909,1,0,0:2:0:0:
19,106,52075,5,2,0:0:0:0:
284,140,52242,1,0,0:0:0:0:
0,211,52409,5,8,0:0:0:0:
293,116,52575,1,0,0:0:0:0:
36,311,52742,5,2,0:0:0:0:
288,90,52909,1,0,0:0:0:0:
117,379,53075,5,8,0:0:0:0:
270,69,53242,1,0,0:0:0:0:
36,311,53409,5,2,0:0:0:0:
94,26,53575,1,0,0:0:0:0:
198,311,53742,1,8,0:0:0:0:
256,26,53909,1,8,0:0:0:0:
256,26,53992,1,8,0:0:0:0:
256,26,54075,5,8,0:0:0:0:
364,358,54242,1,8,0:0:0:0:
82,153,54409,1,8,0:0:0:0:
430,153,54575,1,8,0:0:0:0:
149,358,54742,1,8,0:0:0:0:
328,105,55075,6,0,P|276:99|226:104,1,94.499997116089,0|0,0:2|0:2,0:2:0:0:
190,85,55409,6,0,P|174:120|166:203,1,120.750002303124,0|0,0:2|0:2,0:2:0:0:
133,243,55742,6,0,P|210:255|269:288,1,136.499993751526,0|0,0:2|0:2,0:2:0:0:
325,365,56075,6,0,B|330:297|351:253|351:253|373:205|378:148,1,224,4|8,0:1|0:2,0:2:0:0:
390,0,56575,1,0,0:2:0:0:
216,88,56742,5,8,0:2:0:0:
461,109,56909,1,0,0:2:0:0:
191,167,57075,1,10,0:2:0:0:
436,188,57242,6,0,B|349:196|349:196|314:229|314:229|225:237,1,224,4|0,0:1|0:2,0:2:0:0:
112,171,57742,1,8,0:2:0:0:
182,335,57909,1,0,0:2:0:0:
245,21,58075,5,10,0:2:0:0:
147,255,58242,1,0,0:2:0:0:
79,89,58409,1,10,0:2:0:0:
313,187,58576,1,0,0:2:0:0:
210,369,58742,6,0,P|137:371|46:258,1,224,4|8,0:1|0:2,0:2:0:0:
27,86,59242,1,2,0:2:0:0:
173,247,59409,5,8,0:2:0:0:
154,48,59575,1,2,0:2:0:0:
46,262,59742,1,8,0:2:0:0:
254,78,59909,6,0,B|377:23|362:114|488:61,1,224,4|0,0:1|0:2,0:2:0:0:
465,215,60409,6,0,P|413:218|366:205,1,94.499997116089,8|0,0:2|0:2,0:2:0:0:
323,139,60742,6,0,P|289:171|271:249,1,120.750002303124,8|0,0:0|0:0,0:0:0:0:
320,338,61075,6,0,P|375:325|337:284,1,136.499993751526,8|0,0:0|0:0,0:0:0:0:
246,316,61409,6,0,P|156:284|126:164,1,224,4|8,0:1|0:2,0:2:0:0:
297,33,61908,1,0,0:2:0:0:
293,261,62075,5,10,0:2:0:0:
195,77,62242,1,0,0:2:0:0:
399,86,62409,1,8,0:2:0:0:
163,2,62575,6,0,B|122:9|122:9|129:63|87:113|36:119|36:119|36:160,1,224,4|0,0:1|0:2,0:2:0:0:
42,275,63075,1,8,0:2:0:0:
32,27,63242,1,0,0:2:0:0:
183,193,63409,6,0,P|231:218|289:207,1,112,10|0,0:2|0:2,0:2:0:0:
311,50,63742,2,0,P|265:80|246:132,1,112,10|0,0:2|0:2,0:2:0:0:
438,304,64075,5,4,0:1:0:0:
351,147,64242,1,0,0:2:0:0:
330,324,64409,1,10,0:2:0:0:
452,193,64575,2,0,P|464:138|442:83,1,112,0|8,0:0|0:0,0:0:0:0:
276,227,64909,5,2,0:2:0:0:
512,302,65075,1,8,0:2:0:0:
263,358,65242,6,0,B|87:351|87:351|53:318,1,224,4|0,0:1|0:2,0:2:0:0:
80,112,65742,1,8,0:2:0:0:
281,155,65909,1,0,0:2:0:0:
127,273,66075,5,8,0:2:0:0:
172,52,66242,1,2,0:2:0:0:
266,258,66409,1,10,0:2:0:0:
69,146,66575,1,0,0:2:0:0:
294,121,66742,6,0,P|355:120|403:132,1,97.9999970092774,4|0,0:1|0:2,0:2:0:0:
501,305,67075,2,0,P|440:306|392:294,1,97.9999970092774,10|0,0:2|0:2,0:2:0:0:
181,126,67409,2,0,P|191:70|226:29,1,97.9999970092774,2|0,0:2|0:2,0:2:0:0:
350,212,67742,1,10,0:2:0:0:
115,238,67909,6,0,L|16:268,1,97.9999970092774,2|0,0:2|0:2,0:2:0:0:
160,312,68242,2,0,L|254:284,1,97.9999970092774,2|8,0:2|0:2,0:2:0:0:
393,330,68575,2,0,L|294:360,1,97.9999970092774,2|0,0:2|0:2,0:2:0:0:
464,384,68909,5,0,0:2:0:0:
253,284,69075,1,8,0:2:0:0:
436,258,69242,1,0,0:2:0:0:
225,158,69409,6,0,P|173:144|122:155,1,97.9999970092774,4|0,0:1|0:2,0:2:0:0:
115,328,69742,2,0,P|153:289|169:240,1,97.9999970092774,10|0,0:2|0:2,0:2:0:0:
22,147,70075,2,0,P|35:199|70:237,1,97.9999970092774,2|0,0:2|0:2,0:2:0:0:
224,329,70409,5,10,0:2:0:0:
130,151,70575,2,0,P|105:99|90:57,1,97.9999970092774,2|0,0:2|0:2,0:2:0:0:
337,29,70909,1,2,0:2:0:0:
337,29,71075,2,0,P|361:80|376:122,1,97.9999970092774,10|0,0:2|0:2,0:2:0:0:
388,329,71409,5,0,0:2:0:0:
250,147,71575,1,0,0:2:0:0:
253,325,71742,1,8,0:2:0:0:
390,157,71908,1,0,0:2:0:0:
482,381,72075,6,0,P|493:324|478:273,1,97.9999970092774,4|0,0:1|0:2,0:2:0:0:
293,105,72409,2,0,P|281:153|290:201,1,97.9999970092774,10|0,0:2|0:2,0:2:0:0:
470,207,72742,2,0,P|434:172|388:156,1,97.9999970092774,2|0,0:2|0:2,0:2:0:0:
376,265,73075,1,10,0:2:0:0:
156,285,73242,6,0,P|153:236|159:187,1,97.9999970092774,2|0,0:2|0:2,0:2:0:0:
95,104,73575,2,0,P|76:149|66:197,1,97.9999970092774,2|8,0:2|0:2,0:2:0:0:
1,86,73909,2,0,P|23:42|53:3,1,97.9999970092774,2|0,0:2|0:2,0:2:0:0:
255,151,74242,5,0,0:2:0:0:
66,196,74409,1,8,0:2:0:0:
365,201,74575,1,0,0:2:0:0:
82,284,74742,6,0,B|159:265|159:265|200:288|200:288|279:267,1,195.999994018555,4|10,0:1|0:2,0:2:0:0:
224,112,75242,2,0,P|212:172|208:216,1,97.9999970092774,2|0,0:2|0:2,0:2:0:0:
404,384,75575,2,0,P|416:324|420:280,1,97.9999970092774,2|8,0:2|0:2,0:2:0:0:
411,68,75909,6,0,B|369:57|317:55|273:58|273:58|291:74|302:103|293:132,1,195.999994018555,2|8,0:2|0:2,0:2:0:0:
277,320,76409,1,8,0:2:0:0:
413,180,76575,1,0,3:2:0:0:
224,112,76742,1,8,0:2:0:0:
363,343,76909,1,0,0:2:0:0:
331,111,77075,1,0,0:2:0:0:
218,384,77242,1,0,0:2:0:0:
411,270,77409,6,0,B|434:252|466:251|466:251|473:227|495:210|495:210|488:172|502:147,1,167.999994873047,4|0,0:1|0:2,0:2:0:0:
411,0,77909,1,0,0:2:0:0:
413,180,78075,5,2,0:2:0:0:
504,12,78242,1,0,0:2:0:0:
328,86,78409,1,0,0:2:0:0:
512,105,78575,6,0,P|464:95|422:90,1,83.9999974365235,2|0,0:2|0:2,0:2:0:0:
224,88,78909,2,0,P|239:134|256:173,1,83.9999974365235,2|0,0:2|0:2,0:2:0:0:
354,346,79242,1,2,0:2:0:0:
354,346,79409,2,0,P|386:309|411:275,1,83.9999974365235,2|0,0:2|0:2,0:2:0:0:
224,87,79742,2,0,P|191:123|166:157,1,83.9999974365235,0|0,0:2|0:2,0:2:0:0:
74,313,80075,6,0,B|91:292|114:277|141:273|141:273|149:250|149:250|180:256|206:251|230:232,1,167.999994873047,4|0,0:1|0:2,0:2:0:0:
169,151,80575,1,0,0:2:0:0:
245,384,80742,5,2,0:2:0:0:
349,271,80909,1,0,0:2:0:0:
152,363,81075,1,0,0:2:0:0:
240,201,81242,6,0,P|273:166|311:148,1,83.9999974365235,2|0,0:2|0:2,0:2:0:0:
425,301,81575,2,0,P|378:289|343:266,1,83.9999974365235,2|0,0:2|0:2,0:2:0:0:
421,91,81909,5,2,0:2:0:0:
421,91,82075,2,0,P|434:137|431:178,1,83.9999974365235,2|0,0:2|0:2,0:2:0:0:
240,201,82409,2,0,P|226:154|229:113,1,83.9999974365235,2|0,0:2|0:2,0:2:0:0:
378,28,82742,6,0,B|358:46|332:52|302:43|302:43|275:54|275:54|255:40|231:36|205:42,1,167.999994873047,4|8,0:1|0:2,0:2:0:0:
70,45,83242,1,0,0:2:0:0:
84,242,83409,1,0,0:2:0:0:
188,75,83575,1,0,0:2:0:0:
6,149,83742,1,8,0:2:0:0:
196,196,83909,6,0,B|240:207|240:207|275:226,1,83.9999974365235,2|0,0:2|0:2,0:2:0:0:
365,337,84242,2,0,B|409:326|409:326|444:307,1,83.9999974365235,2|8,0:2|0:2,0:2:0:0:
511,198,84575,1,2,0:2:0:0:
308,148,84742,1,2,0:2:0:0:
443,308,84909,1,0,0:2:0:0:
427,99,85075,1,8,0:2:0:0:
317,277,85242,1,0,0:2:0:0:
511,198,85409,6,0,B|511:167|500:140|500:140|522:101|507:53|475:31,1,167.999994873047,4|8,0:1|0:2,0:2:0:0:
295,0,85909,1,0,0:2:0:0:
357,131,86075,1,0,3:2:0:0:
368,155,86158,1,0,3:2:0:0:
373,180,86241,1,0,3:2:0:0:
372,207,86324,1,0,3:2:0:0:
367,232,86409,1,0,3:2:0:0:
152,134,86575,6,0,P|187:96|234:75,1,105.000004005432,2|0,0:2|0:2,0:2:0:0:
257,310,86909,2,0,P|207:299|165:268,1,105.000004005432,2|0,0:2|0:2,0:2:0:0:
357,131,87242,2,0,P|373:180|367:231,1,105.000004005432,2|0,0:2|0:2,0:2:0:0:
256,192,87492,12,0,88742,0:2:0:0:
