osu file format v14

[General]
AudioFilename: audio.mp3
AudioLeadIn: 0
PreviewTime: 55060
Countdown: 0
SampleSet: Soft
StackLeniency: 0.7
Mode: 0
LetterboxInBreaks: 0
WidescreenStoryboard: 0

[Editor]
DistanceSpacing: 3.1
BeatDivisor: 4
GridSize: 32
TimelineZoom: 1.8

[Metadata]
Title:MIND CONDUCTOR (TV Size)
TitleUnicode:MIND CONDUCTOR (TV Size)
Artist:YURiKA
ArtistUnicode:YURiKA
Creator:SMOKELIND
Version:Insane
Source:リトルウィッチアカデミア
Tags:little witch academia lwa anime japanese opening op 2 kowari sotarks reform kujinn AirinCat
BeatmapID:1905655
BeatmapSetID:912207

[Difficulty]
HPDrainRate:4.7
CircleSize:3.7
OverallDifficulty:8
ApproachRate:9
SliderMultiplier:1.47
SliderTickRate:1

[Events]
//Background and Video events
Video,0,"Video.mp4"
0,0,"AWOO7.jpg",0,0
//Break Periods
//Storyboard Layer 0 (Background)
//Storyboard Layer 1 (Fail)
//Storyboard Layer 2 (Pass)
//Storyboard Layer 3 (Foreground)
//Storyboard Sound Samples

[TimingPoints]
227,333.333333333333,4,2,7,47,1,0
227,-129.87012987013,4,2,7,47,0,0
5226,-175.438596491228,4,2,7,47,0,0
5560,-93.4579439252339,4,2,7,77,0,0
16226,-103.092783505155,4,2,7,57,0,0
21560,-114.942528735633,4,2,7,57,0,0
40226,-103.092783505156,4,2,7,57,0,0
42893,-114.942528735633,4,2,7,57,0,0
50893,-93.4579439252339,4,2,7,77,0,0
52393,-93.4579439252339,4,2,7,87,0,0
54893,-175.438596491228,4,2,7,87,0,0
56226,-78.7401574803149,4,2,7,87,0,0
66893,-85.4700854700855,4,2,7,77,0,0
77560,-93.4579439252339,4,2,7,77,0,0
87393,-129.87012987013,4,2,7,77,0,0

[Colours]
Combo1 : 255,255,121
Combo2 : 121,131,255
Combo3 : 121,255,255
Combo4 : 255,121,255

[HitObjects]
409,66,227,6,0,B|344:59|362:96|291:88,1,113.189997754715,6|2,1:0|0:0,0:0:0:0:
218,52,726,1,2,0:0:0:0:
218,52,1060,5,2,0:0:0:0:
228,141,1226,1,2,0:0:0:0:
144,104,1393,1,2,0:0:0:0:
44,305,1893,2,0,P|48:332|54:360,2,56.5949988773575,2|2|2,0:0|0:0|0:0,0:0:0:0:
128,272,2393,1,2,0:0:0:0:
54,218,2560,1,2,0:0:0:0:
228,141,2726,5,10,0:0:0:0:
51,86,2893,1,10,0:0:0:0:
186,208,3060,1,10,0:0:0:0:
110,29,3226,1,10,0:0:0:0:
228,141,3393,2,0,P|241:109|247:77,1,56.5949988773575,2|0,0:0|0:0,0:0:0:0:
371,131,3726,1,2,0:0:0:0:
413,211,3893,1,2,0:0:0:0:
322,203,4060,2,0,B|254:197|286:231|213:224,1,113.189997754715,2|2,0:0|0:0,0:0:0:0:
138,167,4560,1,2,0:0:0:0:
226,141,4726,1,2,0:0:0:0:
89,12,4893,5,10,0:0:0:0:
168,196,5060,1,8,0:0:0:0:
201,43,5226,2,0,P|196:71|192:115,1,62.8424992328796,2|0,0:0|0:0,0:0:0:0:
226,141,5560,6,0,P|281:120|311:119,1,78.6449975999451,6|0,1:0|0:0,0:0:0:0:
228,255,5893,1,8,0:0:0:0:
352,301,6060,2,0,P|395:309|437:306,1,78.6449975999451,2|0,0:0|1:0,0:0:0:0:
498,190,6393,1,2,0:0:0:0:
362,259,6560,1,10,0:0:0:0:
422,145,6726,6,0,P|431:104|432:66,1,78.6449975999451,2|0,0:0|1:0,0:0:0:0:
297,19,7060,2,0,P|298:58|307:96,1,78.6449975999451,2|8,0:0|0:0,0:0:0:0:
373,227,7393,2,0,P|335:215|296:211,1,78.6449975999451,2|0,0:0|1:0,0:0:0:0:
216,332,7726,2,0,P|255:330|293:321,1,78.6449975999451,2|8,0:0|0:0,0:0:0:0:
181,219,8060,1,2,0:0:0:0:
62,331,8226,6,0,P|51:290|53:243,1,78.6449975999451,6|0,1:0|0:0,0:0:0:0:
90,109,8560,1,10,0:0:0:0:
196,189,8726,2,0,P|235:188|272:178,1,78.6449975999451,2|0,0:0|1:0,0:0:0:0:
350,78,9060,2,0,P|312:67|273:67,1,78.6449975999451,2|8,0:0|0:0,0:0:0:0:
389,211,9393,6,0,P|380:253|375:302,1,78.6449975999451,2|0,0:0|1:0,0:0:0:0:
498,190,9726,2,0,P|493:150|485:112,1,78.6449975999451,2|8,0:0|0:0,0:0:0:0:
404,14,10060,1,2,0:0:0:0:
287,123,10226,2,0,P|290:83|299:45,1,78.6449975999451,2|0,1:0|0:0,0:0:0:0:
168,141,10560,2,0,P|176:179|180:218,1,78.6449975999451,10|0,0:0|0:0,0:0:0:0:
64,88,10893,6,0,P|96:59|133:52,1,78.6449975999451,6|0,1:0|0:0,0:0:0:0:
253,141,11226,1,10,0:0:0:0:
157,238,11393,2,0,P|146:276|144:324,1,78.6449975999451,2|0,0:0|1:0,0:0:0:0:
252,372,11726,1,2,0:0:0:0:
180,218,11893,1,10,0:0:0:0:
305,302,12060,6,0,P|318:259|320:218,1,78.6449975999451,2|0,0:0|1:0,0:0:0:0:
187,121,12393,2,0,P|190:160|202:197,1,78.6449975999451,2|8,0:0|0:0,0:0:0:0:
332,108,12726,2,0,P|371:112|408:125,1,78.6449975999451,2|0,0:0|1:0,0:0:0:0:
509,236,13060,2,0,P|471:248|432:253,1,78.6449975999451,2|8,0:0|0:0,0:0:0:0:
337,146,13393,1,2,0:0:0:0:
239,265,13560,6,0,P|229:305|224:354,1,78.6449975999451,6|0,1:0|0:0,0:0:0:0:
160,193,13893,1,10,0:0:0:0:
62,303,14060,2,0,P|56:264|47:225,1,78.6449975999451,2|0,0:0|1:0,0:0:0:0:
16,96,14393,1,2,0:0:0:0:
133,174,14560,1,10,0:0:0:0:
197,36,14726,6,0,P|231:18|273:12,1,78.6449975999451,2|0,0:0|1:0,0:0:0:0:
367,81,15060,1,2,0:0:0:0:
260,234,15226,1,10,0:0:0:0:
332,108,15393,1,2,0:0:0:0:
418,235,15560,1,8,0:0:0:0:
418,235,15643,1,8,3:0:0:0:
418,235,15726,2,0,L|425:280,1,39.3224987999726,8|8,3:0|3:0,0:0:0:0:
328,356,15893,2,0,L|334:317,3,39.3224987999726,8|8|8|8,0:0|3:0|3:0|3:0,0:0:0:0:
317,284,16226,6,0,P|270:268|236:267,1,71.2950016862069,6|0,1:0|0:0,0:0:0:0:
127,310,16560,1,0,1:0:0:0:
181,223,16726,2,0,P|187:186|190:148,1,71.2950016862069,2|0,0:0|1:0,0:0:0:0:
170,61,17060,1,2,0:0:0:0:
269,153,17226,1,2,1:0:0:0:
321,60,17393,6,0,P|314:97|311:147,1,71.2950016862069,2|0,0:0|1:0,0:0:0:0:
399,210,17726,2,0,P|405:244|408:280,1,71.2950016862069,2|0,0:0|1:0,0:0:0:0:
300,197,18060,1,2,0:0:0:0:
232,295,18226,2,0,P|196:306|161:304,1,71.2950016862069,2|2,1:0|0:0,0:0:0:0:
72,159,18560,1,8,0:0:0:0:
187,227,18726,1,2,0:0:0:0:
275,122,18893,6,0,P|287:84|292:43,1,71.2950016862069,2|0,1:0|0:0,0:0:0:0:
195,180,19226,1,2,1:0:0:0:
343,174,19393,2,0,P|375:187|405:206,1,71.2950016862069,2|2,0:0|1:0,0:0:0:0:
456,284,19726,1,2,0:0:0:0:
372,375,19893,1,2,1:0:0:0:
428,248,20060,1,2,0:0:0:0:
344,339,20227,5,2,1:0:0:0:
260,225,20393,2,0,P|197:203|181:202,1,71.2950016862069,2|0,0:0|1:0,0:0:0:0:
230,335,20726,1,2,0:0:0:0:
97,211,20893,1,10,0:0:0:0:
257,189,21060,1,0,3:0:0:0:
257,189,21143,1,0,3:0:0:0:
257,189,21226,2,0,P|266:160|271:133,1,35.6475008431034,8|8,3:0|3:0,0:0:0:0:
332,33,21393,2,0,P|336:50|343:66,1,35.6475008431034,8|8,3:0|3:0,0:0:0:0:
473,190,21560,5,4,1:0:0:0:
366,172,21726,1,0,0:0:0:0:
469,67,21893,1,8,0:0:0:0:
443,190,22060,2,0,P|436:226|431:276,1,63.9450005366478
457,379,22393,1,2,1:0:0:0:
457,379,22560,1,2,0:0:0:0:
361,304,22726,6,0,B|284:296|314:333|210:325,1,127.890001073296,10|0,0:0|1:0,0:0:0:0:
128,363,23226,2,0,P|115:330|112:280,1,63.9450005366478,10|0,0:0|0:0,0:0:0:0:
171,230,23560,2,0,P|184:197|187:147,1,63.9450005366478,2|0,0:0|1:0,0:0:0:0:
177,142,23810,1,0,1:0:0:0:
177,142,23893,2,0,P|164:109|161:59,1,63.9450005366478,10|2,0:0|0:0,0:0:0:0:
275,14,24226,5,4,0:0:0:0:
290,104,24393,2,0,P|303:71|306:21,1,63.9450005366478,2|8,0:0|0:0,0:0:0:0:
211,157,24726,2,0,P|265:195|337:189,1,127.890001073296,2|0,0:0|1:0,0:0:0:0:
443,350,25393,5,10,0:0:0:0:
443,350,25560,2,0,P|451:317|458:275,1,63.9450005366478,2|0,0:0|1:0,0:0:0:0:
415,169,25893,1,10,0:0:0:0:
349,244,26060,2,0,P|340:211|333:169,1,63.9450005366478,2|0,0:0|1:0,0:0:0:0:
333,152,26310,1,0,1:0:0:0:
333,152,26393,2,0,P|288:139|256:144,1,63.9450005366478,2|8,1:0|0:0,0:0:0:0:
208,217,26726,1,2,0:0:0:0:
113,123,26893,6,0,P|107:159|103:204,1,63.9450005366478,4|0,0:0|0:0,0:0:0:0:
151,296,27226,1,10,0:0:0:0:
241,179,27393,2,0,P|245:248|246:316,1,127.890001073296,2|2,0:0|1:0,0:0:0:0:
283,32,28060,5,10,0:0:0:0:
283,32,28226,1,2,0:0:0:0:
247,121,28393,1,2,1:0:0:0:
361,63,28560,1,10,0:0:0:0:
401,151,28726,2,0,P|408:187|411:227,1,63.9450005366478,2|0,0:0|1:0,0:0:0:0:
390,241,28976,1,0,1:0:0:0:
390,241,29060,2,0,P|383:277|380:317,1,63.9450005366478,2|8,1:0|0:0,0:0:0:0:
308,365,29393,1,2,0:0:0:0:
248,247,29560,6,0,P|239:286|236:326,1,63.9450005366478,6|0,0:0|0:0,0:0:0:0:
355,237,29893,1,10,0:0:0:0:
247,152,30060,2,0,P|209:144|176:145,1,63.9450005366478,2|0,0:0|0:0,0:0:0:0:
96,201,30393,1,2,1:0:0:0:
118,299,30560,2,0,P|125:260|127:226,1,63.9450005366478,2|8,0:0|0:0,0:0:0:0:
206,329,30893,5,2,0:0:0:0:
303,242,31060,2,0,P|337:228|370:226,1,63.9450005366478,2|8,1:0|0:0,0:0:0:0:
473,262,31393,1,2,3:0:0:0:
473,262,31476,1,0,3:0:0:0:
473,262,31560,2,0,L|482:314,3,31.9725002683239,10|8|8|8,3:2|3:0|3:0|3:0,0:0:0:0:
468,336,31893,1,10,0:0:0:0:
391,232,32060,1,8,3:0:0:0:
292,323,32226,6,0,P|278:263|276:193,1,127.890001073296,6|8,0:0|0:0,0:0:0:0:
196,117,32726,2,0,P|190:155|181:198,1,63.9450005366478,0|0,0:0|0:0,0:0:0:0:
84,239,33060,1,0,1:0:0:0:
35,160,33226,2,0,P|28:128|24:96,1,63.9450005366478,0|8,0:0|0:0,0:0:0:0:
91,47,33560,5,0,0:0:0:0:
163,130,33726,1,2,1:0:0:0:
214,7,33893,1,10,0:0:0:0:
244,96,34060,1,2,0:0:0:0:
244,96,34226,2,0,P|283:109|321:111,1,63.9450005366478,2|0,0:0|1:0,0:0:0:0:
413,54,34560,2,0,P|399:101|392:137,1,63.9450005366478,10|0,0:0|0:0,0:0:0:0:
338,260,34893,6,0,P|332:228|323:197,1,63.9450005366478,6|0,0:0|0:0,0:0:0:0:
260,326,35226,1,10,0:0:0:0:
192,270,35393,2,0,P|165:252|136:238,1,63.9450005366478,2|0,0:0|0:0,0:0:0:0:
172,368,35726,1,2,1:0:0:0:
172,368,35893,1,2,0:0:0:0:
224,245,36060,6,0,P|231:170|236:91,1,127.890001073296,10|0,0:0|1:0,0:0:0:0:
134,44,36560,2,0,P|136:86|141:129,1,63.9450005366478,8|0,0:0|0:0,0:0:0:0:
74,182,36893,2,0,P|72:224|67:267,1,63.9450005366478,2|0,0:0|1:0,0:0:0:0:
21,356,37226,2,0,P|75:338|107:344,1,63.9450005366478,10|0,0:0|0:0,0:0:0:0:
198,372,37560,6,0,P|229:368|258:354,1,63.9450005366478,6|0,0:0|0:0,0:0:0:0:
308,230,37893,1,10,0:0:0:0:
354,333,38060,2,0,P|373:307|381:276,1,63.9450005366478,2|0,0:0|0:0,0:0:0:0:
336,153,38393,1,2,1:0:0:0:
440,193,38560,2,0,P|434:161|418:134,1,63.9450005366478,2|8,0:0|0:0,0:0:0:0:
358,72,38893,5,0,0:0:0:0:
328,181,39060,1,2,1:0:0:0:
253,59,39226,2,0,P|221:44|184:41,1,63.9450005366478,10|0,0:0|0:0,0:0:0:0:
126,154,39560,2,0,P|157:149|186:135,1,63.9450005366478,2|0,0:0|1:0,0:0:0:0:
278,47,39893,2,0,P|246:32|209:29,1,63.9450005366478,10|0,0:0|0:0,0:0:0:0:
311,159,40226,5,6,0:0:0:0:
217,208,40393,1,0,0:0:0:0:
316,278,40560,2,0,P|350:284|389:278,1,71.2950016862069,10|0,0:0|1:0,0:0:0:0:
256,363,40893,2,0,P|222:369|183:363,1,71.2950016862069,10|8,0:0|0:0,0:0:0:0:
86,260,41226,1,2,1:0:0:0:
224,291,41393,1,10,0:0:0:0:
91,226,41560,5,8,0:0:0:0:
240,168,41726,2,0,P|251:127|253:88,1,71.2950016862069,6|8,1:0|3:0,0:0:0:0:
181,0,42060,1,10,3:0:0:0:
287,90,42226,2,0,P|326:87|357:77,1,71.2950016862069,10|8,3:0|3:0,0:0:0:0:
475,24,42560,1,10,3:0:0:0:
388,147,42726,1,8,3:2:0:0:
511,12,42893,6,0,P|503:77|498:161,1,127.890001073296,6|0,1:0|0:0,0:0:0:0:
196,300,43560,1,10,0:0:0:0:
286,244,43726,1,2,3:0:0:0:
153,229,43893,1,10,3:0:0:0:
258,120,44060,6,0,P|264:77|263:44,1,63.9450005366478,6|0,0:0|0:0,0:0:0:0:
148,7,44393,2,0,P|148:38|154:70,1,63.9450005366478,2|8,1:0|0:0,0:0:0:0:
196,202,44726,1,2,3:0:0:0:
196,202,44810,1,0,3:0:0:0:
196,202,44893,2,0,L|164:195,1,31.9725002683239,0|0,3:0|3:0,0:0:0:0:
59,289,45060,2,0,L|90:282,1,31.9725002683239,10|8,3:0|3:0,0:0:0:0:
243,227,45226,1,10,3:0:0:0:
180,345,45393,1,10,3:0:0:0:
317,257,45560,6,0,P|325:317|330:398,1,127.890001073296,6|2,0:0|0:0,0:0:0:0:
420,327,46060,1,2,0:0:0:0:
348,230,46226,1,10,3:2:0:0:
348,230,46310,1,8,3:0:0:0:
348,230,46393,2,0,L|356:177,1,31.9725002683239,8|8,3:0|3:0,0:0:0:0:
359,80,46560,1,10,0:0:0:0:
216,117,46726,6,0,P|180:115|146:102,1,63.9450005366478,6|0,0:0|0:0,0:0:0:0:
291,16,47060,1,10,0:0:0:0:
280,178,47226,1,8,0:0:0:0:
381,79,47393,2,0,P|417:81|451:94,1,63.9450005366478,2|8,1:0|0:0,0:0:0:0:
497,204,47726,1,2,1:0:0:0:
360,157,47893,1,10,3:0:0:0:
468,240,48060,1,8,3:0:0:0:
350,307,48226,6,0,P|315:318|266:321,1,63.9450005366478,4|0,0:0|0:0,0:0:0:0:
205,196,48560,2,0,P|236:200|266:210,1,63.9450005366478,2|0,1:0|0:0,0:0:0:0:
181,346,48893,2,0,P|185:314|195:284,1,63.9450005366478,2|0,1:0|0:0,0:0:0:0:
312,197,49226,1,2,1:0:0:0:
178,162,49393,6,0,P|168:131|163:100,1,63.9450005366478,2|0,0:0|1:0,0:0:0:0:
293,159,49726,1,2,0:0:0:0:
338,26,49893,1,0,1:0:0:0:
272,131,50060,1,2,0:0:0:0:
411,107,50226,2,0,P|415:141|417:190,1,63.9450005366478,2|0,1:0|0:0,0:0:0:0:
380,304,50560,1,10,0:0:0:0:
380,304,50893,6,0,P|339:318|286:321,1,78.6449975999451,6|0,1:0|1:0,0:0:0:0:
207,191,51226,2,0,P|245:195|282:209,1,78.6449975999451,8|8,0:0|0:0,0:0:0:0:
385,325,51560,2,0,P|344:339|291:342,1,78.6449975999451,8|8,0:0|0:0,0:0:0:0:
477,212,51893,1,8,0:0:0:0:
329,210,52060,1,8,0:0:0:0:
500,104,52226,1,8,0:0:0:0:
455,243,52393,5,10,0:0:0:0:
362,42,52560,1,10,0:0:0:0:
449,214,52726,1,10,0:0:0:0:
266,139,52893,1,10,0:0:0:0:
284,344,53060,1,10,0:0:0:0:
356,186,53226,1,10,0:0:0:0:
375,384,53393,1,10,0:0:0:0:
225,211,53560,6,0,P|187:198|127:192,1,78.6449975999451,14|0,0:0|1:0,0:0:0:0:
301,312,53893,1,8,0:0:0:0:
266,139,54060,1,10,3:0:0:0:
266,139,54143,1,8,3:0:0:0:
266,139,54226,2,0,P|262:109|264:83,1,39.3224987999726,10|8,3:2|3:0,0:0:0:0:
393,18,54393,1,2,1:0:0:0:
393,18,54476,1,8,3:0:0:0:
393,18,54559,2,0,P|392:37|389:57,1,39.3224987999726,10|8,3:2|3:0,0:0:0:0:
310,160,54726,2,0,P|307:140|306:120,1,39.3224987999726,2|8,1:0|3:0,0:0:0:0:
449,214,54893,1,14,0:0:0:0:
437,289,56226,6,0,B|327:284|392:348|252:335,1,186.689998575668,6|8,1:0|0:0,0:0:0:0:
112,226,56726,1,0,1:0:0:0:
339,201,56893,2,0,P|392:185|432:161,1,93.3449992878342,10|0,0:0|1:0,0:0:0:0:
222,111,57226,1,8,0:0:0:0:
203,291,57393,1,2,1:0:0:0:
335,115,57560,6,0,P|356:64|363:17,1,93.3449992878342,8|0,0:0|0:0,0:0:0:0:
170,170,57893,1,8,0:0:0:0:
334,241,58060,1,0,1:0:0:0:
171,365,58226,2,0,P|121:374|64:364,1,93.3449992878342,10|0,0:0|1:0,0:0:0:0:
299,217,58560,2,0,P|345:218|389:232,1,93.3449992878342,10|0,0:0|1:0,0:0:0:0:
429,238,58810,5,0,1:0:0:0:
429,238,58893,2,0,P|456:199|476:141,1,93.3449992878342,10|0,0:0|0:0,0:0:0:0:
289,295,59226,1,10,0:0:0:0:
186,122,59393,2,0,P|174:73|174:16,1,93.3449992878342,2|8,1:0|0:0,0:0:0:0:
363,113,59726,2,0,P|361:159|350:204,1,93.3449992878342,2|8,1:0|0:0,0:0:0:0:
216,96,60060,1,2,1:0:0:0:
120,282,60226,6,0,P|110:327|110:373,1,93.3449992878342,8|0,0:0|0:0,0:0:0:0:
250,185,60560,5,10,0:0:0:0:
321,366,60726,1,0,1:0:0:0:
389,159,60893,5,10,0:0:0:0:
289,295,61060,1,0,1:0:0:0:
204,90,61226,5,10,0:0:0:0:
315,267,61393,1,0,1:0:0:0:
358,55,61560,6,0,P|346:147|339:246,1,186.689998575668,14|8,0:0|0:0,0:0:0:0:
204,90,62060,1,0,1:0:0:0:
94,272,62226,2,0,P|82:323|76:388,1,93.3449992878342,10|0,0:0|1:0,0:0:0:0:
239,175,62560,1,8,0:0:0:0:
310,333,62726,1,2,1:0:0:0:
425,179,62893,6,0,P|438:129|440:80,1,93.3449992878342,8|0,0:0|0:0,0:0:0:0:
233,44,63226,1,8,0:0:0:0:
348,178,63393,1,0,1:0:0:0:
177,227,63560,2,0,P|130:223|85:211,1,93.3449992878342,10|0,0:0|1:0,0:0:0:0:
318,146,63893,1,10,0:0:0:0:
282,304,64060,1,0,1:0:0:0:
198,92,64226,6,0,P|192:45|195:-1,1,93.3449992878342,10|0,0:0|0:0,0:0:0:0:
334,163,64560,1,10,0:0:0:0:
158,197,64726,2,0,P|110:195|59:178,1,93.3449992878342,2|8,1:0|0:0,0:0:0:0:
291,270,65060,2,0,P|337:272|382:261,1,93.3449992878342,2|8,1:0|0:0,0:0:0:0:
215,372,65393,1,2,1:0:0:0:
428,354,65560,6,0,P|483:271|437:175,1,186.689998575668,8|8,0:0|0:0,0:0:0:0:
318,72,66060,1,0,1:0:0:0:
229,248,66226,1,8,0:0:0:0:
188,95,66393,1,2,1:0:0:0:
95,271,66560,1,10,3:0:0:0:
173,173,66726,1,10,3:0:0:0:
288,345,66893,6,0,B|393:354|352:278|465:290,1,171.99000065609,6|10,1:0|0:0,0:0:0:0:
312,266,67393,1,0,0:0:0:0:
407,142,67560,2,0,P|421:99|424:53,1,85.9950003280449,2|0,1:0|0:0,0:0:0:0:
275,165,67893,1,10,0:0:0:0:
160,57,68060,6,0,P|119:45|72:40,1,85.9950003280449,2|0,0:0|1:0,0:0:0:0:
166,204,68393,2,0,P|208:198|250:187,1,85.9950003280449,2|8,0:0|0:0,0:0:0:0:
48,139,68726,2,0,P|34:181|30:237,1,85.9950003280449,2|0,0:0|1:0,0:0:0:0:
105,355,69060,1,2,0:0:0:0:
146,171,69226,1,10,0:0:0:0:
65,291,69393,1,2,0:0:0:0:
234,352,69560,6,0,P|277:350|324:337,1,85.9950003280449,6|0,0:0|0:0,0:0:0:0:
447,238,69893,2,0,P|404:236|362:225,1,85.9950003280449,10|0,0:0|0:0,0:0:0:0:
395,44,70226,2,0,P|409:85|418:137,1,85.9950003280449,2|0,1:0|0:0,0:0:0:0:
337,266,70560,1,10,0:0:0:0:
229,121,70726,6,0,P|234:78|245:36,1,85.9950003280449,2|0,0:0|1:0,0:0:0:0:
303,168,71060,1,2,0:0:0:0:
167,242,71226,2,0,P|124:249|70:249,1,85.9950003280449,10|0,0:0|0:0,0:0:0:0:
214,150,71560,1,0,1:0:0:0:
255,269,71726,1,2,0:0:0:0:
303,96,71893,1,10,0:0:0:0:
242,226,72060,1,2,0:0:0:0:
405,279,72226,6,0,P|454:277|494:259,1,85.9950003280449,6|0,0:0|0:0,0:0:0:0:
385,111,72560,2,0,P|345:95|302:95,1,85.9950003280449,10|0,0:0|0:0,0:0:0:0:
468,190,72893,2,0,P|499:152|514:111,1,85.9950003280449,2|0,1:0|0:0,0:0:0:0:
344,185,73226,1,10,0:0:0:0:
215,95,73393,6,0,P|206:49|207:9,1,85.9950003280449,2|0,0:0|1:0,0:0:0:0:
362,147,73726,2,0,P|360:190|353:232,1,85.9950003280449,2|8,0:0|0:0,0:0:0:0:
269,353,74060,2,0,P|265:312|254:267,1,85.9950003280449,2|0,0:0|1:0,0:0:0:0:
169,152,74393,1,2,0:0:0:0:
62,301,74560,1,10,0:0:0:0:
159,231,74726,1,2,0:0:0:0:
38,115,74893,6,0,P|24:66|23:14,1,85.9950003280449,6|0,0:0|0:0,0:0:0:0:
169,152,75226,1,10,0:0:0:0:
275,36,75393,2,0,P|317:39|358:52,1,85.9950003280449,2|0,0:0|1:0,0:0:0:0:
468,172,75726,2,0,P|425:175|384:188,1,85.9950003280449,2|8,0:0|0:0,0:0:0:0:
270,324,76060,6,0,P|310:336|353:339,1,85.9950003280449,2|0,0:0|1:0,0:0:0:0:
257,183,76393,1,8,0:0:0:0:
428,174,76560,1,8,0:0:0:0:
301,252,76726,1,2,1:0:0:0:
382,92,76893,2,0,P|390:51|392:7,1,85.9950003280449,10|0,0:0|1:0,0:0:0:0:
230,103,77226,2,0,L|239:169,1,42.9975001640224,8|8,3:0|3:0,0:0:0:0:
128,229,77393,2,0,L|133:186,1,42.9975001640224,8|8,3:0|3:0,0:0:0:0:
272,293,77560,6,0,P|312:309|354:311,1,78.6449975999451,6|0,0:0|0:0,0:0:0:0:
436,187,77893,2,0,P|396:190|360:205,1,78.6449975999451,2|0,1:0|0:0,0:0:0:0:
250,316,78226,2,0,P|210:312|174:297,1,78.6449975999451,2|0,1:0|0:0,0:0:0:0:
72,171,78560,2,0,P|108:155|147:152,1,78.6449975999451,2|0,1:0|0:0,0:0:0:0:
273,216,78893,5,2,1:0:0:0:
273,216,79060,1,2,0:0:0:0:
347,62,79226,2,0,P|342:101|340:152,1,78.6449975999451,2|0,1:0|0:0,0:0:0:0:
386,296,79560,1,2,1:0:0:0:
386,296,79727,1,2,0:0:0:0:
460,142,79893,2,0,P|463:186|463:232,1,78.6449975999451,2|0,1:0|0:0,0:0:0:0:
350,326,80226,6,0,P|288:310|255:310,1,78.6449975999451,6|0,1:0|0:0,0:0:0:0:
113,265,80560,2,0,P|152:260|189:248,1,78.6449975999451,2|0,1:0|0:0,0:0:0:0:
323,358,80893,2,0,P|261:342|228:342,1,78.6449975999451,0|0,1:0|0:0,0:0:0:0:
86,297,81227,2,0,P|125:292|162:280,1,78.6449975999451,2|0,1:0|0:0,0:0:0:0:
323,198,81560,6,0,P|333:150|337:88,1,78.6449975999451,2|0,1:0|0:0,0:0:0:0:
186,24,81893,2,0,P|190:63|199:101,1,78.6449975999451,2|0,1:0|0:0,0:0:0:0:
340,227,82226,2,0,P|350:179|354:117,1,78.6449975999451,2|0,1:0|0:0,0:0:0:0:
216,45,82559,2,0,P|220:84|229:122,1,78.6449975999451,10|0,0:0|3:0,0:0:0:0:
250,156,82810,5,0,3:0:0:0:
250,156,82893,2,0,P|191:143|148:147,1,78.6449975999451,6|0,1:0|0:0,0:0:0:0:
44,270,83226,2,0,P|83:268|121:258,1,78.6449975999451,10|0,0:0|0:0,0:0:0:0:
271,188,83560,2,0,P|233:177|193:176,1,78.6449975999451,2|0,1:0|0:0,0:0:0:0:
274,316,83893,1,10,0:0:0:0:
393,205,84060,6,0,P|403:155|403:110,1,78.6449975999451,2|0,0:0|1:0,0:0:0:0:
292,226,84393,1,2,0:0:0:0:
292,226,84560,1,10,0:0:0:0:
233,103,84726,2,0,P|222:53|223:8,1,78.6449975999451,2|2,0:0|1:0,0:0:0:0:
322,150,85060,1,2,0:0:0:0:
192,227,85226,2,0,P|149:238|98:237,1,78.6449975999451,10|2,0:0|0:0,0:0:0:0:
301,340,85560,6,0,P|312:297|314:248,1,78.6449975999451,6|0,1:0|0:0,0:0:0:0:
420,163,85893,2,0,P|423:202|433:239,1,78.6449975999451,10|0,0:0|0:0,0:0:0:0:
493,83,86226,1,10,3:2:0:0:
493,83,86310,1,8,3:0:0:0:
493,83,86393,2,0,L|448:73,1,39.3224987999726,8|8,3:0|3:0,0:0:0:0:
334,169,86560,2,0,L|372:160,1,39.3224987999726,10|8,3:2|3:0,0:0:0:0:
245,56,86726,5,6,1:0:0:0:
396,297,87060,1,6,1:0:0:0:
156,139,87393,1,6,1:0:0:0:
