osu file format v14

[General]
AudioFilename: audio.mp3
AudioLeadIn: 0
PreviewTime: 22595
Countdown: 1
SampleSet: Soft
StackLeniency: 0.4
Mode: 0
LetterboxInBreaks: 0
WidescreenStoryboard: 1

[Editor]
DistanceSpacing: 0.8
BeatDivisor: 4
GridSize: 4
TimelineZoom: 3.299999

[Metadata]
Title:Kyoumen no Nami
TitleUnicode:鏡面の波
Artist:YURiKA
ArtistUnicode:YURiKA
Creator:anfeargorm
Version:Normal
Source:
Tags:Land of the Lustrous Country of Jewels Houseki no Kuni
BeatmapID:2039498
BeatmapSetID:938901

[Difficulty]
HPDrainRate:4
CircleSize:3
OverallDifficulty:4
ApproachRate:5
SliderMultiplier:1
SliderTickRate:1

[Events]
//Background and Video events
0,0,"dn;fhjklg.png",0,0
//Break Periods
//Storyboard Layer 0 (Background)
//Storyboard Layer 1 (Fail)
//Storyboard Layer 2 (Pass)
//Storyboard Layer 3 (Foreground)
//Storyboard Sound Samples

[TimingPoints]
653,342.857142857143,4,2,0,60,1,0
11624,-83.3333333333333,4,2,0,60,0,0
22595,-71.4285714285714,4,2,0,60,0,0
44538,-71.4285714285714,4,2,0,60,0,1
46595,-71.4285714285714,4,2,0,60,0,0
55510,-71.4285714285714,4,2,0,60,0,1
57567,-71.4285714285714,4,2,0,60,0,0
66481,-100,4,2,0,60,0,0
82938,-100,4,2,0,30,0,0

[Colours]
Combo1 : 72,164,255
Combo2 : 159,0,0
Combo3 : 34,196,131

[HitObjects]
100,83,653,6,0,L|256:96,1,150
432,172,1681,2,0,B|388:155|388:155|276:185,1,150
185,273,2710,2,0,B|284:299|284:299|328:282,1,150
226,181,3738,2,0,P|149:165|85:211,1,150
293,93,4767,2,0,P|369:108|433:62,1,150
176,24,5795,1,0,0:0:0:0:
88,73,6138,2,0,L|74:235,1,150
200,302,7167,2,0,B|175:255|175:255|186:140,1,150
314,81,8195,2,0,B|323:177|323:177|298:224,1,150
256,192,9224,12,0,11281,0:0:0:0:
214,254,11624,6,0,L|101:264,2,89.9999972534181
339,237,12653,1,0,0:0:0:0:
377,231,12824,2,0,P|388:189|369:105,1,119.999996337891
264,33,14024,1,0,0:0:0:0:
226,39,14195,2,0,P|215:81|234:165,1,119.999996337891
241,344,15395,1,0,0:0:0:0:
203,338,15566,2,0,B|211:218|211:218|186:147,1,179.999994506836
348,37,16767,2,0,P|343:84|352:115,1,59.9999981689454
366,129,17110,6,0,L|373:239,2,89.9999972534181
133,110,18138,1,0,0:0:0:0:
175,108,18310,2,0,B|166:181|166:181|175:239,1,119.999996337891
191,257,18824,2,0,P|201:293|196:328,1,59.9999981689454
192,357,19167,1,0,0:0:0:0:
341,357,19510,2,0,B|334:277,1,59.9999981689454
335,244,19853,2,0,P|334:206|352:116,1,119.999996337891
256,192,20281,12,0,22253,0:0:0:0:
132,67,22595,6,0,L|287:78,1,139.999995727539
328,80,23110,1,0,0:0:0:0:
312,247,23624,1,0,0:0:0:0:
264,261,23795,2,0,B|169:273|169:273|99:253,1,139.999995727539
117,205,24310,2,0,L|103:123,1,69.9999978637696
109,85,24653,2,0,L|123:3,1,69.9999978637696
176,14,24995,1,0,0:0:0:0:
232,14,25167,2,0,B|300:15|300:15|368:35|368:35|442:36,1,209.999993591309
443,181,26024,2,0,B|371:181|371:181|303:201|303:201|235:202,1,209.999993591309
80,167,27053,6,0,L|74:268,1,69.9999978637696
78,292,27395,2,0,L|84:393,1,69.9999978637696
138,364,27738,2,0,L|241:357,1,69.9999978637696
266,361,28081,6,0,B|375:366,2,104.999996795654
279,193,29110,2,0,L|284:123,1,69.9999978637696
378,61,29624,1,0,0:0:0:0:
433,68,29795,2,0,B|454:135|454:135|439:221,1,139.999995727539
362,282,30481,1,0,0:0:0:0:
310,303,30653,2,0,P|265:318|154:286,1,139.999995727539
132,265,31167,2,0,L|115:181,1,69.9999978637696
115,140,31510,2,0,L|127:63,1,69.9999978637696
161,27,31853,1,0,0:0:0:0:
214,11,32024,2,0,P|301:1|362:22,3,139.999995727539
416,103,33567,6,0,P|425:178|423:266,1,139.999995727539
387,284,34081,2,0,L|298:270,1,69.9999978637696
262,266,34424,1,0,0:0:0:0:
206,270,34595,2,0,P|126:279|65:262,1,139.999995727539
42,214,35110,6,0,B|25:140|25:140|58:59,1,139.999995727539
91,43,35624,2,0,P|138:36|172:40,1,69.9999978637696
215,45,35967,1,0,0:0:0:0:
270,52,36138,2,0,L|280:213,1,139.999995727539
374,250,36824,6,0,L|382:110,1,139.999995727539
479,52,37510,6,0,L|487:191,1,139.999995727539
496,247,38024,2,0,P|489:304|425:358,1,139.999995727539
373,358,38538,1,0,0:0:0:0:
316,355,38710,2,0,L|223:352,1,69.9999978637696
189,352,39053,6,0,L|51:345,2,104.999996795654
198,184,40081,2,0,L|206:88,1,69.9999978637696
247,11,40595,2,0,P|300:3|397:24,2,139.999995727539
196,111,41624,2,0,P|116:131|19:110,2,174.999994659424
185,222,42824,1,0,0:0:0:0:
262,303,43167,1,0,0:0:0:0:
373,288,43510,2,0,P|435:283|464:260,1,69.9999978637696
457,226,43853,2,0,L|471:96,2,104.999996795654
444,280,44538,2,0,L|363:268,1,69.9999978637696
319,260,44881,1,0,0:0:0:0:
291,309,45053,2,0,L|210:321,1,69.9999978637696
166,329,45396,1,0,0:0:0:0:
151,275,45567,2,0,L|70:263,1,69.9999978637696
27,251,45910,6,0,P|17:175|98:46,1,209.999993591309
127,35,46595,2,0,L|347:55,1,209.999993591309
391,60,47281,2,0,P|415:99|226:355,1,419.999987182618
128,331,48653,2,0,L|121:183,1,139.999995727539
230,164,49338,2,2,L|236:24,1,139.999995727539,0|0,0:0|0:0,0:0:0:0:
348,31,50024,6,0,P|407:45|443:81,2,104.999996795654
310,73,50710,2,0,P|324:132|360:168,2,104.999996795654
257,54,51395,2,0,P|178:46|104:57,1,139.999995727539
65,74,51910,1,0,0:0:0:0:
38,182,52253,2,0,L|38:335,1,139.999995727539
40,378,52767,6,0,P|111:395|194:370,1,139.999995727539
190,326,53281,2,0,P|257:311|325:328,1,139.999995727539
340,382,53795,1,0,0:0:0:0:
469,199,54481,6,0,P|378:134|329:128,1,139.999995727539
240,139,55167,1,0,0:0:0:0:
164,221,55510,6,0,P|111:227|86:218,1,69.9999978637696
73,170,55853,1,0,0:0:0:0:
63,114,56024,2,0,P|84:65|104:47,1,69.9999978637696
153,60,56367,1,0,0:0:0:0:
206,80,56538,2,0,P|237:122|242:149,1,69.9999978637696
207,184,56881,1,0,0:0:0:0:
50,343,57567,6,0,P|109:331|282:340,1,209.999993591309
311,350,58253,2,0,P|372:359|408:346,1,69.9999978637696
428,332,58595,2,0,P|411:274|441:116,1,209.999993591309
464,81,59281,2,0,P|408:27|274:25,1,209.999993591309
235,53,59967,6,0,P|191:117|280:281,1,279.999991455078
328,289,60995,2,0,B|402:277|402:277|421:193,1,139.999995727539
400,102,61681,2,0,B|325:113|325:113|308:190,1,139.999995727539
308,231,62195,2,0,B|239:248|239:248|98:183,1,209.999993591309
78,145,62881,2,0,P|66:99|91:1,1,139.999995727539
140,18,63395,2,0,P|184:50|279:46,1,139.999995727539
323,51,63910,1,0,0:0:0:0:
376,68,64081,2,0,L|397:223,1,139.999995727539
334,301,64767,2,0,P|285:278|176:286,1,139.999995727539
62,329,65624,1,0,0:0:0:0:
46,105,66310,1,0,0:0:0:0:
83,90,66481,6,0,P|124:80|238:85,1,150
218,202,67510,2,0,P|259:212|373:207,1,150
403,195,68195,2,0,L|417:300,2,100
385,116,69224,2,0,P|342:71|195:56,1,200
137,83,70253,2,0,P|116:111|112:131,1,50
106,255,70938,2,0,P|164:232|216:231,2,100
115,336,71967,2,0,B|152:354|188:346|188:327|231:318|273:332,1,150
376,360,72995,2,0,P|392:304|363:156,1,200
322,101,74024,2,0,B|252:97|252:97|162:47,1,150
143,47,74710,6,0,P|124:104|128:205,1,150
135,231,75395,1,0,0:0:0:0:
190,337,75910,6,0,B|257:323|257:323|347:334,1,150
377,340,76595,1,0,0:0:0:0:
455,353,76938,2,0,L|458:289,1,50
256,192,77453,12,0,82938,0:0:0:0:
