osu file format v14

[General]
AudioFilename: audio.mp3
AudioLeadIn: 0
PreviewTime: 43149
Countdown: 0
SampleSet: Normal
StackLeniency: 0.7
Mode: 1
LetterboxInBreaks: 0
WidescreenStoryboard: 1

[Editor]
DistanceSpacing: 0.5
BeatDivisor: 2
GridSize: 8
TimelineZoom: 1.2

[Metadata]
Title:Kyoumen no Nami
TitleUnicode:鏡面の波
Artist:YURiKA
ArtistUnicode:YURiKA
Creator:Ney
Version:Futsuu
Source:宝石の国
Tags:land of the lustrous country of jewels houseki no kuni full version kobayashi 2017 vrnl
BeatmapID:1560640
BeatmapSetID:739172

[Difficulty]
HPDrainRate:7
CircleSize:3.5
OverallDifficulty:4
ApproachRate:3.5
SliderMultiplier:1.4
SliderTickRate:1

[Events]
//Background and Video events
0,0,"gold.jpg",0,0
//Break Periods
2,77635,81540
//Storyboard Layer 0 (Background)
//Storyboard Layer 1 (Fail)
//Storyboard Layer 2 (Pass)
//Storyboard Layer 3 (Foreground)
//Storyboard Layer 4 (Overlay)
//Storyboard Sound Samples

[TimingPoints]
635,342.857142857143,4,1,0,70,1,0
22577,-100,4,1,0,70,0,0
50006,-100,4,1,0,80,0,1
66463,-100,4,1,0,75,0,0
82920,-100,4,1,0,70,0,0
126806,-100,4,1,0,50,0,0
128177,-100,4,1,0,75,0,0
150120,342.857142857143,7,1,0,75,1,0
177891,342.857142857143,4,1,0,75,1,8
179262,-100,4,1,0,65,0,8
201205,-100,4,1,0,80,0,9
223148,-100,4,1,0,80,0,8
245091,342.857142857143,7,1,0,75,1,8
245091,-100,7,1,0,75,0,8
259491,-100,7,1,0,70,0,8

[HitObjects]
240,232,635,5,0,0:0:0:0:
240,232,1149,1,8,0:0:0:0:
240,232,2177,1,8,0:0:0:0:
240,232,2692,1,8,0:0:0:0:
184,248,3377,1,0,0:0:0:0:
192,224,4406,1,0,0:0:0:0:
200,240,5092,1,8,0:0:0:0:
200,240,6120,1,0,0:0:0:0:
200,240,6635,1,8,0:0:0:0:
176,232,7663,1,8,0:0:0:0:
176,232,8177,1,0,0:0:0:0:
208,232,8863,1,0,0:0:0:0:
208,232,9892,1,0,0:0:0:0:
208,232,10577,1,8,0:0:0:0:
208,232,11606,1,0,0:0:0:0:
208,216,12120,1,8,0:0:0:0:
200,216,12806,1,0,0:0:0:0:
200,216,13149,1,0,0:0:0:0:
232,224,14349,1,0,0:0:0:0:
232,216,15377,1,0,0:0:0:0:
232,216,16063,1,8,0:0:0:0:
216,224,16749,1,0,0:0:0:0:
216,224,17092,1,0,0:0:0:0:
216,224,17606,1,8,0:0:0:0:
208,216,18292,1,0,0:0:0:0:
208,216,18635,1,0,0:0:0:0:
208,208,19835,1,0,0:0:0:0:
256,192,20177,8,0,22235,0:0:0:0:
240,192,22577,5,4,0:0:0:0:
248,216,23263,1,8,0:0:0:0:
248,216,23606,1,0,0:0:0:0:
240,208,23949,1,0,0:0:0:0:
240,208,24635,1,0,0:0:0:0:
240,216,24977,1,0,0:0:0:0:
240,208,25320,1,8,0:0:0:0:
240,208,26006,1,0,0:0:0:0:
240,208,26349,1,0,0:0:0:0:
240,208,26692,1,0,0:0:0:0:
232,200,27377,1,8,0:0:0:0:
232,200,28063,1,8,0:0:0:0:
224,200,28577,1,0,0:0:0:0:
232,200,29092,1,0,0:0:0:0:
232,200,29435,1,0,0:0:0:0:
232,216,30120,1,0,0:0:0:0:
232,216,30463,1,8,0:0:0:0:
232,216,30806,1,0,0:0:0:0:
248,224,31492,1,0,0:0:0:0:
248,216,32177,1,0,0:0:0:0:
248,216,32520,1,0,0:0:0:0:
248,216,32863,1,8,0:0:0:0:
248,216,33206,1,0,0:0:0:0:
248,216,33549,1,12,0:0:0:0:
240,224,34235,1,0,0:0:0:0:
232,248,34577,1,8,0:0:0:0:
240,224,34920,1,8,0:0:0:0:
232,224,35606,1,0,0:0:0:0:
232,224,35949,1,8,0:0:0:0:
232,224,36292,1,8,0:0:0:0:
208,208,36806,1,0,0:0:0:0:
216,208,37149,1,0,0:0:0:0:
216,208,37492,1,0,0:0:0:0:
232,224,38349,1,8,0:0:0:0:
208,232,38692,1,0,0:0:0:0:
232,224,39035,1,12,0:0:0:0:
224,256,39549,1,0,0:0:0:0:
224,240,40063,1,0,0:0:0:0:
224,240,40406,1,8,0:0:0:0:
232,232,41092,1,0,0:0:0:0:
232,232,41435,1,0,0:0:0:0:
232,232,41777,1,8,0:0:0:0:
232,232,42120,1,8,0:0:0:0:
232,232,42463,1,0,0:0:0:0:
232,232,42806,1,0,0:0:0:0:
232,232,43149,1,8,0:0:0:0:
232,232,43835,1,8,0:0:0:0:
248,216,44520,1,4,0:0:0:0:
248,216,46577,1,8,0:0:0:0:
248,216,47263,1,0,0:0:0:0:
248,216,48635,1,0,0:0:0:0:
248,216,49320,1,8,0:0:0:0:
248,216,50006,1,12,0:0:0:0:
224,216,50692,1,8,0:0:0:0:
240,216,51035,1,0,0:0:0:0:
240,216,51377,1,8,0:0:0:0:
240,216,51892,1,0,0:0:0:0:
224,216,52406,1,0,0:0:0:0:
224,216,52749,1,8,0:0:0:0:
224,216,53435,1,0,0:0:0:0:
208,224,53777,1,0,0:0:0:0:
224,216,54120,1,0,0:0:0:0:
208,224,54463,1,8,0:0:0:0:
208,224,54806,1,8,0:0:0:0:
224,216,55492,1,12,0:0:0:0:
200,240,56177,1,0,0:0:0:0:
200,240,56520,1,0,0:0:0:0:
200,240,56863,1,8,0:0:0:0:
200,240,57549,1,8,0:0:0:0:
200,240,57892,1,8,0:0:0:0:
200,240,58235,1,0,0:0:0:0:
200,240,58577,1,8,0:0:0:0:
200,240,59263,1,0,0:0:0:0:
200,240,59949,1,8,0:0:0:0:
184,264,60292,1,0,0:0:0:0:
232,232,60635,1,0,0:0:0:0:
184,264,60977,1,8,0:0:0:0:
184,264,61492,1,0,0:0:0:0:
184,264,62006,1,0,0:0:0:0:
184,264,62349,1,8,0:0:0:0:
184,264,63035,1,8,0:0:0:0:
184,264,63377,1,8,0:0:0:0:
160,280,63720,1,0,0:0:0:0:
193,241,63892,1,0,0:0:0:0:
193,241,64063,1,0,0:0:0:0:
184,264,64749,1,0,0:0:0:0:
184,264,65092,1,8,0:0:0:0:
191,219,65435,1,8,0:0:0:0:
184,288,65606,1,8,0:0:0:0:
184,264,65777,1,8,0:0:0:0:
184,264,66463,1,4,0:0:0:0:
224,272,67149,1,0,0:0:0:0:
192,280,67492,1,8,0:0:0:0:
192,280,67835,1,0,0:0:0:0:
224,272,68520,1,0,0:0:0:0:
224,272,68863,1,0,0:0:0:0:
224,272,69206,1,8,0:0:0:0:
224,272,69892,1,8,0:0:0:0:
224,272,70406,1,0,0:0:0:0:
224,272,70920,1,0,0:0:0:0:
224,272,71263,1,8,0:0:0:0:
216,264,71949,1,0,0:0:0:0:
216,264,72463,1,0,0:0:0:0:
216,264,72977,1,0,0:0:0:0:
192,280,73320,1,0,0:0:0:0:
216,264,74006,1,8,0:0:0:0:
192,280,74692,1,8,0:0:0:0:
192,288,75377,1,0,0:0:0:0:
192,288,75892,1,0,0:0:0:0:
192,288,76063,1,0,0:0:0:0:
216,256,76749,1,0,0:0:0:0:
192,288,77092,1,8,0:0:0:0:
192,288,77435,1,4,0:0:0:0:
184,200,82920,21,4,0:0:0:0:
240,216,83606,1,8,0:0:0:0:
224,232,83949,1,0,0:0:0:0:
232,216,84292,1,0,0:0:0:0:
232,216,84806,1,0,0:0:0:0:
232,216,85663,1,8,0:0:0:0:
232,216,86177,1,0,0:0:0:0:
232,216,86692,1,0,0:0:0:0:
232,216,87377,1,0,0:0:0:0:
216,216,87720,1,0,0:0:0:0:
232,216,87892,1,8,0:0:0:0:
224,232,88406,1,4,0:0:0:0:
224,232,89092,1,0,0:0:0:0:
224,232,89435,1,0,0:0:0:0:
224,232,89777,1,8,0:0:0:0:
208,240,90292,1,0,0:0:0:0:
208,240,90806,1,8,0:0:0:0:
208,240,91149,1,0,0:0:0:0:
208,240,91835,1,0,0:0:0:0:
208,240,92177,1,0,0:0:0:0:
208,240,92520,1,8,0:0:0:0:
208,240,93035,1,0,0:0:0:0:
192,240,93377,1,12,0:0:0:0:
208,240,93892,1,4,0:0:0:0:
224,248,94406,1,0,0:0:0:0:
224,248,94920,1,8,0:0:0:0:
208,256,95435,1,0,0:0:0:0:
208,256,95949,1,8,0:0:0:0:
208,256,96292,1,8,0:0:0:0:
208,256,96635,1,0,0:0:0:0:
208,256,97320,1,0,0:0:0:0:
208,256,97663,1,0,0:0:0:0:
208,256,98006,1,8,0:0:0:0:
208,256,98349,1,8,0:0:0:0:
208,256,98520,1,8,0:0:0:0:
264,200,99377,1,4,0:0:0:0:
272,208,99720,1,0,0:0:0:0:
272,208,100063,1,8,0:0:0:0:
272,208,100406,1,8,0:0:0:0:
272,208,100920,1,0,0:0:0:0:
240,224,101435,1,8,0:0:0:0:
240,224,101606,1,8,0:0:0:0:
240,224,102120,1,4,0:0:0:0:
240,224,102806,1,4,0:0:0:0:
240,224,103492,1,12,0:0:0:0:
240,240,103835,1,0,0:0:0:0:
256,224,104177,1,0,0:0:0:0:
240,240,104520,1,0,0:0:0:0:
232,184,104863,1,4,0:0:0:0:
200,216,105549,1,0,0:0:0:0:
216,216,105892,1,8,0:0:0:0:
216,200,106235,1,0,0:0:0:0:
216,200,106920,1,8,0:0:0:0:
200,216,107263,1,0,0:0:0:0:
216,200,107606,1,0,0:0:0:0:
216,200,108292,1,0,0:0:0:0:
216,200,108977,1,8,0:0:0:0:
224,240,109320,1,0,0:0:0:0:
216,200,109663,1,8,0:0:0:0:
216,200,110006,1,8,0:0:0:0:
216,200,110349,1,0,0:0:0:0:
200,192,111035,1,0,0:0:0:0:
192,224,111377,1,8,0:0:0:0:
208,208,111720,1,8,0:0:0:0:
208,208,112406,1,0,0:0:0:0:
208,208,112749,1,0,0:0:0:0:
208,208,113092,1,8,0:0:0:0:
208,208,113777,1,8,0:0:0:0:
208,208,114463,1,0,0:0:0:0:
208,208,114806,1,0,0:0:0:0:
208,208,115149,1,8,0:0:0:0:
192,224,115492,1,0,0:0:0:0:
192,224,115835,1,4,0:0:0:0:
208,216,116520,1,0,0:0:0:0:
216,200,116863,1,8,0:0:0:0:
216,200,117206,1,0,0:0:0:0:
216,200,117892,1,0,0:0:0:0:
216,200,118235,1,8,0:0:0:0:
216,200,118577,1,0,0:0:0:0:
224,216,119263,1,0,0:0:0:0:
224,216,119606,1,8,0:0:0:0:
224,216,119949,1,8,0:0:0:0:
224,216,120292,1,8,0:0:0:0:
224,216,120635,1,0,0:0:0:0:
232,224,120977,1,8,0:0:0:0:
224,216,121320,1,12,0:0:0:0:
216,224,122006,1,8,0:0:0:0:
216,224,122349,1,0,0:0:0:0:
216,224,122692,1,0,0:0:0:0:
216,224,123035,1,0,0:0:0:0:
216,224,123206,1,8,0:0:0:0:
216,224,123549,1,0,0:0:0:0:
216,224,124063,1,8,0:0:0:0:
216,224,124406,1,8,0:0:0:0:
216,224,124749,1,8,0:0:0:0:
216,224,125092,1,0,0:0:0:0:
232,240,125777,1,0,0:0:0:0:
232,240,125949,1,8,0:0:0:0:
232,240,126292,1,8,0:0:0:0:
256,192,126806,12,0,127835,0:0:0:0:
224,240,128177,5,4,0:0:0:0:
232,224,128692,1,0,0:0:0:0:
232,248,129035,1,0,0:0:0:0:
232,224,129549,1,8,0:0:0:0:
232,224,130063,1,8,0:0:0:0:
232,224,130577,1,0,0:0:0:0:
232,224,130920,1,0,0:0:0:0:
224,232,131606,1,0,0:0:0:0:
224,232,131949,1,0,0:0:0:0:
224,232,132120,1,0,0:0:0:0:
224,232,132292,1,0,0:0:0:0:
208,232,132977,1,8,0:0:0:0:
208,232,133320,1,0,0:0:0:0:
208,232,133663,1,8,0:0:0:0:
192,256,134349,1,8,0:0:0:0:
192,256,134692,1,0,0:0:0:0:
192,256,135035,1,8,0:0:0:0:
192,256,135549,1,0,0:0:0:0:
192,256,136063,1,8,0:0:0:0:
208,264,136406,1,0,0:0:0:0:
192,264,137092,1,8,0:0:0:0:
192,264,137435,1,0,0:0:0:0:
192,264,137606,1,0,0:0:0:0:
168,272,137777,1,0,0:0:0:0:
168,272,138120,1,0,0:0:0:0:
168,272,138463,1,8,0:0:0:0:
168,272,139149,1,4,0:0:0:0:
224,272,139492,1,0,0:0:0:0:
216,264,139835,1,8,0:0:0:0:
248,288,140520,1,0,0:0:0:0:
248,288,140863,1,8,0:0:0:0:
248,288,141206,1,8,0:0:0:0:
240,272,141377,1,8,0:0:0:0:
256,272,141549,1,8,0:0:0:0:
240,272,141892,1,0,0:0:0:0:
240,272,142406,1,0,0:0:0:0:
224,280,143263,1,0,0:0:0:0:
224,280,143606,1,8,0:0:0:0:
240,280,143949,1,8,0:0:0:0:
240,280,144292,1,0,0:0:0:0:
240,280,144635,1,8,0:0:0:0:
216,280,145320,1,0,0:0:0:0:
216,280,145663,1,0,0:0:0:0:
224,272,146006,1,8,0:0:0:0:
224,272,146520,1,8,0:0:0:0:
224,272,147035,1,8,0:0:0:0:
224,272,147377,1,0,0:0:0:0:
224,272,148063,1,0,0:0:0:0:
224,272,148406,1,8,0:0:0:0:
224,272,148577,1,8,0:0:0:0:
224,272,148749,1,8,0:0:0:0:
224,272,149092,1,0,0:0:0:0:
224,272,149435,1,0,0:0:0:0:
224,272,149606,1,0,0:0:0:0:
224,272,149777,1,0,0:0:0:0:
224,272,150120,1,4,0:0:0:0:
248,240,150805,1,8,0:0:0:0:
224,256,151491,1,0,0:0:0:0:
224,256,151834,1,0,0:0:0:0:
224,256,152177,1,8,0:0:0:0:
224,256,152520,1,0,0:0:0:0:
216,248,153205,1,8,0:0:0:0:
224,256,153891,1,0,0:0:0:0:
224,256,154234,1,8,0:0:0:0:
224,256,154577,1,8,0:0:0:0:
224,272,154920,1,4,0:0:0:0:
248,240,155605,1,8,0:0:0:0:
224,256,156291,1,0,0:0:0:0:
224,256,156634,1,0,0:0:0:0:
224,256,156977,1,8,0:0:0:0:
224,256,157320,1,0,0:0:0:0:
216,248,158005,1,8,0:0:0:0:
192,256,158348,1,0,0:0:0:0:
192,256,158520,1,0,0:0:0:0:
224,256,158691,1,0,0:0:0:0:
224,256,159034,1,8,0:0:0:0:
224,256,159377,1,8,0:0:0:0:
224,256,159720,1,4,0:0:0:0:
224,248,160405,1,0,0:0:0:0:
208,256,160748,1,0,0:0:0:0:
208,256,161091,1,8,0:0:0:0:
208,256,161605,1,0,0:0:0:0:
208,256,162120,1,8,0:0:0:0:
208,256,162634,1,0,0:0:0:0:
208,256,163148,1,0,0:0:0:0:
208,256,163662,1,8,0:0:0:0:
208,256,164005,1,8,0:0:0:0:
216,272,164177,1,0,0:0:0:0:
208,256,164520,1,4,0:0:0:0:
208,272,165205,1,0,0:0:0:0:
208,272,165548,1,0,0:0:0:0:
208,272,165891,1,8,0:0:0:0:
208,272,166405,1,0,0:0:0:0:
208,272,166920,1,8,0:0:0:0:
208,272,167434,1,8,0:0:0:0:
208,272,167948,1,0,0:0:0:0:
208,272,168462,1,0,0:0:0:0:
208,272,168805,1,0,0:0:0:0:
208,272,168977,1,8,0:0:0:0:
216,248,169320,1,4,0:0:0:0:
224,256,170005,1,8,0:0:0:0:
224,256,170348,1,8,0:0:0:0:
224,256,170691,1,0,0:0:0:0:
224,256,171205,1,0,0:0:0:0:
224,256,171720,1,8,0:0:0:0:
224,256,172234,1,8,0:0:0:0:
224,256,172748,1,0,0:0:0:0:
224,256,173262,1,0,0:0:0:0:
224,256,173605,1,0,0:0:0:0:
224,256,173777,1,8,0:0:0:0:
216,264,174120,1,4,0:0:0:0:
216,264,174462,1,8,0:0:0:0:
208,264,174805,1,0,0:0:0:0:
208,264,175148,1,8,0:0:0:0:
208,264,175834,1,0,0:0:0:0:
208,264,176177,1,0,0:0:0:0:
208,264,176520,1,8,0:0:0:0:
208,264,177034,1,0,0:0:0:0:
208,264,177377,1,8,0:0:0:0:
208,264,177720,1,8,0:0:0:0:
208,288,178233,1,0,0:0:0:0:
208,288,178576,1,8,0:0:0:0:
208,288,178919,1,8,0:0:0:0:
208,288,179262,1,4,0:0:0:0:
200,272,180291,1,8,0:0:0:0:
192,272,181319,1,8,0:0:0:0:
192,272,182005,1,0,0:0:0:0:
216,272,182691,1,8,0:0:0:0:
200,272,183033,1,0,0:0:0:0:
200,272,183376,1,0,0:0:0:0:
200,272,184062,1,8,0:0:0:0:
200,272,184748,1,8,0:0:0:0:
200,272,185433,1,8,0:0:0:0:
200,272,186119,1,0,0:0:0:0:
200,272,186633,1,0,0:0:0:0:
224,256,187148,1,8,0:0:0:0:
200,272,187491,1,8,0:0:0:0:
208,280,188519,1,0,0:0:0:0:
208,280,188862,1,0,0:0:0:0:
192,272,189548,1,8,0:0:0:0:
192,272,190233,1,0,0:0:0:0:
224,224,191262,1,0,0:0:0:0:
216,272,191948,1,0,0:0:0:0:
216,232,192291,1,8,0:0:0:0:
216,232,192976,1,0,0:0:0:0:
224,240,194005,1,8,0:0:0:0:
224,232,194691,1,0,0:0:0:0:
232,240,195033,1,8,0:0:0:0:
224,224,195719,1,0,0:0:0:0:
224,224,196748,1,8,0:0:0:0:
224,224,197433,1,8,0:0:0:0:
224,224,197776,1,8,0:0:0:0:
216,288,198119,1,0,0:0:0:0:
224,224,198462,1,0,0:0:0:0:
224,224,199148,1,8,0:0:0:0:
224,224,199833,1,8,0:0:0:0:
224,224,200348,1,8,0:0:0:0:
224,224,200862,1,8,0:0:0:0:
224,224,201205,1,4,0:0:0:0:
216,224,201891,1,0,0:0:0:0:
216,224,202233,1,8,0:0:0:0:
216,224,202405,1,8,0:0:0:0:
216,224,202919,1,0,0:0:0:0:
216,224,203262,1,8,0:0:0:0:
203,215,203605,1,0,0:0:0:0:
208,224,203776,1,0,0:0:0:0:
208,224,203948,1,0,0:0:0:0:
208,224,204633,1,0,0:0:0:0:
208,224,204976,1,0,0:0:0:0:
208,224,205319,1,8,0:0:0:0:
192,240,205662,1,0,0:0:0:0:
192,240,206005,1,8,0:0:0:0:
192,240,206348,1,0,0:0:0:0:
192,240,206691,1,8,0:0:0:0:
200,240,207376,1,8,0:0:0:0:
200,240,207719,1,0,0:0:0:0:
200,240,208062,1,8,0:0:0:0:
176,264,208405,1,0,0:0:0:0:
176,264,208576,1,8,0:0:0:0:
200,240,209091,1,8,0:0:0:0:
200,240,209433,1,0,0:0:0:0:
120,208,209776,1,0,0:0:0:0:
184,232,209948,1,0,0:0:0:0:
184,232,210462,1,8,0:0:0:0:
208,248,210805,1,0,0:0:0:0:
200,240,211148,1,0,0:0:0:0:
200,240,211491,1,8,0:0:0:0:
223,199,211662,1,8,0:0:0:0:
200,240,211833,1,8,0:0:0:0:
200,240,212176,1,4,0:0:0:0:
184,256,212862,1,0,0:0:0:0:
184,256,213205,1,0,0:0:0:0:
176,248,213376,1,8,0:0:0:0:
176,248,213891,1,0,0:0:0:0:
184,256,214233,1,8,0:0:0:0:
184,256,214748,1,0,0:0:0:0:
184,256,214919,1,0,0:0:0:0:
176,248,215262,1,8,0:0:0:0:
176,248,215605,1,0,0:0:0:0:
176,248,215948,1,8,0:0:0:0:
176,248,216633,1,8,0:0:0:0:
176,248,216976,1,0,0:0:0:0:
200,256,217319,1,8,0:0:0:0:
176,256,217662,1,12,0:0:0:0:
192,248,218348,1,0,0:0:0:0:
208,272,218691,1,8,0:0:0:0:
192,256,219033,1,0,0:0:0:0:
160,232,219376,1,0,0:0:0:0:
192,256,219548,1,8,0:0:0:0:
192,256,220062,1,8,0:0:0:0:
192,256,220405,1,0,0:0:0:0:
192,256,220576,1,0,0:0:0:0:
192,256,220748,1,0,0:0:0:0:
192,256,221433,1,0,0:0:0:0:
192,256,221776,1,8,0:0:0:0:
208,272,222119,1,0,0:0:0:0:
183,231,222291,1,0,0:0:0:0:
183,231,222462,1,0,0:0:0:0:
200,224,222805,1,8,0:0:0:0:
192,256,223148,1,4,0:0:0:0:
184,272,223833,1,8,0:0:0:0:
184,272,224176,1,0,0:0:0:0:
184,272,224519,1,8,0:0:0:0:
184,272,224862,1,0,0:0:0:0:
184,272,225205,1,8,0:0:0:0:
184,272,225719,1,0,0:0:0:0:
184,272,225891,1,0,0:0:0:0:
176,280,226233,1,0,0:0:0:0:
184,280,226576,1,8,0:0:0:0:
176,280,226919,1,0,0:0:0:0:
184,280,227262,1,0,0:0:0:0:
184,280,227776,1,8,0:0:0:0:
184,280,228291,1,8,0:0:0:0:
176,280,228633,1,4,0:0:0:0:
192,264,229319,1,8,0:0:0:0:
192,264,229662,1,0,0:0:0:0:
192,264,230005,1,8,0:0:0:0:
192,264,230348,1,0,0:0:0:0:
192,264,230691,1,8,0:0:0:0:
224,240,231205,1,0,0:0:0:0:
224,240,231376,1,0,0:0:0:0:
224,240,231719,1,0,0:0:0:0:
224,240,232062,1,8,0:0:0:0:
224,240,232405,1,0,0:0:0:0:
224,240,232748,1,0,0:0:0:0:
224,240,233091,1,0,0:0:0:0:
224,240,233262,1,0,0:0:0:0:
224,240,233776,1,8,0:0:0:0:
192,256,234119,1,12,0:0:0:0:
184,272,234804,1,8,0:0:0:0:
184,272,235147,1,0,0:0:0:0:
184,272,235490,1,8,0:0:0:0:
184,272,235833,1,0,0:0:0:0:
184,272,236176,1,8,0:0:0:0:
184,272,236690,1,0,0:0:0:0:
184,272,236862,1,0,0:0:0:0:
176,280,237204,1,0,0:0:0:0:
184,280,237547,1,8,0:0:0:0:
176,280,237890,1,0,0:0:0:0:
184,280,238233,1,8,0:0:0:0:
184,280,238747,1,8,0:0:0:0:
184,280,239262,1,8,0:0:0:0:
176,280,239604,1,4,0:0:0:0:
192,264,240291,1,8,0:0:0:0:
208,240,240633,1,0,0:0:0:0:
192,264,240976,1,8,0:0:0:0:
216,264,241319,1,0,0:0:0:0:
208,240,241662,1,8,0:0:0:0:
216,264,242005,1,8,0:0:0:0:
216,264,242348,1,8,0:0:0:0:
216,264,243033,1,8,0:0:0:0:
240,280,243719,1,8,0:0:0:0:
216,264,244062,1,0,0:0:0:0:
216,264,244405,1,8,0:0:0:0:
216,264,244748,1,8,0:0:0:0:
216,264,245091,1,4,0:0:0:0:
200,256,245776,1,0,0:0:0:0:
200,256,246119,1,0,0:0:0:0:
200,256,246462,1,8,0:0:0:0:
200,256,246805,1,8,0:0:0:0:
200,256,247148,1,0,0:0:0:0:
192,264,247491,1,8,0:0:0:0:
192,280,248176,1,0,0:0:0:0:
184,288,248519,1,0,0:0:0:0:
184,288,248862,1,8,0:0:0:0:
184,288,249205,1,0,0:0:0:0:
184,288,249548,1,8,0:0:0:0:
184,288,249891,1,12,0:0:0:0:
184,288,250576,1,0,0:0:0:0:
184,288,250919,1,0,0:0:0:0:
184,288,251262,1,8,0:0:0:0:
184,288,251605,1,8,0:0:0:0:
184,288,251948,1,0,0:0:0:0:
184,288,252291,1,8,0:0:0:0:
184,280,252976,1,0,0:0:0:0:
184,280,253319,1,0,0:0:0:0:
184,280,253662,1,8,0:0:0:0:
184,280,254005,1,8,0:0:0:0:
184,280,254176,1,8,0:0:0:0:
184,280,254348,1,8,0:0:0:0:
184,280,254691,1,4,0:0:0:0:
192,280,255376,1,0,0:0:0:0:
184,280,255719,1,0,0:0:0:0:
192,280,256062,1,8,0:0:0:0:
184,280,256405,1,8,0:0:0:0:
192,280,256748,1,0,0:0:0:0:
192,280,257091,1,8,0:0:0:0:
192,280,257776,1,0,0:0:0:0:
192,280,258119,1,0,0:0:0:0:
192,280,258462,1,8,0:0:0:0:
192,280,258805,1,0,0:0:0:0:
192,280,259148,1,8,0:0:0:0:
192,280,259491,1,0,0:0:0:0:
216,296,260005,1,0,0:0:0:0:
192,280,260519,1,8,0:0:0:0:
204,166,261033,1,8,0:0:0:0:
192,280,261548,1,0,0:0:0:0:
216,296,262062,1,8,0:0:0:0:
192,280,262576,1,0,0:0:0:0:
192,280,263091,1,8,0:0:0:0:
208,304,263433,1,0,0:0:0:0:
192,280,263776,1,8,0:0:0:0:
