osu file format v14

[General]
AudioFilename: audio.mp3
AudioLeadIn: 0
PreviewTime: 87787
Countdown: 0
SampleSet: Soft
StackLeniency: 0.3
Mode: 0
LetterboxInBreaks: 0
WidescreenStoryboard: 1

[Editor]
Bookmarks: 14107,38428,55901,65672,66872,77844,110757
DistanceSpacing: 1
BeatDivisor: 8
GridSize: 32
TimelineZoom: 1.4

[Metadata]
Title:Kyoumen no Nami [Orchestra Ver.]
TitleUnicode:鏡面の波 [Orchestra Ver.]
Artist:YURiKA
ArtistUnicode:YURiKA
Creator:b00
Version:Hard
Source:宝石の国
Tags:houseki no kuni land of the lustrous country of jewels fujisawa yoshiaki diamond Waves in the Mirror
BeatmapID:1823453
BeatmapSetID:871880

[Difficulty]
HPDrainRate:5
CircleSize:4.5
OverallDifficulty:6.5
ApproachRate:7.8
SliderMultiplier:2
SliderTickRate:1

[Events]
//Background and Video events
0,0,"cinnabar.jpg",0,0
//Break Periods
//Storyboard Layer 0 (Background)
//Storyboard Layer 1 (Fail)
//Storyboard Layer 2 (Pass)
//Storyboard Layer 3 (Foreground)
//Storyboard Sound Samples

[TimingPoints]
362,681.818181818182,4,2,1,24,1,0
362,-200,4,2,1,24,0,0
1043,685.714285714286,4,2,1,24,1,0
1728,684.150513112885,4,2,1,24,1,0
1728,-333.333333333333,4,2,1,24,0,0
3438,-333.333333333333,4,2,1,5,0,0
3780,688.073394495413,4,2,1,24,1,0
3780,-250,4,2,1,24,0,0
5500,-250,4,2,1,5,0,0
5844,677.966101694915,4,2,1,24,1,0
5844,-333.333333333333,4,2,1,24,0,0
7538,-333.333333333333,4,2,1,5,0,0
7877,678.733031674208,4,2,1,24,1,0
7877,-333.333333333333,4,2,1,24,0,0
8895,-333.333333333333,4,2,1,5,0,0
9234,736.196319018405,4,2,1,24,1,0
9970,1034.48275862069,4,2,1,24,1,0
9970,-500,4,2,1,24,0,0
13590,-454.545454545455,4,2,1,5,0,0
16812,685.714285714286,4,2,1,24,1,0
18183,-333.333333333333,4,2,1,24,0,0
19897,-333.333333333333,4,2,1,5,0,0
20240,681.818181818182,4,2,1,28,1,0
20240,-333.333333333333,4,2,1,28,0,0
21944,-333.333333333333,4,2,1,5,0,0
22285,683.371298405467,4,2,1,30,1,0
22285,-250,4,2,1,30,0,0
23993,-250,4,2,1,5,0,0
24335,697.674418604651,4,2,1,32,1,0
24335,-250,4,2,1,32,0,0
26079,-100,4,2,1,5,0,0
26428,685.714285714286,6,2,1,30,1,0
26428,-200,6,2,1,30,0,0
34656,-181.818181818182,6,2,1,30,0,0
42885,681.818181818182,6,2,1,46,1,0
44930,685.714285714286,4,2,1,25,1,0
44930,-166.666666666667,4,2,1,25,0,0
64644,-125,4,2,1,25,0,0
65158,-166.666666666667,4,2,1,25,0,0
65672,-125,4,2,1,25,0,0
66872,-142.857142857143,4,2,1,25,0,0
72358,-166.666666666667,4,2,1,25,0,0
88815,685.714285714286,4,2,1,70,1,1
88815,-62.5,4,2,1,70,0,1
110757,-200,4,2,1,40,0,0

[Colours]
Combo1 : 252,125,103
Combo2 : 170,255,255
Combo3 : 130,215,255
Combo4 : 129,254,179
Combo5 : 174,174,255

[HitObjects]
180,229,362,5,0,0:0:0:0:
221,297,1043,1,0,0:0:0:0:
265,183,1728,2,0,P|210:135|137:142,1,150
68,291,3780,2,0,B|99:227|69:199|63:194|61:190|32:136|65:98,1,200
179,230,5844,2,0,B|213:262|245:270|245:270|275:265|315:241,1,149.999995422363
356,95,7877,2,0,L|364:184,1,89.9999972534181
374,301,9234,1,0,0:0:0:0:
374,301,9970,6,0,P|435:281|472:217,1,140
356,95,14107,2,0,P|351:127|380:175,1,88.0000026855469
138,314,16812,5,0,0:0:0:0:
160,240,17497,1,0,0:0:0:0:
195,373,18183,2,0,P|230:373|215:291,1,149.999995422363
128,191,20240,2,0,P|143:254|217:291,1,149.999995422363
212,74,22285,2,0,B|245:129|207:208|207:208|211:172|195:150,1,200
27,93,24335,2,0,B|76:107|118:63|118:63|168:96|211:73,1,200
344,325,26428,6,0,P|321:298|314:255,1,75
323,180,27113,1,0,0:0:0:0:
146,328,27799,2,0,L|142:356,2,25
165,254,28485,6,0,P|213:245|244:257,1,75
261,329,29170,1,0,0:0:0:0:
142,179,29856,2,0,L|113:185,2,25
252,168,30542,6,0,P|294:183|333:177,1,75
385,127,31228,2,0,L|388:102,2,25
317,259,31913,2,0,L|320:283,2,25
252,168,32599,2,0,P|253:141|246:112,2,50
242,191,33456,1,0,0:0:0:0:
223,207,33628,1,0,0:0:0:0:
91,196,33970,2,0,P|76:193|61:188,2,25
308,334,34656,6,0,P|316:307|318:274,1,55.0000016784668
322,187,35170,1,0,0:0:0:0:
322,187,35342,2,0,P|323:158|348:104,1,82.5000025177003
452,68,36028,2,0,P|465:72|477:78,2,27.5000008392334
150,183,36713,5,0,0:0:0:0:
150,183,36885,2,0,P|119:182|87:188,1,55.0000016784668
57,272,37399,2,0,P|46:296|56:351,1,82.5000025177003
155,354,38085,2,0,P|175:351|189:344,2,27.5000008392334
118,110,38770,6,0,P|115:90|126:49,1,55.0000016784668
199,57,39285,1,0,0:0:0:0:
239,128,39456,1,0,0:0:0:0:
239,128,39628,2,0,P|254:127|270:120,2,27.5000008392334
186,187,40142,2,0,P|171:186|155:179,2,27.5000008392334
230,254,40656,2,0,P|251:231|261:200,2,55.0000016784668
171,307,41513,2,0,P|148:307|97:265,1,82.5000025177003
69,205,42199,2,0,P|64:187|63:171,2,27.5000008392334
101,273,42713,1,0,0:0:0:0:
173,113,42885,5,0,0:0:0:0:
173,113,44930,2,0,P|253:132|247:215,2,179.999994506836
174,230,47330,2,0,P|181:256|187:265,1,29.9999990844727
251,321,47672,6,0,P|318:290|424:325,2,179.999994506836
251,321,50072,2,0,P|249:306|250:291,1,29.9999990844727
285,192,50415,6,0,P|308:195|397:79,2,179.999994506836
275,98,52815,2,0,P|290:96|305:98,1,29.9999990844727
259,276,53158,6,0,L|244:88,1,179.999994506836
163,316,54530,2,0,P|185:289|185:256,1,59.9999981689454
136,151,55044,2,0,P|116:172|111:202,1,59.9999981689454
259,276,55558,1,0,0:0:0:0:
417,81,55901,6,0,B|351:123|308:46|237:101,2,179.999994506836
284,194,58301,2,0,P|291:181|295:167,1,29.9999990844727
192,178,58644,6,0,P|205:253|303:289,1,179.999994506836
358,227,59844,2,0,P|336:249|342:336,1,119.999996337891
376,153,61044,2,0,P|362:151|346:153,1,29.9999990844727
221,42,61387,6,0,P|253:87|191:178,1,179.999994506836
97,59,62587,1,0,0:0:0:0:
97,59,62758,2,0,P|112:113|101:187,1,119.999996337891
45,246,63615,2,0,P|66:232|103:227,1,59.9999981689454
230,239,64130,6,0,P|250:237|272:229,2,29.9999990844727
151,290,64644,2,0,P|180:317|199:357,1,80
315,291,65158,2,0,P|329:294|344:295,1,29.9999990844727
392,229,65501,1,0,0:0:0:0:
301,124,65672,2,0,P|319:159|323:203,1,80
202,142,66187,2,0,P|192:104|198:64,1,80
269,28,66701,1,0,0:0:0:0:
269,28,66872,6,0,P|298:46|402:28,1,139.999995727539
397,32,67901,2,0,P|397:51|401:82,1,34.9999989318848
437,137,68244,1,0,0:0:0:0:
124,50,68930,1,0,0:0:0:0:
124,50,69272,2,0,P|122:92|120:98,1,34.9999989318848
76,181,69615,6,0,P|107:162|155:155,1,69.9999978637696
211,206,70301,2,0,P|218:241|208:289,1,69.9999978637696
108,310,70987,2,0,P|86:301|69:286,2,34.9999989318848
312,274,71672,2,0,P|333:282|350:297,2,34.9999989318848
196,87,72358,6,0,P|195:112|212:211,1,119.999996337891
