osu file format v14

[General]
AudioFilename: audio.mp3
AudioLeadIn: 0
PreviewTime: 44760
Countdown: 0
SampleSet: Soft
StackLeniency: 0.2
Mode: 0
LetterboxInBreaks: 0
WidescreenStoryboard: 1

[Editor]
Bookmarks: 17497,18183,26428,40828,53116,54650,55162,55844,81615,122072
DistanceSpacing: 1.3
BeatDivisor: 2
GridSize: 32
TimelineZoom: 1.2

[Metadata]
Title:Kyoumen no Nami [Orchestra Ver.]
TitleUnicode:鏡面の波 [Orchestra Ver.]
Artist:YURiKA
ArtistUnicode:YURiKA
Creator:Smokeman
Version:normal
Source:宝石の国
Tags:houseki no kuni land of the lustrous country of jewels fujisawa yoshiaki diamond lowaccuracyss Waves in the Mirror
BeatmapID:1705562
BeatmapSetID:764481

[Difficulty]
HPDrainRate:4
CircleSize:4
OverallDifficulty:4
ApproachRate:5
SliderMultiplier:1.9
SliderTickRate:1

[Events]
//Background and Video events
0,0,"Houseki Orchestral BG.png",0,0
//Break Periods
//Storyboard Layer 0 (Background)
//Storyboard Layer 1 (Fail)
//Storyboard Layer 2 (Pass)
//Storyboard Layer 3 (Foreground)
Sprite,Foreground,Centre,"sb\hl.png",0,0 S,0,87787,,0.929896 C,0,87787,,255,128,128 M,0,87787,87872,320,312,310.6205,298.2908 F,2,87787,89472,1,0 P,0,87787,89472,A M,0,87872,87958,310.6205,298.2908,303.2311,283.4153 M,0,87958,88044,303.2311,283.4153,297.9744,267.6605 M,0,88044,88129,297.9744,267.6605,294.9512,251.3302 M,0,88129,88215,294.9512,251.3302,294.2196,234.7396 M,0,88215,88301,294.2196,234.7396,295.7936,218.2086 M,0,88301,88387,295.7936,218.2086,299.6425,202.056 M,0,88387,88472,299.6425,202.056,305.6651,186.5786
Sprite,Foreground,Centre,"sb\hl.png",0,0 S,0,88815,,0.929896 C,0,88815,,255,191,128 M,0,88815,88900,372,109,353.4395,84.52686 F,2,88815,90843,1,0 P,0,88815,90843,A M,0,88900,88986,353.4395,84.52686,328.7456,66.33241 M,0,88986,89072,328.7456,66.33241,299.7989,56.15694 M,0,89072,89157,299.7989,56.15694,269.1261,54.89712 M,0,89157,89243,269.1261,54.89712,239.4075,62.67402 M,0,89243,89329,239.4075,62.67402,213.2444,78.82158 M,0,89329,89415,213.2444,78.82158,193.2632,102.1462 M,0,89415,89500,193.2632,102.1462,180.7385,130.1435 M,0,89500,89586,180.7385,130.1435,176.9534,160.5894 M,0,89586,89672,176.9534,160.5894,182.246,190.8242 M,0,89672,89757,182.246,190.8242,196.1637,218.2039 M,0,89757,89843,196.1637,218.2039,217,240
Sprite,Foreground,Centre,"sb\hl.png",0,0 S,0,90186,,0.929896 C,0,90186,,255,255,128 M,0,90186,90271,306,187,324.0911,214.6626 F,2,90186,91871,1,0 P,0,90186,91871,A M,0,90271,90357,324.0911,214.6626,334.1087,243.599 M,0,90357,90443,334.1087,243.599,323.7072,274.8658 M,0,90443,90528,323.7072,274.8658,327.1901,307.2184 M,0,90528,90614,327.1901,307.2184,303.8281,330.63 M,0,90614,90700,303.8281,330.63,287.8666,359.5905 M,0,90700,90786,287.8666,359.5905,257.2996,371.646 M,0,90786,90871,257.2996,371.646,234.2477,394.5273
Sprite,Foreground,Centre,"sb\hl.png",0,0 S,0,91557,,0.929896 C,0,91557,,191,255,128 M,0,91557,91642,118,278,146.208,275.0309 F,2,91557,92899,1,0 P,0,91557,92899,A M,0,91642,91728,146.208,275.0309,173.5574,282.6103 M,0,91728,91814,173.5574,282.6103,201.0413,289.661 M,0,91814,91899,201.0413,289.661,229.3152,287.0392
Sprite,Foreground,Centre,"sb\hl.png",0,0 S,0,92243,,0.929896 C,0,92243,,128,255,255 M,0,92243,92328,352,187,341.9171,160.6159 F,2,92243,93928,1,0 P,0,92243,93928,A M,0,92328,92414,341.9171,160.6159,323.0568,139.5696 M,0,92414,92500,323.0568,139.5696,297.3839,127.8085 M,0,92500,92585,297.3839,127.8085,269.1902,126.0344 M,0,92585,92671,269.1902,126.0344,242.6367,135.6252 M,0,92671,92757,242.6367,135.6252,221.3034,154.127 M,0,92757,92843,221.3034,154.127,209.0766,179.5682 M,0,92843,92928,209.0766,179.5682,206.8467,207.7087
Sprite,Foreground,Centre,"sb\hl.png",284,362 S,0,93615,,0.929896 C,0,93615,,128,191,255 F,2,93615,94615,1,0 P,0,93615,94615,A
Sprite,Foreground,Centre,"sb\hl.png",0,0 S,0,94300,,0.929896 C,0,94300,,255,128,255 M,0,94300,94385,491,312,462.6952,315.33 F,2,94300,95814,1,0 P,0,94300,95814,A M,0,94385,94471,462.6952,315.33,434.3904,318.6599 M,0,94471,94557,434.3904,318.6599,406.0856,321.9899 M,0,94557,94642,406.0856,321.9899,434.3904,318.6599 M,0,94642,94728,434.3904,318.6599,462.6952,315.33 M,0,94728,94814,462.6952,315.33,491,312
Sprite,Foreground,Centre,"sb\hl.png",0,0 S,0,94986,,0.929896 C,0,94986,,255,128,128 M,0,94986,95071,425,227,396.7357,223.3423 F,2,94986,96500,1,0 P,0,94986,96500,A M,0,95071,95157,396.7357,223.3423,368.4714,219.6845 M,0,95157,95243,368.4714,219.6845,340.2071,216.0268 M,0,95243,95328,340.2071,216.0268,368.4714,219.6845 M,0,95328,95414,368.4714,219.6845,396.7357,223.3423 M,0,95414,95500,396.7357,223.3423,425,227
Sprite,Foreground,Centre,"sb\hl.png",0,0 S,0,95672,,0.929896 C,0,95672,,255,191,128 M,0,95672,95757,492,147,487.3647,118.9449 F,2,95672,97186,1,0 P,0,95672,97186,A M,0,95757,95843,487.3647,118.9449,488.3648,90.5454 M,0,95843,95929,488.3648,90.5454,494.7334,62.83543 M,0,95929,96014,494.7334,62.83543,488.3648,90.54541 M,0,96014,96100,488.3648,90.54541,487.3647,118.945 M,0,96100,96186,487.3647,118.945,492,147
Sprite,Foreground,Centre,"sb\hl.png",0,0 S,0,96357,,0.929896 C,0,96357,,255,255,128 M,0,96357,96442,412,150,387.1215,136.1557 F,2,96357,97699,1,0 P,0,96357,97699,A M,0,96442,96528,387.1215,136.1557,360.6766,125.6279 M,0,96528,96614,360.6766,125.6279,333.1114,118.5367 M,0,96614,96699,333.1114,118.5367,304.8437,115.1168
Sprite,Foreground,Centre,"sb\hl.png",0,0 S,0,97043,,0.929896 C,0,97043,,191,255,128 M,0,97043,97128,245,217,218.594,227.6755 F,2,97043,98557,1,0 P,0,97043,98557,A M,0,97128,97214,218.594,227.6755,191.2832,235.7613 M,0,97214,97300,191.2832,235.7613,163.2629,240.8655 M,0,97300,97385,163.2629,240.8655,134.8803,243.233 M,0,97385,97471,134.8803,243.233,106.4078,242.5546 M,0,97471,97557,106.4078,242.5546,78.13242,239.1315
Sprite,Foreground,Centre,"sb\hl.png",64,360 S,0,98072,,0.929896 C,0,98072,,128,255,255 F,2,98072,99072,1,0 P,0,98072,99072,A
Sprite,Foreground,Centre,"sb\hl.png",0,0 S,0,98415,,0.929896 C,0,98415,,128,191,255 M,0,98415,98500,138,411,155.6535,388.7235 F,2,98415,100100,1,0 P,0,98415,100100,A M,0,98500,98586,155.6535,388.7235,177.5482,370.6309 M,0,98586,98672,177.5482,370.6309,202.6957,357.4324 M,0,98672,98757,202.6957,357.4324,230.1291,350.0624 M,0,98757,98843,230.1291,350.0624,258.4901,348.4434 M,0,98843,98929,258.4901,348.4434,286.5112,353.1292 M,0,98929,99015,286.5112,353.1292,313.0109,363.3855 M,0,99015,99100,313.0109,363.3855,336.5613,379.2852
Sprite,Foreground,Centre,"sb\hl.png",0,0 S,0,99786,,0.929896 C,0,99786,,255,128,255 M,0,99786,99871,487,349,500.1113,321.1548 F,2,99786,101814,1,0 P,0,99786,101814,A M,0,99871,99957,500.1113,321.1548,504.3634,290.7124 M,0,99957,100043,504.3634,290.7124,498.1104,260.6454 M,0,100043,100128,498.1104,260.6454,481.6584,234.7147 M,0,100128,100214,481.6584,234.7147,457.369,215.8822 M,0,100214,100300,457.369,215.8822,428.493,205.2464 M,0,100300,100386,428.493,205.2464,410.39,182.8462 M,0,100386,100471,410.39,182.8462,409.6559,152.4455 M,0,100471,100557,409.6559,152.4455,427.241,127.7551 M,0,100557,100643,427.241,127.7551,456.206,118.6783 M,0,100643,100728,456.206,118.6783,484.5059,129.3304 M,0,100728,100814,484.5059,129.3304,498.837,155.9881
Sprite,Foreground,Centre,"sb\hl.png",0,0 S,0,101157,,0.929896 C,0,101157,,255,128,128 M,0,101157,101242,414,298,385.8175,313.8169 F,2,101157,102842,1,0 P,0,101157,102842,A M,0,101242,101328,385.8175,313.8169,355.1498,302.596 M,0,101328,101414,355.1498,302.596,323.1874,306.9842 M,0,101414,101499,323.1874,306.9842,293.6631,297.5859 M,0,101499,101585,293.6631,297.5859,262.8247,288.2284 M,0,101585,101671,262.8247,288.2284,235.2823,272.4531 M,0,101671,101757,235.2823,272.4531,205.3316,260.6189 M,0,101757,101842,205.3316,260.6189,183.946,236.7086
Sprite,Foreground,Centre,"sb\hl.png",232,58 S,0,102529,,0.929896 C,0,102529,,255,191,128 F,2,102529,103529,1,0 P,0,102529,103529,A
Sprite,Foreground,Centre,"sb\hl.png",0,0 S,0,102872,,0.929896 C,0,102872,,255,255,128 M,0,102872,102957,320,167,292.6481,174.75 F,2,102872,104557,1,0 P,0,102872,104557,A M,0,102957,103043,292.6481,174.75,264.2351,175.4846 M,0,103043,103129,264.2351,175.4846,236.6228,168.8072 M,0,103129,103214,236.6228,168.8072,211.8518,154.8605 M,0,103214,103300,211.8518,154.8605,187.4821,140.2087 M,0,103300,103386,187.4821,140.2087,159.9537,133.2173 M,0,103386,103472,159.9537,133.2173,131.5215,133.3685 M,0,103472,103557,131.5215,133.3685,104.1182,140.7984
Sprite,Foreground,Centre,"sb\hl.png",0,0 S,0,103900,,0.929896 C,0,103900,,191,255,128 M,0,103900,103985,79,290,60.54093,268.5055 F,2,103900,105128,1,0 P,0,103900,105128,A M,0,103985,104071,60.54093,268.5055,49.15407,242.5545 M,0,104071,104128,49.15407,242.5545,46.63972,223.7907
Sprite,Foreground,Centre,"sb\hl.png",184,262 S,0,104415,,0.929896 C,0,104415,,128,255,255 F,2,104415,105415,1,0 P,0,104415,105415,A
Sprite,Foreground,Centre,"sb\hl.png",0,0 S,0,104586,,0.929896 C,0,104586,,128,191,255 M,0,104586,104671,133,345,131.1519,375.0225 F,2,104586,106271,1,0 P,0,104586,106271,A M,0,104671,104757,131.1519,375.0225,148.4019,400.1023 M,0,104757,104843,148.4019,400.1023,176.1492,412.8735 M,0,104843,104928,176.1492,412.8735,206.5722,410.519 M,0,104928,105014,206.5722,410.519,233.1167,394.9234 M,0,105014,105100,233.1167,394.9234,261.1028,382.1609 M,0,105100,105186,261.1028,382.1609,291.5912,377.9958 M,0,105186,105271,291.5912,377.9958,321.959,382.8411
Sprite,Foreground,Centre,"sb\hl.png",0,0 S,0,105529,,0.929896 C,0,105529,,255,128,255 M,0,105529,105614,425,410,453.3521,412.8997 F,2,105529,106786,1,0 P,0,105529,106786,A M,0,105614,105700,453.3521,412.8997,481.7042,415.7993 M,0,105700,105786,481.7042,415.7993,510.0563,418.6989
Sprite,Foreground,Centre,"sb\hl.png",576,376 S,0,105958,,0.929896 C,0,105958,,255,128,128 F,2,105958,106958,1,0 P,0,105958,106958,A
Sprite,Foreground,Centre,"sb\hl.png",0,0 S,0,106215,,0.929896 C,0,106215,,255,191,128 M,0,106215,106300,529,274,500.6479,276.8997 F,2,106215,107472,1,0 P,0,106215,107472,A M,0,106300,106386,500.6479,276.8997,472.2958,279.7993 M,0,106386,106472,472.2958,279.7993,443.9437,282.6989
Sprite,Foreground,Centre,"sb\hl.png",0,0 S,0,106643,,0.929896 C,0,106643,,255,255,128 M,0,106643,106728,380,320,353.1132,310.6031 F,2,106643,107985,1,0 P,0,106643,107985,A M,0,106728,106814,353.1132,310.6031,325.4087,304.0164 M,0,106814,106900,325.4087,304.0164,297.1801,300.2701 M,0,106900,106985,297.1801,300.2701,268.7107,299.5912
Sprite,Foreground,Centre,"sb\hl.png",198,274 S,0,107157,,0.929896 C,0,107157,,191,255,128 F,2,107157,108157,1,0 P,0,107157,108157,A
Sprite,Foreground,Centre,"sb\hl.png",0,0 S,0,107329,,0.929896 C,0,107329,,128,255,255 M,0,107329,107414,234,209,260.8868,199.6031 F,2,107329,108671,1,0 P,0,107329,108671,A M,0,107414,107500,260.8868,199.6031,288.5913,193.0164 M,0,107500,107586,288.5913,193.0164,316.8199,189.2701 M,0,107586,107671,316.8199,189.2701,345.2893,188.5912
Sprite,Foreground,Centre,"sb\hl.png",0,0 S,0,108015,,0.929896 C,0,108015,,128,191,255 M,0,108015,108100,511,160,521.5483,133.5745 F,2,108015,109357,1,0 P,0,108015,109357,A M,0,108100,108186,521.5483,133.5745,527.4756,105.7593 M,0,108186,108272,527.4756,105.7593,521.5483,133.5745 M,0,108272,108357,521.5483,133.5745,511,160
Sprite,Foreground,Centre,"sb\hl.png",0,0 S,0,108529,,0.929896 C,0,108529,,255,128,255 M,0,108529,108614,451,222,441.433,195.1873 F,2,108529,109871,1,0 P,0,108529,109871,A M,0,108614,108700,441.433,195.1873,428.3621,169.9063 M,0,108700,108786,428.3621,169.9063,412.0456,146.5903 M,0,108786,108871,412.0456,146.5903,392.7133,125.6887
Sprite,Foreground,Centre,"sb\hl.png",320,107 S,0,109043,,0.929896 C,0,109043,,255,128,128 F,2,109043,110043,1,0 P,0,109043,110043,A
Sprite,Foreground,Centre,"sb\hl.png",0,0 S,0,109386,,0.929896 C,0,109386,,255,191,128 M,0,109386,109471,188,182,165.226,165.6522 F,2,109386,110728,1,0 P,0,109386,110728,A M,0,109471,109557,165.226,165.6522,153.6145,140.2718 M,0,109557,109643,153.6145,140.2718,155.9632,112.4798 M,0,109643,109728,155.9632,112.4798,172.39,89.89633
Sprite,Foreground,Centre,"sb\hl.png",0,0 S,0,109900,,0.929896 C,0,109900,,255,255,128 M,0,109900,109985,275,180,291.4988,202.8656 F,2,109900,111585,1,0 P,0,109900,111585,A M,0,109985,110071,291.4988,202.8656,297.3354,230.3728 M,0,110071,110157,297.3354,230.3728,291.576,257.8675 M,0,110157,110242,291.576,257.8675,274.7873,280.4258 M,0,110242,110328,274.7873,280.4258,250.3476,294.2777 M,0,110328,110414,250.3476,294.2777,222.3217,296.584 M,0,110414,110500,222.3217,296.584,195.7722,287.3998 M,0,110500,110585,195.7722,287.3998,175.1213,268.1583
Sprite,Foreground,Centre,"sb\hl.png",179,171 S,0,110757,,0.929896 C,0,110757,,191,255,128 F,2,110757,111757,1,0 P,0,110757,111757,A
Sprite,Foreground,Centre,"sb\ring.png",317,431 F,2,362,862,0.2,0 S,0,362,862,0.2,0.4
Sprite,Foreground,Centre,"sb\ring.png",300,309 F,2,1728,2228,0.2,0 S,0,1728,2228,0.2,0.4
Sprite,Foreground,Centre,"sb\ring.png",343,371 F,2,5844,6344,0.2,0 S,0,5844,6344,0.2,0.4
Sprite,Foreground,Centre,"sb\ring.png",491,416 F,2,9234,9734,0.2,0 S,0,9234,9734,0.2,0.4
Sprite,Foreground,Centre,"sb\ring.png",384,302 F,2,9970,10470,0.2,0 S,0,9970,10470,0.2,0.4
Sprite,Foreground,Centre,"sb\ring.png",553,377 F,2,14107,14607,0.2,0 S,0,14107,14607,0.2,0.4
Sprite,Foreground,Centre,"sb\ring.png",320,408 F,2,16812,17312,0.2,0 S,0,16812,17312,0.2,0.4
Sprite,Foreground,Centre,"sb\ring.png",337,286 F,2,18183,18683,0.2,0 S,0,18183,18683,0.2,0.4
Sprite,Foreground,Centre,"sb\ring.png",372,365 F,2,22285,22785,0.2,0 S,0,22285,22785,0.2,0.4
Sprite,Foreground,Centre,"sb\ring.png",194,273 F,2,24335,24835,0.2,0 S,0,24335,24835,0.2,0.4
Sprite,Foreground,Centre,"sb\ring.png",205,387 F,2,26428,26928,0.2,0 S,0,26428,26928,0.2,0.4
Sprite,Foreground,Centre,"sb\ring.png",324,363 F,2,28485,28985,0.2,0 S,0,28485,28985,0.2,0.4
Sprite,Foreground,Centre,"sb\ring.png",181,308 F,2,30542,31042,0.2,0 S,0,30542,31042,0.2,0.4
Sprite,Foreground,Centre,"sb\ring.png",319,280 F,2,32599,33099,0.2,0 S,0,32599,33099,0.2,0.4
Sprite,Foreground,Centre,"sb\ring.png",388,389 F,2,34656,35156,0.2,0 S,0,34656,35156,0.2,0.4
Sprite,Foreground,Centre,"sb\ring.png",540,377 F,2,36028,36528,0.2,0 S,0,36028,36528,0.2,0.4
Sprite,Foreground,Centre,"sb\ring.png",471,266 F,2,36713,37213,0.2,0 S,0,36713,37213,0.2,0.4
Sprite,Foreground,Centre,"sb\ring.png",319,280 F,2,38085,38585,0.2,0 S,0,38085,38585,0.2,0.4
Sprite,Foreground,Centre,"sb\ring.png",206,333 F,2,38770,39270,0.2,0 S,0,38770,39270,0.2,0.4
Sprite,Foreground,Centre,"sb\ring.png",244,187 F,2,40142,40642,0.2,0 S,0,40142,40642,0.2,0.4
Sprite,Foreground,Centre,"sb\ring.png",302,324 F,2,40828,41328,0.2,0 S,0,40828,41328,0.2,0.4
Sprite,Foreground,Centre,"sb\ring.png",437,148 F,2,42200,42700,0.2,0 S,0,42200,42700,0.2,0.4
Sprite,Foreground,Centre,"sb\ring.png",320,56 F,2,42885,43385,0.2,0 S,0,42885,43385,0.2,0.4
Sprite,Foreground,Centre,"sb\ring.png",96,248 F,2,44930,45430,0.2,0 S,0,44930,45430,0.2,0.4
Sprite,Foreground,Centre,"sb\ring.png",224,216 F,2,47672,48172,0.2,0 S,0,47672,48172,0.2,0.4
Sprite,Foreground,Centre,"sb\ring.png",192,312 F,2,50415,50915,0.2,0 S,0,50415,50915,0.2,0.4
Sprite,Foreground,Centre,"sb\ring.png",160,184 F,2,53158,53658,0.2,0 S,0,53158,53658,0.2,0.4
Sprite,Foreground,Centre,"sb\ring.png",288,248 F,2,54530,55030,0.2,0 S,0,54530,55030,0.2,0.4
Sprite,Foreground,Centre,"sb\ring.png",480,216 F,2,55558,56058,0.2,0 S,0,55558,56058,0.2,0.4
Sprite,Foreground,Centre,"sb\ring.png",544,248 F,2,55901,56401,0.2,0 S,0,55901,56401,0.2,0.4
Sprite,Foreground,Centre,"sb\ring.png",448,312 F,2,61387,61887,0.2,0 S,0,61387,61887,0.2,0.4
Sprite,Foreground,Centre,"sb\ring.png",480,184 F,2,64129,64629,0.2,0 S,0,64129,64629,0.2,0.4
Sprite,Foreground,Centre,"sb\ring.png",320,408 F,2,66872,67372,0.2,0 S,0,66872,67372,0.2,0.4
Sprite,Foreground,Centre,"sb\ring.png",119,323 F,2,68244,68744,0.2,0 S,0,68244,68744,0.2,0.4
Sprite,Foreground,Centre,"sb\ring.png",320,408 F,2,69615,70115,0.2,0 S,0,69615,70115,0.2,0.4
Sprite,Foreground,Centre,"sb\ring.png",521,323 F,2,70987,71487,0.2,0 S,0,70987,71487,0.2,0.4
Sprite,Foreground,Centre,"sb\ring.png",382,302 F,2,71672,72172,0.2,0 S,0,71672,72172,0.2,0.4
Sprite,Foreground,Centre,"sb\ring.png",220,387 F,2,72358,72858,0.2,0 S,0,72358,72858,0.2,0.4
Sprite,Foreground,Centre,"sb\ring.png",161,225 F,2,73730,74230,0.2,0 S,0,73730,74230,0.2,0.4
Sprite,Foreground,Centre,"sb\ring.png",322,432 F,2,75101,75601,0.2,0 S,0,75101,75601,0.2,0.4
Sprite,Foreground,Centre,"sb\ring.png",460,292 F,2,76472,76972,0.2,0 S,0,76472,76972,0.2,0.4
Sprite,Foreground,Centre,"sb\ring.png",537,340 F,2,77158,77658,0.2,0 S,0,77158,77658,0.2,0.4
Sprite,Foreground,Centre,"sb\ring.png",370,312 F,2,77844,78344,0.2,0 S,0,77844,78344,0.2,0.4
Sprite,Foreground,Centre,"sb\ring.png",156,363 F,2,79215,79715,0.2,0 S,0,79215,79715,0.2,0.4
Sprite,Foreground,Centre,"sb\ring.png",234,397 F,2,80587,81087,0.2,0 S,0,80587,81087,0.2,0.4
Sprite,Foreground,Centre,"sb\ring.png",480,252 F,2,81958,82458,0.2,0 S,0,81958,82458,0.2,0.4
Sprite,Foreground,Centre,"sb\ring.png",320,408 F,2,83330,83830,0.2,0 S,0,83330,83830,0.2,0.4
Sprite,Foreground,Centre,"sb\ring.png",368,336 F,2,84358,84858,0.2,0 S,0,84358,84858,0.2,0.4
Sprite,Foreground,Centre,"sb\ring.png",445,297 F,2,85387,85887,0.2,0 S,0,85387,85887,0.2,0.4
Sprite,Foreground,Centre,"sb\ring.png",540,149 F,2,86072,86572,0.2,0 S,0,86072,86572,0.2,0.4
Sprite,Foreground,Centre,"sb\ring.png",531,255 F,2,86415,86915,0.2,0 S,0,86415,86915,0.2,0.4
Sprite,Foreground,Centre,"sb\ring.png",522,361 F,2,86758,87258,0.2,0 S,0,86758,87258,0.2,0.4
Sprite,Foreground,Centre,"sb\ring.png",391,391 F,2,87101,87601,0.2,0 S,0,87101,87601,0.2,0.4
Sprite,Foreground,Centre,"sb\ring.png",320,312 F,2,87787,88287,0.2,0 S,0,87787,88287,0.2,0.4
Sprite,Foreground,Centre,"sb\ring.png",372,109 F,2,88815,89315,0.2,0 S,0,88815,89315,0.2,0.4
Sprite,Foreground,Centre,"sb\ring.png",306,187 F,2,90186,90686,0.2,0 S,0,90186,90686,0.2,0.4
Sprite,Foreground,Centre,"sb\ring.png",118,278 F,2,91557,92057,0.2,0 S,0,91557,92057,0.2,0.4
Sprite,Foreground,Centre,"sb\ring.png",352,187 F,2,92243,92743,0.2,0 S,0,92243,92743,0.2,0.4
Sprite,Foreground,Centre,"sb\ring.png",284,362 F,2,93615,94115,0.2,0 S,0,93615,94115,0.2,0.4
Sprite,Foreground,Centre,"sb\ring.png",491,312 F,2,94300,94800,0.2,0 S,0,94300,94800,0.2,0.4
Sprite,Foreground,Centre,"sb\ring.png",425,227 F,2,94986,95486,0.2,0 S,0,94986,95486,0.2,0.4
Sprite,Foreground,Centre,"sb\ring.png",492,147 F,2,95672,96172,0.2,0 S,0,95672,96172,0.2,0.4
Sprite,Foreground,Centre,"sb\ring.png",412,150 F,2,96357,96857,0.2,0 S,0,96357,96857,0.2,0.4
Sprite,Foreground,Centre,"sb\ring.png",245,217 F,2,97043,97543,0.2,0 S,0,97043,97543,0.2,0.4
Sprite,Foreground,Centre,"sb\ring.png",64,360 F,2,98072,98572,0.2,0 S,0,98072,98572,0.2,0.4
Sprite,Foreground,Centre,"sb\ring.png",138,411 F,2,98415,98915,0.2,0 S,0,98415,98915,0.2,0.4
Sprite,Foreground,Centre,"sb\ring.png",487,349 F,2,99786,100286,0.2,0 S,0,99786,100286,0.2,0.4
Sprite,Foreground,Centre,"sb\ring.png",414,298 F,2,101157,101657,0.2,0 S,0,101157,101657,0.2,0.4
Sprite,Foreground,Centre,"sb\ring.png",232,58 F,2,102529,103029,0.2,0 S,0,102529,103029,0.2,0.4
Sprite,Foreground,Centre,"sb\ring.png",320,167 F,2,102872,103372,0.2,0 S,0,102872,103372,0.2,0.4
Sprite,Foreground,Centre,"sb\ring.png",79,290 F,2,103900,104400,0.2,0 S,0,103900,104400,0.2,0.4
Sprite,Foreground,Centre,"sb\ring.png",184,262 F,2,104415,104915,0.2,0 S,0,104415,104915,0.2,0.4
Sprite,Foreground,Centre,"sb\ring.png",133,345 F,2,104586,105086,0.2,0 S,0,104586,105086,0.2,0.4
Sprite,Foreground,Centre,"sb\ring.png",425,410 F,2,105529,106029,0.2,0 S,0,105529,106029,0.2,0.4
Sprite,Foreground,Centre,"sb\ring.png",576,376 F,2,105958,106458,0.2,0 S,0,105958,106458,0.2,0.4
Sprite,Foreground,Centre,"sb\ring.png",529,274 F,2,106215,106715,0.2,0 S,0,106215,106715,0.2,0.4
Sprite,Foreground,Centre,"sb\ring.png",380,320 F,2,106643,107143,0.2,0 S,0,106643,107143,0.2,0.4
Sprite,Foreground,Centre,"sb\ring.png",198,274 F,2,107157,107657,0.2,0 S,0,107157,107657,0.2,0.4
Sprite,Foreground,Centre,"sb\ring.png",234,209 F,2,107329,107829,0.2,0 S,0,107329,107829,0.2,0.4
Sprite,Foreground,Centre,"sb\ring.png",511,160 F,2,108015,108515,0.2,0 S,0,108015,108515,0.2,0.4
Sprite,Foreground,Centre,"sb\ring.png",451,222 F,2,108529,109029,0.2,0 S,0,108529,109029,0.2,0.4
Sprite,Foreground,Centre,"sb\ring.png",320,107 F,2,109043,109543,0.2,0 S,0,109043,109543,0.2,0.4
Sprite,Foreground,Centre,"sb\ring.png",188,182 F,2,109386,109886,0.2,0 S,0,109386,109886,0.2,0.4
Sprite,Foreground,Centre,"sb\ring.png",275,180 F,2,109900,110400,0.2,0 S,0,109900,110400,0.2,0.4
Sprite,Foreground,Centre,"sb\ring.png",179,171 F,2,110757,111257,0.2,0 S,0,110757,111257,0.2,0.4
Sprite,Foreground,Centre,"sb\ring.png",320,376 F,2,112129,112629,0.2,0 S,0,112129,112629,0.2,0.4
Sprite,Foreground,Centre,"sb\ring.png",416,216 F,2,113500,114000,0.2,0 S,0,113500,114000,0.2,0.4
Sprite,Foreground,Centre,"sb\ring.png",256,152 F,2,114872,115372,0.2,0 S,0,114872,115372,0.2,0.4
Sprite,Foreground,Centre,"sb\ring.png",320,120 F,2,115557,116057,0.2,0 S,0,115557,116057,0.2,0.4
Sprite,Foreground,Centre,"sb\ring.png",384,88 F,2,116243,116743,0.2,0 S,0,116243,116743,0.2,0.4
Sprite,Foreground,Centre,"sb\ring.png",288,312 F,2,117615,118115,0.2,0 S,0,117615,118115,0.2,0.4
Sprite,Foreground,Centre,"sb\ring.png",416,280 F,2,118986,119486,0.2,0 S,0,118986,119486,0.2,0.4
Sprite,Foreground,Centre,"sb\ring.png",352,408 F,2,120357,120857,0.2,0 S,0,120357,120857,0.2,0.4
Sprite,Foreground,Centre,"sb\ring.png",288,376 F,2,121729,122229,0.2,0 S,0,121729,122229,0.2,0.4
Sprite,Foreground,Centre,"sb\hl.png",320,56 C,0,42885,,247,111,230 F,2,42885,43485,1,0 S,2,42885,43485,0.929896,0.1859792 P,0,42885,43485,A
//Storyboard Sound Samples

[TimingPoints]
362,681.818181818182,4,2,1,24,1,0
362,-285.714285714284,4,2,1,24,0,0
1043,685.714285714286,4,2,1,24,1,0
1728,684.150513112885,4,2,1,24,1,0
1728,-285.714285714284,4,2,1,24,0,0
2412,-285.714285714284,4,2,1,15,0,0
3096,-285.714285714284,4,2,1,5,0,0
3780,688.073394495413,4,2,1,24,1,0
3780,-285.714285714284,4,2,1,24,0,0
4468,-285.714285714284,4,2,1,15,0,0
5156,-285.714285714284,4,2,1,5,0,0
5844,677.966101694915,4,2,1,24,1,0
5844,-285.714285714284,4,2,1,24,0,0
6521,-285.714285714284,4,2,1,15,0,0
7877,678.733031674208,4,2,1,24,1,0
9234,736.196319018405,4,2,1,24,1,0
9970,1034.48275862069,4,2,1,24,1,0
9970,-285.714285714284,4,2,1,24,0,0
11004,-285.714285714284,4,2,1,15,0,0
13073,-285.714285714284,4,2,1,5,0,0
14107,-285.714285714284,4,2,1,24,0,0
15141,-285.714285714284,4,2,1,15,0,0
16175,-285.714285714284,4,2,1,5,0,0
16812,685.714285714286,4,2,1,24,1,0
16812,-285.714285714284,4,2,1,24,0,0
17154,-285.714285714284,4,2,1,5,0,0
17497,-285.714285714284,4,2,1,24,0,0
17840,-285.714285714284,4,2,1,5,0,0
18183,-285.714285714284,4,2,1,26,0,0
18869,-285.714285714284,4,2,1,15,0,0
19554,-285.714285714284,4,2,1,5,0,0
20240,681.818181818182,4,2,1,28,1,0
20240,-285.714285714284,4,2,1,28,0,0
20921,-285.714285714284,4,2,1,15,0,0
21603,-285.714285714284,4,2,1,5,0,0
22285,683.371298405467,4,2,1,30,1,0
22285,-285.714285714284,4,2,1,30,0,0
22968,-285.714285714284,4,2,1,15,0,0
23651,-285.714285714284,4,2,1,5,0,0
24335,697.674418604651,4,2,1,32,1,0
24335,-285.714285714284,4,2,1,32,0,0
25032,-285.714285714284,4,2,1,16,0,0
25730,-285.714285714284,4,2,1,5,0,0
26428,685.714285714286,6,2,1,30,1,0
26428,-222.222222222222,4,2,1,30,0,0
27799,-181.818181818182,4,2,1,34,0,0
28485,-222.222222222222,4,2,1,30,0,0
29856,-181.818181818182,4,2,1,34,0,0
30542,-222.222222222222,4,2,1,30,0,0
31913,-181.818181818182,4,2,1,34,0,0
32599,-222.222222222222,4,2,1,30,0,0
33970,-181.818181818182,4,2,1,34,0,0
34656,-222.222222222222,4,2,1,36,0,0
36028,-181.818181818182,4,2,1,42,0,0
36713,-222.222222222222,4,2,1,38,0,0
38085,-181.818181818182,4,2,1,44,0,0
38770,-222.222222222222,4,2,1,40,0,0
40142,-181.818181818182,4,2,1,48,0,0
40828,-222.222222222222,4,2,1,52,0,0
42199,-181.818181818182,4,2,1,60,0,0
42885,681.818181818182,6,2,1,46,1,0
44930,685.714285714286,4,2,1,25,1,0
44930,-166.666666666667,4,2,1,25,0,0
55901,-166.666666666667,4,2,1,25,0,0
66872,-142.857142857143,4,2,1,25,0,0
75101,-142.857142857143,4,2,1,35,0,0
76987,-142.857142857143,4,2,1,30,0,0
77844,-133.333333333333,4,2,1,35,0,0
80587,-111.111111111111,4,2,1,35,0,0
81958,-142.857142857143,4,2,1,35,0,0
82644,-111.111111111111,4,2,1,35,0,0
83330,-100,4,2,1,45,0,0
86072,-83.3333333333333,4,2,1,55,0,0
86415,-83.3333333333333,4,2,1,45,0,0
86758,-83.3333333333333,4,2,1,35,0,0
87101,-111.111111111111,4,2,1,65,0,0
87787,-142.857142857143,4,2,1,35,0,0
88044,-142.857142857143,4,2,1,5,0,0
88130,-111.111111111111,4,2,1,45,0,0
88387,-111.111111111111,4,2,1,5,0,0
88472,-90.9090909090909,4,2,1,55,0,0
88730,-90.9090909090909,4,2,1,5,0,0
88815,685.714285714286,4,2,1,70,1,1
88815,-76.9230769230769,4,2,1,70,0,1
89457,-76.9230769230769,4,2,1,20,0,1
89543,-76.9230769230769,4,2,1,20,0,1
89757,-83.3333333333333,4,2,1,5,0,1
89843,-71.4285714285714,4,2,1,45,0,1
89929,-71.4285714285714,4,2,1,50,0,1
90015,-71.4285714285714,4,2,1,55,0,1
90100,-71.4285714285714,4,2,1,60,0,1
90186,-71.4285714285714,4,2,1,65,0,1
90357,-71.4285714285714,4,2,1,60,0,1
90529,-71.4285714285714,4,2,1,55,0,1
90700,-71.4285714285714,4,2,1,50,0,1
90872,-83.3333333333333,4,2,1,55,0,1
98757,-83.3333333333333,4,2,1,45,0,1
99015,-83.3333333333333,4,2,1,5,0,1
99100,-83.3333333333333,4,2,1,55,0,1
99357,-83.3333333333333,4,2,1,5,0,1
99443,-83.3333333333333,4,2,1,70,0,1
99786,-76.9230769230769,4,2,2,60,0,1
100815,-71.4285714285714,4,2,1,60,0,1
100900,-71.4285714285714,4,2,1,45,0,1
100986,-71.4285714285714,4,2,1,55,0,1
101072,-71.4285714285714,4,2,1,60,0,1
101157,-71.4285714285714,4,2,1,65,0,1
101329,-71.4285714285714,4,2,1,60,0,1
101500,-71.4285714285714,4,2,1,55,0,1
101672,-71.4285714285714,4,2,1,50,0,1
101843,-83.3333333333333,4,2,1,55,0,1
104586,-76.9230769230769,4,2,1,55,0,1
105272,-83.3333333333333,4,2,1,55,0,1
110757,-125,4,2,1,40,0,0
111272,-125,4,2,1,30,0,0
112129,-125,4,2,1,40,0,0
112472,-125,4,2,1,30,0,0
113500,-125,4,2,1,40,0,0
114186,-125,4,2,1,30,0,0
114529,-125,4,2,1,40,0,0
115215,-125,4,2,1,30,0,0
116243,-125,4,2,1,40,0,0
116757,-125,4,2,1,30,0,0
117615,-125,4,2,1,40,0,0
118129,-125,4,2,1,30,0,0
118300,-125,4,2,1,40,0,0
118643,-125,4,2,1,30,0,0
118986,-125,4,2,1,30,0,0
120186,-125,4,2,1,30,0,0
122072,-125,4,2,1,20,0,0
123786,-125,4,2,1,18,0,0
125500,-125,4,2,1,16,0,0
127215,-125,4,2,1,14,0,0
128586,-125,4,2,1,12,0,0
129272,-125,4,2,1,10,0,0
129615,-125,4,2,1,15,0,0
129957,-125,4,2,1,20,0,0

[Colours]
Combo1 : 255,0,120
Combo2 : 7,254,137
Combo3 : 7,230,255
Combo4 : 107,254,184
Combo5 : 106,240,255
Combo6 : 247,111,230

[HitObjects]
253,375,362,38,0,P|271:347|280:305,1,66.4999979705811,0|0,0:0|0:0,0:0:0:0:
236,253,1728,2,0,B|218:243|189:243|189:243|167:248|141:266|143:267|145:268|117:284|95:287|95:287|67:287|41:276,1,199.499993911743,2|0,0:0|0:0,0:0:0:0:
279,315,5844,2,0,B|297:325|326:325|326:325|348:320|374:302|372:301|370:300|398:284|420:281|420:281|448:281|474:292,1,199.499993911743,0|0,0:0|0:0,0:0:0:0:
427,360,9234,1,0,0:0:0:0:
320,246,9970,6,0,B|358:216|409:205|409:205|468:205|507:225,1,199.499993911743,2|0,0:0|0:0,0:0:0:0:
489,321,14107,2,0,B|463:341|428:348|428:348|388:348|362:335,1,132.999995941162
256,352,16812,70,0,P|238:324|229:282,1,66.4999979705811,0|0,0:0|0:0,0:0:0:0:
273,230,18183,2,0,B|291:220|320:220|320:220|342:225|368:243|366:244|364:245|392:261|414:264|414:264|442:264|468:253,1,199.499993911743,2|0,0:0|0:0,0:0:0:0:
308,309,22285,5,0,0:0:0:0:
130,217,24335,2,0,B|155:196|190:189|190:189|230:189|256:202,1,132.999995941162,0|0,0:0|0:0,0:0:0:0:
141,331,26428,38,0,P|97:329|58:310,2,85.4999973907472,2|2|2,0:0|0:0|0:0,0:0:0:0:
260,307,28485,2,0,P|300:290|330:259,2,85.4999973907472,2|2|2,0:0|0:0|0:0,0:0:0:0:
117,252,30542,6,0,P|81:234|38:195,2,85.4999973907472,2|2|2,0:0|0:0|0:0,0:0:0:0:
255,224,32599,2,0,P|282:194|309:144,2,85.4999973907472,2|2|2,0:0|0:0|0:0,0:0:0:0:
324,333,34656,70,0,P|359:308|400:299,1,85.4999973907472,2|2,0:0|0:0,0:0:0:0:
476,321,36028,1,2,0:0:0:0:
407,210,36713,2,0,P|368:192|325:190,1,85.4999973907472,2|2,0:0|0:0,0:0:0:0:
255,224,38085,1,2,0:0:0:0:
142,277,38770,6,0,P|106:259|63:220,1,85.4999973907472,2|2,0:0|0:0,0:0:0:0:
180,131,40142,2,0,P|186:156|188:182,1,52.2500015945435,2|2,0:0|0:0,0:0:0:0:
238,268,40828,2,0,P|259:234|277:180,1,85.4999973907472,2|2,0:0|0:0,0:0:0:0:
373,92,42200,2,0,P|358:70|340:51,1,52.2500015945435,2|2,0:0|0:0,0:0:0:0:
256,0,42885,37,2,0:0:0:0:
32,192,44930,53,2,0:0:0:0:
160,160,47672,1,0,0:0:0:0:
128,256,50415,5,2,0:0:0:0:
96,128,53158,1,0,0:0:0:0:
224,192,54530,2,0,L|301:230,1,85.4999973907472,2|2,0:0|0:0,0:0:0:0:
416,160,55558,1,0,0:0:0:0:
480,192,55901,69,2,0:0:0:0:
358,132,58472,2,0,L|351:159,1,28.4999991302491,0|0,0:0|0:0,0:0:0:0:
384,256,61387,5,2,0:0:0:0:
384,256,62758,2,0,L|414:130,1,113.999996520996,0|0,0:0|0:0,0:0:0:0:
416,128,64129,1,2,0:0:0:0:
368,307,65501,1,2,0:0:0:0:
256,352,66872,38,0,P|209:327|107:328,1,132.999995941162,2|2,0:0|0:0,0:0:0:0:
55,267,68244,2,0,P|101:242|204:243,1,132.999995941162,2|2,0:0|0:0,0:0:0:0:
256,352,69615,6,0,P|302:327|405:328,1,132.999995941162,2|2,0:0|0:0,0:0:0:0:
457,267,70987,2,0,P|429:249|397:238,1,66.4999979705811,2|0,0:0|0:0,0:0:0:0:
318,246,71672,2,0,P|288:261|263:283,1,66.4999979705811,2|0,0:0|0:0,0:0:0:0:
156,331,72358,70,0,P|89:329|30:301,1,132.999995941162,2|2,0:0|0:0,0:0:0:0:
97,169,73730,2,0,P|153:203|190:257,1,132.999995941162,2|2,0:0|0:0,0:0:0:0:
258,376,75101,6,0,P|269:310|305:255,1,132.999995941162,2|2,0:0|0:0,0:0:0:0:
396,236,76472,1,2,0:0:0:0:
473,284,77158,1,0,0:0:0:0:
306,256,77844,70,0,P|259:231|157:232,1,142.500005435944,2|0,0:0|0:0,0:0:0:0:
92,307,79215,2,0,P|35:287|64:224,1,142.500005435944,2|0,0:0|0:0,0:0:0:0:
170,341,80587,6,0,P|254:318|310:246,1,170.999994781494,2|0,0:0|0:0,0:0:0:0:
416,196,81958,2,0,P|441:249|386:272,1,132.999995941162,2|2,0:0|0:0,0:0:0:0:
256,352,83330,70,0,P|214:330|123:330,2,95,2|0|0,0:0|0:0|0:0,0:0:0:0:
304,280,84358,2,0,P|278:240|200:195,2,95,2|0|0,0:0|0:0|0:0,0:0:0:0:
381,241,85387,2,0,P|379:194|333:115,1,95,2|0,0:0|0:0,0:0:0:0:
476,93,86072,5,2,0:0:0:0:
467,199,86415,1,2,0:0:0:0:
458,305,86758,1,2,0:0:0:0:
327,335,87101,21,2,0:0:0:0:
256,256,87787,6,0,P|231:196|245:124,1,132.999995941162,2|2,0:0|0:0,0:0:0:0:
308,53,88815,6,0,P|149:23|153:184,1,370.499983039857,4|2,0:3|0:0,0:0:0:0:
242,131,90186,2,0,B|260:169|266:165|272:160|291:171|274:206|265:203|257:202|235:214|248:237|261:232|275:226|305:261|264:271|258:260|253:250|226:259|222:284|232:286|245:288|237:308|216:322|212:313|207:302|178:313|168:344,1,265.999991882324,2|2,0:0|0:0,0:0:0:0:
54,222,91557,70,0,B|112:207|109:251|183:226,1,113.999996520996,2|0,0:0|0:0,0:0:0:0:
288,131,92243,2,0,P|205:70|153:181,1,227.999993041992,2|2,0:0|0:0,0:0:0:0:
220,306,93615,1,2,0:0:0:0:
427,256,94300,38,0,L|342:266,2,85.4999973907472,4|2|2,0:0|0:0|0:0,0:0:0:0:
361,171,94986,2,0,L|276:160,2,85.4999973907472,4|2|2,0:0|0:0|0:0,0:0:0:0:
428,91,95672,38,0,P|423:48|431:6,2,85.4999973907472,6|0|0,0:0|0:0|0:0,0:0:0:0:
348,94,96357,2,0,P|292:68|239:59,1,113.999996520996,2|2,0:0|0:0,0:0:0:0:
181,161,97043,2,0,P|99:185|8:182,1,170.999994781494,6|6,0:0|0:0,0:0:0:0:
0,304,98072,1,6,0:0:0:0:
74,355,98415,2,0,P|165:294|287:337,1,227.999993041992,0|2,0:0|0:0,0:0:0:0:
423,293,99786,6,0,B|463:231|431:160|358:148|358:148|318:98|356:32|450:48|434:125,1,370.499983039857,4|0,0:0|0:0,0:0:0:0:
351,239,101157,2,0,B|339:259|289:271|304:257|329:234|281:223|262:244|265:249|267:255|243:281|211:261|239:242|265:225|228:180|200:228|203:234|209:244|181:251|156:235|176:222|183:213|180:189|157:196|159:202|161:209|121:220|121:181|114:142,1,265.999991882324,2|2,0:0|0:0,0:0:0:0:
168,2,102529,69,2,0:0:0:0:
256,111,102872,2,0,B|187:140|137:100|141:92|150:80|57:53|17:102,1,227.999993041992,2|0,0:0|0:0,0:0:0:0:
15,234,103900,38,0,P|-13:193|-16:147,1,75.9999976806641,2|2,0:0|0:0,0:0:0:0:
120,206,104415,1,2,0:0:0:0:
69,289,104586,2,0,B|52:321|79:372|127:377|163:354|159:348|152:342|187:318|226:314|264:329,1,246.999988693238,4|4,0:0|0:0,0:0:0:0:
361,354,105529,22,0,L|449:363,1,85.4999973907472,2|2,0:0|0:0,0:0:0:0:
512,320,105958,1,4,0:0:0:0:
465,218,106215,2,0,L|377:227,1,85.4999973907472,2|2,0:0|0:0,0:0:0:0:
316,264,106643,6,0,P|262:248|162:248,1,113.999996520996,4|0,0:0|0:0,0:0:0:0:
134,218,107157,1,2,0:0:0:0:
170,153,107329,2,0,P|224:137|324:137,1,113.999996520996,0|0,0:0|0:0,0:0:0:0:
447,104,108015,6,0,P|459:73|465:29,2,56.9999982604981,6|0|0,0:0|0:0|0:0,0:0:0:0:
387,166,108529,2,0,P|364:113|328:69,1,113.999996520996,6|0,0:0|0:0,0:0:0:0:
256,51,109043,1,2,0:0:0:0:
124,126,109386,2,0,P|89:66|116:28,1,113.999996520996,6|0,0:0|0:0,0:0:0:0:
211,124,109900,2,0,P|212:224|111:212,1,227.999993041992,6|0,0:0|0:0,0:0:0:0:
115,115,110757,5,2,0:0:0:0:
256,320,112129,5,2,0:0:0:0:
352,160,113500,5,0,2:0:0:0:
192,96,114872,1,0,0:0:0:0:
256,64,115557,1,0,0:0:0:0:
320,32,116243,1,2,0:0:0:0:
224,256,117615,5,2,0:0:0:0:
352,224,118986,1,2,0:0:0:0:
288,352,120357,69,2,0:0:0:0:
224,320,121729,1,2,0:0:0:0:
256,192,122072,12,0,129957,0:0:0:0:
