osu file format v14

[General]
AudioFilename: audio.mp3
AudioLeadIn: 0
PreviewTime: 64480
Countdown: 0
SampleSet: Soft
StackLeniency: 0.5
Mode: 0
LetterboxInBreaks: 0
WidescreenStoryboard: 1

[Editor]
Bookmarks: 46480,58480,61480,65605
DistanceSpacing: 0.4
BeatDivisor: 4
GridSize: 16
TimelineZoom: 1.5

[Metadata]
Title:Futari no Hane (TV Size)
TitleUnicode:Futari no Hane (TV Size)
Artist:YURiKA
ArtistUnicode:YURiKA
Creator:dahammer88
Version:Abstracts Extrrrra
Source:Hanebado!
Tags:hanebado, futari no hane, yurika, dahammer88, anime, basensorex, abstractparadox
BeatmapID:1729811
BeatmapSetID:815050

[Difficulty]
HPDrainRate:6.5
CircleSize:4.2
OverallDifficulty:9.5
ApproachRate:9.6
SliderMultiplier:1.4
SliderTickRate:1

[Events]
//Background and Video events
0,0,"futari.jpg",0,0
//Break Periods
//Storyboard Layer 0 (Background)
//Storyboard Layer 1 (Fail)
//Storyboard Layer 2 (Pass)
//Storyboard Layer 3 (Foreground)
//Storyboard Sound Samples

[TimingPoints]
-20,375,4,2,0,60,1,0
1292,-66.6666666666667,4,2,0,60,0,0
1667,-66.6666666666667,4,2,0,60,0,0
4292,-100,4,2,0,60,0,0
7292,-66.6666666666667,4,2,0,60,0,0
8792,-66.6666666666667,4,2,0,60,0,0
9073,-100,4,2,0,60,0,0
10386,-80,4,2,0,60,0,0
10471,-57.1428571428571,4,2,0,60,0,0
11792,-133.333333333333,4,2,0,60,0,0
13386,-133.333333333333,4,2,0,60,0,0
14230,-100,4,2,0,60,0,0
14605,-80,4,2,0,60,0,0
22011,-80,4,2,0,60,0,0
22292,-66.6666666666667,4,2,0,60,0,0
23792,-80,4,2,0,60,0,0
25386,-100,4,2,0,60,0,0
26417,-80,4,2,0,60,0,0
26792,-66.6666666666667,4,2,0,60,0,0
28105,-57.1428571428571,4,2,0,60,0,0
30542,-57.1428571428571,4,2,0,30,0,0
31105,-57.1428571428571,4,2,0,60,0,0
33630,-100,4,2,0,60,0,0
34573,-80,4,2,0,60,0,0
37480,-133.333333333333,4,2,0,60,0,0
37667,-100,4,2,0,60,0,0
37855,-66.6666666666667,4,2,0,60,0,0
38042,-57.1428571428571,4,2,0,60,0,0
38417,-66.6666666666667,4,2,0,60,0,0
43480,375,4,2,0,60,1,0
43480,-133.333333333333,4,2,0,60,0,0
43667,-100,4,2,0,60,0,0
43855,-66.6666666666667,4,2,0,60,0,0
44042,-57.1428571428571,4,2,0,60,0,0
44417,-50,4,2,0,60,0,0
46477,-100,4,2,0,60,0,0
46480,-133.333333333333,4,2,0,60,0,0
49480,-105.263157894737,4,2,0,60,0,0
50042,-133.333333333333,4,2,0,60,0,0
50605,-95.2380952380952,4,2,0,60,0,0
50980,-111.111111111111,4,2,0,60,0,0
52286,-100,4,2,0,60,0,0
57355,-80,4,2,0,60,0,0
57730,-66.6666666666667,4,2,0,60,0,0
58105,-57.1428571428571,4,2,0,60,0,0
61480,-80,4,2,0,60,0,0
62792,-112.359550561798,4,2,0,60,0,0
64480,-112.359550561798,4,2,0,20,0,0
65605,-66.6666666666667,4,2,0,60,0,1
73198,-66.6666666666667,4,2,0,60,0,1
74698,-66.6666666666667,4,2,0,60,0,1
76480,-100,4,2,0,60,0,0
76855,-54.054054054054,4,2,0,60,0,0
77236,-100,4,2,0,60,0,0
77605,-80,4,2,0,60,0,0
77980,-66.6666666666667,4,2,0,60,0,0
84636,-80,4,2,0,60,0,0
85948,-66.6666666666667,4,2,0,60,0,0
88386,-100,4,2,0,60,0,0

[HitObjects]
74,81,730,5,0,0:0:0:0:
90,94,823,1,0,0:0:0:0:
116,102,917,1,0,0:0:0:0:
152,97,1011,1,0,0:0:0:0:
189,77,1105,1,0,0:0:0:0:
231,54,1198,1,0,0:0:0:0:
284,36,1292,2,0,P|346:29|408:49,1,105.000004005432,0|0,0:0|0:0,0:0:0:0:
512,102,1667,5,0,0:0:0:0:
296,143,1855,1,0,0:0:0:0:
456,215,2042,5,0,0:0:0:0:
230,274,2230,2,0,P|173:269|132:241,1,105.000004005432,8|0,0:0|0:0,0:0:0:0:
5,89,2605,2,0,P|56:92|100:119,1,105.000004005432,0|0,0:0|0:0,0:0:0:0:
155,337,2980,5,8,0:0:0:0:
100,119,3167,1,0,0:0:0:0:
291,250,3355,2,0,P|280:199|294:148,1,105.000004005432,0|0,0:0|0:0,0:0:0:0:
469,73,3730,5,4,0:0:0:0:
451,122,3823,1,4,0:0:0:0:
415,153,3917,1,4,0:0:0:0:
378,174,4011,1,4,0:0:0:0:
353,194,4105,1,4,0:0:0:0:
345,213,4198,1,4,0:0:0:0:
344,227,4292,2,0,P|356:268|389:304,1,70,4|8,0:0|0:0,0:0:0:0:
490,347,4667,5,0,0:0:0:0:
512,205,4855,1,0,0:0:0:0:
425,244,5042,5,0,0:0:0:0:
403,102,5230,2,0,L|356:161,1,70,8|0,0:0|0:0,0:0:0:0:
196,157,5605,2,0,L|152:102,1,70,0|0,0:0|0:0,0:0:0:0:
22,24,5980,5,8,0:0:0:0:
0,166,6168,1,0,0:0:0:0:
87,127,6355,5,0,0:0:0:0:
109,269,6542,1,0,0:0:0:0:
222,365,6730,5,4,0:0:0:0:
230,327,6823,1,4,0:0:0:0:
251,295,6917,1,4,0:0:0:0:
281,271,7011,1,4,0:0:0:0:
308,230,7105,5,4,0:0:0:0:
313,181,7198,1,4,0:0:0:0:
288,138,7292,2,0,P|249:107|188:107,1,105.000004005432,4|8,0:0|0:0,0:0:0:0:
69,151,7667,5,0,0:0:0:0:
221,174,7855,1,0,0:0:0:0:
165,28,8042,1,0,0:0:0:0:
131,240,8230,5,8,0:0:0:0:
271,68,8418,1,0,0:0:0:0:
53,33,8605,1,0,0:0:0:0:
221,174,8792,2,0,P|259:217|267:276,1,105.000004005432,0|8,0:0|0:0,0:0:0:0:
107,365,9167,5,0,0:0:0:0:
221,174,9355,1,0,0:0:0:0:
239,337,9542,5,0,0:0:0:0:
125,146,9730,1,8,0:0:0:0:
157,302,9917,5,0,0:0:0:0:
293,72,10105,1,0,0:0:0:0:
250,254,10292,1,0,0:0:0:0:
115,29,10480,6,0,B|103:94|103:94|131:159,1,122.500001168251,8|0,0:0|0:0,0:0:0:0:
292,342,10855,1,0,0:0:0:0:
460,180,11042,6,0,B|426:134|426:134|364:112,1,122.500001168251,8|0,0:0|0:0,0:0:0:0:
125,145,11417,1,0,0:0:0:0:
39,342,11605,5,0,0:0:0:0:
316,250,11792,2,0,B|396:221|396:221|330:175|366:107,1,210.000008010865,0|0,0:0|0:0,0:0:0:0:
449,29,12730,5,4,0:0:0:0:
459,50,12823,1,4,0:0:0:0:
465,75,12917,1,4,0:0:0:0:
463,106,13011,1,4,0:0:0:0:
443,131,13105,5,4,0:0:0:0:
427,166,13198,1,4,0:0:0:0:
424,210,13292,1,4,0:0:0:0:
446,254,13386,1,4,0:0:0:0:
471,303,13480,6,0,B|411:387|357:289|284:373,1,210.000008010865,0|0,0:0|0:0,0:0:0:0:
159,143,14605,5,0,0:0:0:0:
0,18,14792,1,0,0:0:0:0:
211,82,14980,2,0,L|296:109,1,87.5,8|0,0:0|0:0,0:0:0:0:
159,241,15355,5,0,0:0:0:0:
0,366,15542,1,0,0:0:0:0:
211,302,15730,2,0,L|299:273,1,87.5,8|0,0:0|0:0,0:0:0:0:
346,66,16105,5,0,0:0:0:0:
234,213,16292,1,0,0:0:0:0:
388,169,16480,1,8,0:0:0:0:
202,64,16667,5,0,0:0:0:0:
97,237,16855,1,0,0:0:0:0:
303,196,17042,1,0,0:0:0:0:
93,133,17230,5,8,0:0:0:0:
104,329,17417,1,0,0:0:0:0:
303,196,17605,1,0,0:0:0:0:
99,49,17792,2,0,P|85:101|94:135,1,87.5,0|8,0:0|0:0,0:0:0:0:
277,324,18167,5,0,0:0:0:0:
155,189,18355,1,0,0:0:0:0:
303,196,18542,5,0,0:0:0:0:
181,61,18730,1,0,0:0:0:0:
425,61,18917,5,0,0:0:0:0:
303,196,19105,1,0,0:0:0:0:
180,61,19292,2,0,P|255:14|339:30,1,175,0|0,0:0|0:0,0:0:0:0:
450,172,19855,5,0,0:0:0:0:
264,127,20042,1,0,0:0:0:0:
317,312,20230,2,0,L|217:284,1,87.5,10|0,0:0|0:0,0:0:0:0:
60,153,20605,5,0,0:0:0:0:
314,233,20792,1,0,0:0:0:0:
194,123,20980,2,0,L|101:95,1,87.5,8|0,0:0|0:0,0:0:0:0:
425,120,21355,5,0,0:0:0:0:
171,40,21542,1,0,0:0:0:0:
291,150,21730,2,0,L|384:178,1,87.5,8|0,0:0|0:0,0:0:0:0:
481,20,22105,5,0,0:0:0:0:
291,150,22292,2,0,B|224:232|224:232|204:339,1,210.000008010865,0|0,0:0|0:0,0:0:0:0:
490,360,22855,5,0,0:0:0:0:
291,150,23042,2,0,B|200:95|200:95|91:90,1,210.000008010865,0|0,0:0|0:0,0:0:0:0:
198,211,23605,5,0,0:0:0:0:
365,230,23792,2,0,P|395:194|409:142,1,87.5,0|8,0:0|0:0,0:0:0:0:
397,65,24167,5,0,0:0:0:0:
291,213,24355,1,0,0:0:0:0:
291,58,24542,5,0,0:0:0:0:
185,206,24730,1,0,0:0:0:0:
181,50,24917,5,0,0:0:0:0:
291,213,25105,1,0,0:0:0:0:
397,65,25292,1,0,0:0:0:0:
185,206,25480,5,2,0:0:0:0:
291,58,25667,1,0,0:0:0:0:
391,221,25855,5,0,0:0:0:0:
390,227,25948,1,0,0:0:0:0:
389,234,26042,2,0,L|375:287,1,35,0|0,0:0|0:0,0:0:0:0:
242,341,26230,5,2,0:0:0:0:
232,330,26323,1,0,0:0:0:0:
221,318,26417,2,0,L|169:263,1,43.75,0|0,0:0|0:0,0:0:0:0:
172,135,26605,5,0,0:0:0:0:
197,117,26698,1,0,0:0:0:0:
221,98,26792,2,0,L|271:60,1,52.5000020027161,0|0,0:0|0:0,0:0:0:0:
402,181,26980,5,2,0:0:0:0:
381,228,27073,1,0,0:0:0:0:
339,260,27167,1,0,0:0:0:0:
285,267,27261,1,0,0:0:0:0:
237,245,27355,1,0,0:0:0:0:
198,210,27448,1,0,0:0:0:0:
200,157,27542,1,0,0:0:0:0:
238,192,27636,1,0,0:0:0:0:
237,245,27730,1,2,0:0:0:0:
214,292,27823,1,0,0:0:0:0:
164,309,27917,1,0,0:0:0:0:
112,301,28011,1,0,0:0:0:0:
71,268,28105,2,0,P|40:212|39:135,1,122.500001168251,0|0,0:0|0:0,0:0:0:0:
208,0,28480,6,0,B|233:61|233:61|226:124,1,122.500001168251,8|0,0:0|0:0,0:0:0:0:
52,362,28855,1,0,0:0:0:0:
226,117,29042,1,8,0:0:0:0:
208,360,29230,5,0,0:0:0:0:
385,94,29417,1,0,0:0:0:0:
207,359,29605,6,0,B|245:313|245:313|260:252,1,122.500001168251,8|0,0:0|0:0,0:0:0:0:
172,27,29980,1,0,0:0:0:0:
207,359,30167,6,0,B|212:299|212:299|188:241,1,122.500001168251,8|0,0:0|0:0,0:0:0:0:
0,87,30542,1,0,0:0:0:0:
124,273,30730,6,0,B|154:324|154:324|206:359,1,122.500001168251,8|0,0:0|0:0,0:0:0:0:
408,256,31105,1,8,0:0:0:0:
408,256,31198,1,8,0:0:0:0:
408,256,31292,6,0,B|369:210|369:210|310:184,1,122.500001168251,8|12,0:0|0:0,0:0:0:0:
113,210,31667,2,0,B|111:241|111:241|139:296,1,61.2500005841255,0|0,0:0|0:0,0:0:0:0:
227,122,31855,2,0,B|229:91|229:91|201:36,1,61.2500005841255,0|0,0:0|0:0,0:0:0:0:
68,6,32042,2,0,B|56:67|56:67|78:134,1,122.500001168251,2|0,0:0|0:0,0:0:0:0:
200,310,32417,5,0,0:0:0:0:
150,112,32605,1,0,0:0:0:0:
116,377,32792,2,0,B|128:316|128:316|106:249,1,122.500001168251,2|0,0:0|0:0,0:0:0:0:
9,100,33167,5,0,0:0:0:0:
211,241,33355,1,0,0:0:0:0:
227,25,33542,1,0,0:0:0:0:
123,187,33730,6,0,P|188:147|275:157,2,140,2|2|8,0:0|0:0|0:0,0:0:0:0:
304,379,34667,6,0,B|212:328|295:273|188:230,1,175,0|0,0:0|0:0,0:0:0:0:
32,220,35230,1,0,0:0:0:0:
210,240,35417,1,0,0:0:0:0:
103,96,35605,1,0,0:0:0:0:
271,169,35792,2,0,P|307:218|297:274,1,87.5,0|8,0:0|0:0,0:0:0:0:
169,349,36167,5,0,0:0:0:0:
65,171,36355,1,0,0:0:0:0:
271,169,36542,1,0,0:0:0:0:
102,281,36730,2,0,P|14:286|2:278,1,87.5,8|0,0:0|0:0,0:0:0:0:
187,176,37105,2,0,P|227:161|270:168,1,87.5,8|0,0:0|0:0,0:0:0:0:
371,343,37480,6,0,L|332:337,1,26.2500010013581,8|0,0:0|0:0,0:0:0:0:
386,303,37667,2,0,L|337:276,1,35,0|0,0:0|0:0,0:0:0:0:
413,260,37855,2,0,L|368:218,1,52.5000020027161,0|0,0:0|0:0,0:0:0:0:
462,217,38042,6,0,L|365:117,1,122.500001168251,0|8,0:0|0:0,0:0:0:0:
247,20,38417,5,0,0:0:0:0:
234,194,38605,1,0,0:0:0:0:
129,72,38792,2,0,B|158:128|98:129|145:194,1,105.000004005432,0|8,0:0|0:0,0:0:0:0:
265,285,39167,5,0,0:0:0:0:
296,113,39355,1,0,0:0:0:0:
132,173,39542,1,0,0:0:0:0:
329,208,39730,5,8,0:0:0:0:
196,95,39918,1,0,0:0:0:0:
170,271,40105,2,0,P|219:233|236:181,1,105.000004005432,8|0,0:0|0:0,0:0:0:0:
261,19,40480,6,0,P|211:56|194:108,1,105.000004005432,8|0,0:0|0:0,0:0:0:0:
234,194,40855,5,8,0:0:0:0:
302,104,41043,1,0,0:0:0:0:
322,271,41230,1,8,0:0:0:0:
410,99,41418,1,0,0:0:0:0:
322,271,41605,5,0,0:0:0:0:
196,95,41792,2,0,P|159:58|109:45,1,105.000004005432,0|8,0:0|0:0,0:0:0:0:
15,187,42167,1,0,0:0:0:0:
183,297,42355,1,0,0:0:0:0:
195,96,42542,1,0,0:0:0:0:
61,291,42730,6,0,L|130:208,1,105.000004005432,8|0,0:0|0:0,0:0:0:0:
315,130,43105,2,0,L|246:213,1,105.000004005432,8|0,0:0|0:0,0:0:0:0:
165,318,43480,6,0,L|189:295,1,26.2500010013581,8|0,0:0|0:0,0:0:0:0:
142,273,43667,2,0,L|195:258,1,35,0|0,0:0|0:0,0:0:0:0:
128,210,43855,2,0,L|190:220,1,52.5000020027161,0|0,0:0|0:0,0:0:0:0:
148,141,44042,6,0,L|254:215,1,122.500001168251,0|8,0:0|0:0,0:0:0:0:
438,317,44417,1,0,0:0:0:0:
384,111,44605,1,0,0:0:0:0:
314,306,44792,2,0,P|242:324|150:246,1,140,0|8,0:0|0:0,0:0:0:0:
50,149,45167,5,0,0:0:0:0:
255,206,45355,1,0,0:0:0:0:
188,5,45542,1,0,0:0:0:0:
127,264,45730,6,0,L|271:198,1,140,8|0,0:0|0:0,0:0:0:0:
482,0,46105,2,0,L|349:65,1,140,8|0,0:0|0:0,0:0:0:0:
119,185,46480,6,0,B|26:216|87:248|-2:280,2,157.500006008148,2|2|0,0:0|0:0|0:0,0:0:0:0:
125,266,47980,2,0,P|153:315|196:331,1,105.000004005432,2|0,0:0|0:0,0:0:0:0:
202,252,48542,1,0,0:0:0:0:
202,252,48730,2,0,P|249:232|298:247,1,105.000004005432,0|0,0:0|0:0,0:0:0:0:
473,361,49480,6,0,P|456:331|455:293,1,66.4999982242585,2|0,0:0|0:0,0:0:0:0:
508,223,49855,1,0,0:0:0:0:
508,223,50042,2,0,P|455:206|403:218,1,105.000004005432,0|0,0:0|0:0,0:0:0:0:
361,299,50605,2,0,P|328:269|317:213,1,73.4999977569581,0|0,0:0|0:0,0:0:0:0:
319,17,50980,6,0,L|216:114,1,125.999996154785,0|0,0:0|0:0,0:0:0:0:
194,257,51542,1,0,0:0:0:0:
194,257,51636,1,0,0:0:0:0:
194,257,51730,2,0,L|297:157,1,125.999996154785,0|0,0:0|0:0,0:0:0:0:
431,53,52480,5,8,0:0:0:0:
404,188,52667,1,0,0:0:0:0:
340,114,52855,5,0,0:0:0:0:
313,249,53042,2,0,P|296:277|244:300,1,70,0|8,0:0|0:0,0:0:0:0:
36,231,53417,1,0,0:0:0:0:
233,221,53605,2,0,P|201:212|165:167,1,70,0|0,0:0|0:0,0:0:0:0:
181,53,53980,5,8,0:0:0:0:
330,201,54167,1,0,0:0:0:0:
127,256,54355,1,8,0:0:0:0:
306,62,54542,5,0,0:0:0:0:
242,306,54729,1,8,0:0:0:0:
63,128,54917,1,0,0:0:0:0:
285,177,55105,5,8,0:0:0:0:
330,201,55198,1,0,0:0:0:0:
367,237,55292,1,0,0:0:0:0:
383,287,55386,1,0,0:0:0:0:
378,339,55480,2,0,P|342:374|294:381,1,70,8|0,0:0|0:0,0:0:0:0:
95,292,55855,5,0,0:0:0:0:
285,177,56042,2,0,P|308:154|317:97,1,70,0|8,0:0|0:0,0:0:0:0:
276,0,56417,2,0,P|253:23|244:80,1,70,0|0,0:0|0:0,0:0:0:0:
388,224,56792,2,0,P|372:153|295:115,1,140,2|2,0:0|0:0,0:0:0:0:
109,165,57355,6,0,L|197:184,1,87.5,0|0,0:0|0:0,0:0:0:0:
264,221,57730,2,0,L|156:244,1,105.000004005432,8|0,0:0|0:0,0:0:0:0:
72,275,58105,2,0,L|193:304,1,122.500001168251,0|0,0:0|0:0,0:0:0:0:
375,331,58480,5,8,0:0:0:0:
180,214,58667,1,0,0:0:0:0:
378,103,58855,5,8,0:0:0:0:
232,346,59042,1,0,0:0:0:0:
235,95,59229,5,8,0:0:0:0:
450,223,59417,1,0,0:0:0:0:
96,216,59605,5,8,0:0:0:0:
308,41,59792,1,0,0:0:0:0:
353,312,59980,5,8,0:0:0:0:
142,20,60167,1,0,0:0:0:0:
402,173,60354,5,8,0:0:0:0:
139,321,60542,1,0,0:0:0:0:
383,19,60730,5,8,0:0:0:0:
326,327,60917,1,0,0:0:0:0:
88,123,61105,5,8,0:0:0:0:
495,240,61292,1,0,0:0:0:0:
197,282,61480,6,0,B|156:266|156:266|98:211,1,87.5,8|0,0:0|0:0,0:0:0:0:
106,0,61855,1,0,0:0:0:0:
315,102,62042,6,0,B|356:118|356:118|414:173,1,87.5,8|0,0:0|0:0,0:0:0:0:
406,384,62417,1,0,0:0:0:0:
124,236,62605,1,0,0:0:0:0:
366,46,62792,2,0,B|456:81|521:22|521:22|524:135|414:161|482:282,1,436.100000332718,0|0,0:0|0:0,0:0:0:0:
371,318,64480,5,4,0:0:0:0:
222,295,64855,5,4,0:0:0:0:
122,205,65230,5,4,0:0:0:0:
166,217,65323,1,0,0:0:0:0:
212,213,65417,1,0,0:0:0:0:
250,187,65511,1,0,0:0:0:0:
262,135,65605,5,0,0:0:0:0:
305,175,65698,1,0,0:0:0:0:
362,196,65792,1,0,0:0:0:0:
421,187,65886,1,0,0:0:0:0:
470,154,65980,2,0,P|474:106|435:62,1,105.000004005432,8|0,0:0|0:0,0:0:0:0:
255,61,66355,5,0,0:0:0:0:
45,209,66542,1,0,0:0:0:0:
392,117,66730,2,0,L|304:175,1,105.000004005432,8|0,0:0|0:0,0:0:0:0:
159,350,67105,5,0,0:0:0:0:
393,214,67292,2,0,L|483:156,1,105.000004005432,0|8,0:0|0:0,0:0:0:0:
255,61,67667,5,0,0:0:0:0:
367,293,67855,1,0,0:0:0:0:
115,193,68042,1,0,0:0:0:0:
367,148,68230,5,8,0:0:0:0:
115,48,68417,1,0,0:0:0:0:
227,280,68605,1,0,0:0:0:0:
460,182,68792,2,0,P|399:146|357:150,1,105.000004005432,0|8,0:0|0:0,0:0:0:0:
137,161,69167,5,0,0:0:0:0:
296,54,69355,1,0,0:0:0:0:
175,188,69542,5,0,0:0:0:0:
300,131,69730,1,8,0:0:0:0:
186,216,69917,5,0,0:0:0:0:
279,192,70105,1,0,0:0:0:0:
200,301,70292,2,0,P|132:278|99:206,1,105.000004005432,0|8,0:0|0:0,0:0:0:0:
18,107,70667,5,0,0:0:0:0:
112,253,70855,1,0,0:0:0:0:
152,18,71042,1,0,0:0:0:0:
256,156,71230,2,0,P|294:93|353:73,1,105.000004005432,8|0,0:0|0:0,0:0:0:0:
460,173,71605,5,8,0:0:0:0:
394,384,71792,1,0,0:0:0:0:
337,214,71980,2,0,P|304:173|255:155,1,105.000004005432,8|0,0:0|0:0,0:0:0:0:
0,239,72355,5,0,0:0:0:0:
70,0,72542,1,0,0:0:0:0:
155,153,72730,2,0,P|205:167|256:154,1,105.000004005432,8|0,0:0|0:0,0:0:0:0:
493,27,73105,5,0,0:0:0:0:
437,226,73292,2,0,B|362:294|362:294|257:322,1,210.000008010865,0|0,0:0|0:0,0:0:0:0:
92,206,73855,5,0,0:0:0:0:
271,109,74041,2,0,B|371:150|371:150|443:233,1,210.000008010865,0|0,0:0|0:0,0:0:0:0:
276,316,74605,5,0,0:0:0:0:
92,206,74792,2,0,B|167:138|167:138|277:108,1,210.000008010865,0|0,0:0|0:0,0:0:0:0:
388,301,75355,5,0,0:0:0:0:
325,170,75542,1,0,0:0:0:0:
319,328,75730,5,8,0:0:0:0:
230,144,75917,1,0,0:0:0:0:
256,352,76105,5,0,0:0:0:0:
140,112,76292,1,0,0:0:0:0:
196,373,76480,5,2,0:0:0:0:
45,61,76667,1,0,0:0:0:0:
265,285,76855,2,0,P|311:296|392:266,1,129.499999505997,0|0,0:0|0:0,0:0:0:0:
416,169,77230,5,2,0:0:0:0:
397,148,77323,1,0,0:0:0:0:
374,131,77417,2,0,P|343:118|329:118,1,35,0|0,0:0|0:0,0:0:0:0:
121,100,77605,5,0,0:0:0:0:
137,139,77698,1,0,0:0:0:0:
166,171,77792,2,0,P|198:187|237:184,1,43.75,0|0,0:0|0:0,0:0:0:0:
379,38,77980,5,2,0:0:0:0:
317,49,78073,1,0,0:0:0:0:
270,90,78166,1,0,0:0:0:0:
266,153,78260,1,0,0:0:0:0:
306,201,78354,1,0,0:0:0:0:
325,261,78448,1,0,0:0:0:0:
298,317,78541,1,0,0:0:0:0:
239,340,78635,1,0,0:0:0:0:
179,320,78729,5,2,0:0:0:0:
145,266,78823,1,0,0:0:0:0:
157,204,78916,1,0,0:0:0:0:
202,165,79010,1,0,0:0:0:0:
266,153,79104,1,0,0:0:0:0:
316,114,79198,1,0,0:0:0:0:
317,49,79291,1,0,0:0:0:0:
271,3,79386,1,0,0:0:0:0:
207,6,79480,6,0,P|152:22|114:75,1,105.000004005432,8|0,0:0|0:0,0:0:0:0:
211,351,79855,1,0,0:0:0:0:
393,24,80042,1,8,0:0:0:0:
55,161,80230,1,0,0:0:0:0:
467,253,80417,1,0,0:0:0:0:
247,34,80605,6,0,B|201:8|201:8|136:0,1,105.000004005432,8|0,0:0|0:0,0:0:0:0:
171,341,80980,1,0,0:0:0:0:
414,124,81167,6,0,B|453:88|453:88|475:41,1,105.000004005432,8|0,0:0|0:0,0:0:0:0:
102,191,81542,1,0,0:0:0:0:
475,342,81730,6,0,B|453:295|453:295|414:260,1,105.000004005432,8|0,0:0|0:0,0:0:0:0:
40,108,82105,6,0,B|61:155|61:155|101:190,1,105.000004005432,8|8,0:0|0:0,0:0:0:0:
151,204,82386,5,8,0:0:0:0:
151,204,82479,1,8,0:0:0:0:
115,18,82667,1,0,0:0:0:0:
343,105,82855,1,0,0:0:0:0:
259,269,83042,2,0,P|212:291|156:268,1,105.000004005432,8|0,0:0|0:0,0:0:0:0:
40,108,83417,5,0,0:0:0:0:
163,275,83605,1,0,0:0:0:0:
276,94,83792,2,0,P|326:62|384:51,1,105.000004005432,8|0,0:0|0:0,0:0:0:0:
423,244,84167,5,0,0:0:0:0:
169,198,84355,1,8,0:0:0:0:
295,327,84542,1,0,0:0:0:0:
374,128,84730,2,0,P|309:161|287:205,1,87.5,8|0,0:0|0:0,0:0:0:0:
223,371,85105,2,0,P|288:338|310:294,1,87.5,8|0,0:0|0:0,0:0:0:0:
290,75,85480,5,8,0:0:0:0:
205,258,85667,1,0,0:0:0:0:
79,61,85855,1,0,0:0:0:0:
347,196,86042,2,0,P|375:243|388:308,1,105.000004005432,8|0,0:0|0:0,0:0:0:0:
127,246,86417,1,0,0:0:0:0:
290,75,86605,1,0,0:0:0:0:
387,291,86792,2,0,P|336:265|270:257,1,105.000004005432,8|0,0:0|0:0,0:0:0:0:
103,332,87167,5,0,0:0:0:0:
289,257,87355,1,8,0:0:0:0:
26,193,87542,1,0,0:0:0:0:
304,116,87730,2,0,P|245:180|235:237,1,105.000004005432,0|0,0:0|0:0,0:0:0:0:
297,379,88105,2,0,P|355:314|365:257,1,105.000004005432,0|0,0:0|0:0,0:0:0:0:
401,50,88480,2,0,B|465:163|355:189|358:302|358:302|423:243|496:273,1,420,6|6,0:0|0:0,0:0:0:0:
496,272,89698,1,4,0:0:0:0:
496,272,89792,1,4,0:0:0:0:
