osu file format v14

[General]
AudioFilename: audio.mp3
AudioLeadIn: 0
PreviewTime: 70144
Countdown: 0
SampleSet: Soft
StackLeniency: 0.7
Mode: 0
LetterboxInBreaks: 0
WidescreenStoryboard: 1

[Editor]
Bookmarks: 13674,24968,47556,71556,99791,111086,116723,133664,157664,180252,185899,197193,219781,225428,248016,259311,264968,275379
DistanceSpacing: 0.8
BeatDivisor: 8
GridSize: 8
TimelineZoom: 1.6

[Metadata]
Title:Romeo to Cinderella
TitleUnicode:ロミオとシンデレラ
Artist:YURiCa/Hanatan
ArtistUnicode:ユリカ/花たん
Creator:pnky
Version:Tragic Love Extra
Source:
Tags:japanese rock j-rock jrock utaite cover doriko kanui -karupa- and Hatsune Miku Project DIVA F 2nd MegaMix Arcade Future Tone Flower Drops
BeatmapID:4012071
BeatmapSetID:1940437

[Difficulty]
HPDrainRate:5.5
CircleSize:4.2
OverallDifficulty:8.6
ApproachRate:9.3
SliderMultiplier:2
SliderTickRate:1

[Events]
//Background and Video events
0,0,"yuriprinces.jpg",0,0
//Break Periods
2,99991,110379
//Storyboard Layer 0 (Background)
//Storyboard Layer 1 (Fail)
//Storyboard Layer 2 (Pass)
//Storyboard Layer 3 (Foreground)
//Storyboard Layer 4 (Overlay)
//Storyboard Sound Samples

[TimingPoints]
2380,352.941176470588,4,2,1,40,1,0
2380,-200,4,2,1,40,0,0
6085,-333.333333333333,4,2,1,40,0,0
6615,-200,4,2,1,40,0,0
8027,-166.666666666667,4,2,1,40,0,0
11909,-111.111111111111,4,2,1,40,0,0
12968,-249.999999999999,4,2,1,35,0,0
13497,-99.9999999999999,4,2,1,35,0,0
13674,-99.9999999999999,4,2,1,70,0,0
14732,-99.9999999999999,4,2,20,70,0,0
14821,-99.9999999999999,4,2,1,70,0,0
15085,-90.9090909090909,4,2,1,70,0,0
15262,-99.9999999999999,4,2,1,70,0,0
15968,-99.9999999999999,4,2,20,70,0,0
16144,-90.9090909090909,4,2,20,70,0,0
16232,-90.9090909090909,4,2,1,70,0,0
16497,-99.9999999999999,4,2,1,70,0,0
17909,-90.9090909090909,4,2,1,70,0,0
18085,-99.9999999999999,4,2,1,70,0,0
18791,-99.9999999999999,4,2,20,70,0,0
19056,-99.9999999999999,4,2,1,70,0,0
20379,-99.9999999999999,4,2,20,70,0,0
20468,-99.9999999999999,4,2,1,70,0,0
20732,-90.9090909090909,4,2,1,70,0,0
21615,-100,4,2,20,70,0,0
21791,-83.3333333333333,4,2,20,70,0,0
21879,-83.3333333333333,4,2,1,70,0,0
22144,-100,4,2,1,70,0,0
23203,-83.3333333333333,4,2,1,70,0,0
23821,-100,4,2,1,70,0,0
24968,-111.111111111111,4,2,1,50,0,0
25674,-117.647058823529,4,2,1,50,0,0
27791,-117.647058823529,4,2,1,50,0,0
30261,-100,4,2,1,50,0,0
30614,-117.647058823529,4,2,1,50,0,0
32378,-117.647058823529,4,2,1,50,0,0
33084,-105.263157894737,4,2,1,50,0,0
33437,-117.647058823529,4,2,1,50,0,0
34320,-95.238095238095,4,2,1,50,0,0
34673,-100,4,2,1,50,0,0
35026,-83.3333333333333,4,2,1,50,0,0
35996,-100,4,2,1,50,0,0
36261,-166.666666666667,4,2,1,50,0,0
36614,-117.647058823529,4,2,1,50,0,0
39084,-105.263157894737,4,2,1,50,0,0
39790,-117.647058823529,4,2,1,50,0,0
40849,-105.263157894737,4,2,1,50,0,0
41555,-86.9565217391304,4,2,1,50,0,0
41907,-105.263157894737,4,2,1,50,0,0
42261,-117.64705882353,4,2,1,50,0,0
42967,-166.666666666667,4,2,1,50,0,0
43320,-117.64705882353,4,2,1,50,0,0
44378,-250,4,2,1,50,0,0
44731,-117.64705882353,4,2,1,50,0,0
45084,-83.3333333333333,4,2,1,50,0,0
45437,-117.64705882353,4,2,1,50,0,0
45967,-100,4,2,1,55,0,0
46320,-83.3333333333333,4,2,1,55,0,0
47026,-86.9565217391304,4,2,1,55,0,0
47555,-86.9565217391304,4,2,1,60,0,0
47908,-105.263157894737,4,2,1,60,0,0
48967,-95.2380952380954,4,2,1,60,0,0
49320,-105.263157894737,4,2,1,60,0,0
49849,-90.9090909090909,4,2,20,60,0,0
50114,-90.9090909090909,4,2,1,60,0,0
50202,-105.263157894737,4,2,1,60,0,0
51614,-86.9565217391306,4,2,1,60,0,0
51967,-83.3333333333333,4,2,1,60,0,0
52849,-105.263157894737,4,2,1,60,0,0
57261,-86.9565217391306,4,2,1,60,0,0
57614,-83.3333333333333,4,2,1,60,0,0
58143,-250,4,2,1,60,0,0
58496,-105.263157894737,4,2,1,60,0,0
58849,-86.9565217391306,4,2,1,60,0,0
59202,-105.263157894737,4,2,1,60,0,0
60261,-95.2380952380954,4,2,1,60,0,0
60614,-105.263157894737,4,2,1,60,0,0
61143,-105.263157894737,4,2,20,60,0,0
61320,-83.3333333333333,4,2,20,60,0,0
61408,-83.3333333333333,4,2,1,60,0,0
61673,-95.2380952380954,4,2,1,60,0,0
62026,-105.263157894737,4,2,1,60,0,0
62908,-86.9565217391306,4,2,1,60,0,0
63261,-83.3333333333333,4,2,1,60,0,0
64496,-105.263157894737,4,2,1,60,0,0
65908,-95.2380952380954,4,2,1,60,0,0
66261,-105.263157894737,4,2,1,60,0,0
67320,-95.2380952380954,4,2,1,60,0,0
67673,-105.263157894737,4,2,1,60,0,0
69084,-71.4285714285714,4,2,1,60,0,0
70143,-250,4,2,20,60,0,0
70761,-250,4,2,20,5,0,0
70849,-83.3333333333333,4,2,1,65,0,0
71556,-76.9230769230769,4,2,1,80,0,1
71908,-83.3333333333333,4,2,1,80,0,1
72614,-90.9090909090909,4,2,1,80,0,1
72790,-83.3333333333333,4,2,1,80,0,1
73143,-90.9090909090909,4,2,1,80,0,1
73849,-71.4285714285714,4,2,20,80,0,1
74114,-71.4285714285714,4,2,1,80,0,1
74378,-83.3333333333333,4,2,1,80,0,1
74731,-90.9090909090909,4,2,1,80,0,1
74908,-83.3333333333333,4,2,1,80,0,1
76673,-76.9230769230769,4,2,20,80,0,1
76938,-76.9230769230769,4,2,1,80,0,1
77555,-83.3333333333333,4,2,1,80,0,1
79496,-83.3333333333333,4,2,20,80,0,1
79761,-83.3333333333333,4,2,1,80,0,1
81437,-76.9230769230769,4,2,1,80,0,1
81967,-71.4285714285714,4,2,1,80,0,1
83202,-83.3333333333333,4,2,1,80,0,1
85143,-71.4285714285714,4,2,20,80,0,1
85408,-71.4285714285714,4,2,1,80,0,1
86026,-83.3333333333333,4,2,1,80,0,1
87967,-76.9230769230769,4,2,20,80,0,1
88232,-76.9230769230769,4,2,1,80,0,1
88849,-83.3333333333333,4,2,1,80,0,1
90437,-76.9230769230769,4,2,1,80,0,1
90790,-83.3333333333333,4,2,20,80,0,1
91055,-83.3333333333333,4,2,1,80,0,1
91320,-76.9230769230769,4,2,1,80,0,1
91496,-83.3333333333333,4,2,1,80,0,1
93084,-71.4285714285714,4,2,1,80,0,1
94144,-76.9230769230769,4,2,1,65,0,0
94496,-100,4,2,1,65,0,0
97673,-83.3333333333333,4,2,1,65,0,0
98379,-66.6666666666667,4,2,1,75,0,1
99791,-100,4,2,1,70,0,0
111085,-142.857142857143,4,2,1,45,0,0
112497,-200,4,2,1,45,0,0
112850,-142.857142857143,4,2,1,45,0,0
114438,-166.666666666667,4,2,1,45,0,0
115321,-133.333333333333,4,2,1,45,0,0
116732,-117.647058823529,4,2,1,50,0,0
118144,-105.263157894737,4,2,1,50,0,0
118497,-117.647058823529,4,2,1,50,0,0
119203,-105.263157894737,4,2,1,50,0,0
120174,-117.647058823529,4,2,1,50,0,0
120438,-95.2380952380951,4,2,1,50,0,0
120791,-100,4,2,1,50,0,0
121144,-83.3333333333333,4,2,1,50,0,0
122379,-166.666666666667,4,2,1,50,0,0
122732,-117.647058823529,4,2,1,50,0,0
126085,-105.263157894737,4,2,1,50,0,0
126262,-117.647058823529,4,2,1,50,0,0
126615,-105.263157894737,4,2,1,50,0,0
127674,-117.647058823529,4,2,1,50,0,0
128027,-100,4,2,1,50,0,0
128556,-117.647058823529,4,2,1,50,0,0
129085,-166.666666666667,4,2,1,50,0,0
129438,-117.647058823529,4,2,1,50,0,0
130497,-250,4,2,1,50,0,0
130850,-117.647058823529,4,2,1,50,0,0
132085,-95.2380952380952,4,2,1,55,0,0
132438,-83.3333333333333,4,2,1,55,0,0
133144,-86.9565217391304,4,2,1,55,0,0
133674,-86.9565217391304,4,2,1,60,0,0
134027,-105.263157894737,4,2,1,60,0,0
135085,-95.2380952380954,4,2,1,60,0,0
135438,-105.263157894737,4,2,1,60,0,0
135968,-90.9090909090909,4,2,20,60,0,0
136232,-90.9090909090909,4,2,1,60,0,0
136497,-105.263157894737,4,2,1,60,0,0
137732,-86.9565217391306,4,2,1,60,0,0
138085,-83.3333333333333,4,2,1,60,0,0
138968,-105.263157894737,4,2,1,60,0,0
143379,-86.9565217391306,4,2,1,60,0,0
143732,-83.3333333333333,4,2,1,60,0,0
144968,-86.9565217391304,4,2,1,60,0,0
145321,-105.263157894737,4,2,1,60,0,0
146379,-95.2380952380954,4,2,1,60,0,0
146732,-105.263157894737,4,2,1,60,0,0
147262,-105.263157894737,4,2,20,60,0,0
147527,-105.263157894737,4,2,1,60,0,0
147791,-95.2380952380954,4,2,1,60,0,0
148144,-105.263157894737,4,2,1,60,0,0
149027,-86.9565217391306,4,2,1,60,0,0
149379,-83.3333333333333,4,2,1,60,0,0
150615,-105.263157894737,4,2,1,60,0,0
152027,-95.2380952380954,4,2,1,60,0,0
152379,-105.263157894737,4,2,1,60,0,0
153438,-90.9090909090909,4,2,1,60,0,0
153791,-105.263157894737,4,2,1,60,0,0
155203,-71.4285714285714,4,2,1,60,0,0
155556,-105.263157894737,4,2,1,60,0,0
156262,-250,4,2,20,60,0,0
156879,-250,4,2,20,5,0,0
156968,-83.3333333333333,4,2,1,65,0,0
157674,-76.9230769230769,4,2,1,80,0,1
157938,-83.3333333333333,4,2,1,80,0,1
158732,-90.9090909090909,4,2,1,80,0,1
158909,-83.3333333333333,4,2,1,80,0,1
159262,-90.9090909090909,4,2,1,80,0,1
159968,-71.4285714285714,4,2,20,80,0,1
160232,-71.4285714285714,4,2,1,80,0,1
160497,-83.3333333333333,4,2,1,80,0,1
160850,-90.9090909090909,4,2,1,80,0,1
161115,-83.3333333333333,4,2,1,80,0,1
162791,-76.9230769230769,4,2,20,80,0,1
163056,-76.9230769230769,4,2,1,80,0,1
163674,-83.3333333333333,4,2,1,80,0,1
165615,-83.3333333333333,4,2,20,80,0,1
165879,-83.3333333333333,4,2,1,80,0,1
167556,-76.9230769230769,4,2,1,80,0,1
167909,-71.4285714285714,4,2,1,80,0,1
169321,-83.3333333333333,4,2,1,80,0,1
171262,-71.4285714285714,4,2,20,80,0,1
171526,-71.4285714285714,4,2,1,80,0,1
172144,-83.3333333333333,4,2,1,80,0,1
174085,-76.9230769230769,4,2,20,80,0,1
174350,-76.9230769230769,4,2,1,80,0,1
174968,-83.3333333333333,4,2,1,80,0,1
176556,-76.9230769230769,4,2,1,80,0,1
176909,-83.3333333333333,4,2,20,80,0,1
177174,-83.3333333333333,4,2,1,80,0,1
177438,-76.9230769230769,4,2,1,80,0,1
177615,-83.3333333333333,4,2,1,80,0,1
178850,-76.9230769230769,4,2,1,80,0,1
179026,-83.3333333333333,4,2,1,80,0,1
179379,-71.4285714285714,4,2,1,80,0,1
180262,-76.9230769230769,4,2,1,65,0,0
180615,-100,4,2,1,65,0,0
184497,-66.6666666666667,4,2,1,75,0,1
185909,-76.9230769230769,4,2,1,75,0,0
186262,-100,4,2,1,75,0,0
188026,-76.9230769230769,4,2,1,75,0,0
188203,-100,4,2,20,75,0,0
188468,-100,4,2,1,75,0,0
191203,-125,4,2,1,75,0,0
191556,-100,4,2,1,75,0,0
192968,-76.9230769230769,4,2,1,75,0,0
193674,-71.4285714285714,4,2,1,75,0,0
194026,-62.5,4,2,1,75,0,0
194379,-76.9230769230769,4,2,1,75,0,0
196850,-100,4,2,1,75,0,0
197203,-125,4,2,21,45,0,0
202674,-125,4,2,1,45,0,0
203556,-125,4,2,21,45,0,0
203644,-125,4,2,1,45,0,0
204615,-125,4,2,21,45,0,0
204703,-125,4,2,1,45,0,0
206026,-125,4,2,21,45,0,0
206556,-125,4,2,1,45,0,0
207085,-111.111111111111,4,2,1,45,0,0
207174,-111.111111111111,4,2,1,5,0,0
207262,-95.2380952380952,4,2,1,48,0,0
207350,-95.2380952380952,4,2,1,5,0,0
207438,-83.3333333333333,4,2,1,51,0,0
207526,-83.3333333333333,4,2,1,5,0,0
207615,-74.0740740740741,4,2,1,54,0,0
207703,-74.0740740740741,4,2,1,5,0,0
207791,-66.6666666666667,4,2,1,57,0,0
207879,-66.6666666666667,4,2,1,5,0,0
207968,-60.6060606060606,4,2,1,60,0,0
208056,-60.6060606060606,4,2,1,5,0,0
208144,-71.4285714285714,4,2,1,50,0,0
208497,-90.9090909090909,4,2,1,65,0,0
208850,-105.263157894737,4,2,1,65,0,0
211321,-95.2380952380954,4,2,1,65,0,0
211674,-105.263157894737,4,2,1,65,0,0
214144,-86.9565217391306,4,2,1,65,0,0
214497,-105.263157894737,4,2,1,65,0,0
216968,-95.2380952380954,4,2,1,65,0,0
217321,-105.263157894737,4,2,1,65,0,0
218379,-80,4,2,1,65,0,0
218732,-95.2380952380954,4,2,1,65,0,0
219791,-83.3333333333333,4,2,1,80,0,1
224027,-83.3333333333333,4,2,1,80,0,0
224732,-83.3333333333333,4,2,1,65,0,0
225438,-71.4285714285714,4,2,1,80,0,1
225791,-83.3333333333333,4,2,1,80,0,1
226497,-90.9090909090909,4,2,1,80,0,1
226674,-83.3333333333333,4,2,1,80,0,1
227026,-90.9090909090909,4,2,1,80,0,1
227732,-71.4285714285714,4,2,20,80,0,1
227997,-71.4285714285714,4,2,1,80,0,1
228262,-76.9230769230769,4,2,1,80,0,1
228615,-83.3333333333333,4,2,1,80,0,1
229674,-76.9230769230769,4,2,1,80,0,1
230203,-83.3333333333333,4,2,1,80,0,1
230556,-76.9230769230769,4,2,20,80,0,1
230821,-76.9230769230769,4,2,1,80,0,1
231438,-83.3333333333333,4,2,1,80,0,1
232497,-76.9230769230769,4,2,1,80,0,1
232850,-83.3333333333333,4,2,1,80,0,1
233379,-83.3333333333333,4,2,20,80,0,1
233644,-83.3333333333333,4,2,1,80,0,1
235321,-76.9230769230769,4,2,1,80,0,1
235850,-71.4285714285714,4,2,1,80,0,1
237085,-83.3333333333333,4,2,1,80,0,1
239026,-71.4285714285714,4,2,20,80,0,1
239291,-71.4285714285714,4,2,1,80,0,1
239909,-83.3333333333333,4,2,1,80,0,1
240968,-76.9230769230769,4,2,1,80,0,1
241321,-83.3333333333333,4,2,1,80,0,1
241850,-76.9230769230769,4,2,20,80,0,1
242115,-76.9230769230769,4,2,1,80,0,1
242732,-83.3333333333333,4,2,1,80,0,1
244674,-83.3333333333333,4,2,20,80,0,1
244938,-83.3333333333333,4,2,1,80,0,1
245203,-76.9230769230769,4,2,1,80,0,1
245379,-83.3333333333333,4,2,1,80,0,1
246968,-71.4285714285714,4,2,1,80,0,1
248026,-166.666666666667,4,2,1,80,0,1
248379,-71.4285714285714,4,2,1,80,0,1
248732,-83.3333333333333,4,2,1,80,0,1
249262,-76.9230769230769,4,2,1,80,0,1
249615,-83.3333333333333,4,2,1,80,0,1
250321,-71.4285714285714,4,2,20,80,0,1
250585,-71.4285714285714,4,2,1,80,0,1
250850,-76.9230769230769,4,2,1,80,0,1
251203,-83.3333333333333,4,2,1,80,0,1
253144,-76.9230769230769,4,2,20,80,0,1
253409,-76.9230769230769,4,2,1,80,0,1
254026,-83.3333333333333,4,2,1,80,0,1
255615,-76.9230769230769,4,2,1,80,0,1
255968,-83.3333333333333,4,2,20,80,0,1
256232,-83.3333333333333,4,2,1,80,0,1
256497,-76.9230769230769,4,2,1,80,0,1
256674,-83.3333333333333,4,2,1,80,0,1
257909,-76.9230769230769,4,2,1,80,0,1
258262,-71.4285714285714,4,2,1,80,0,1
258615,-83.3333333333333,4,2,1,80,0,1
259321,-76.9230769230769,4,2,1,65,0,0
259674,-100,4,2,1,65,0,0
260379,-83.3333333333333,4,2,1,65,0,0
260732,-100,4,2,1,65,0,0
263556,-66.6666666666667,4,2,1,75,0,1
264968,-250,4,2,1,70,0,0
265321,-100,4,2,1,70,0,0
266379,-90.9090909090909,4,2,1,70,0,0
266556,-100,4,2,1,70,0,0
267262,-100,4,2,20,70,0,0
267438,-90.9090909090909,4,2,20,70,0,0
267526,-90.9090909090909,4,2,1,70,0,0
267791,-100,4,2,1,70,0,0
270085,-100,4,2,20,70,0,0
270262,-83.3333333333333,4,2,20,70,0,0
270350,-83.3333333333333,4,2,1,70,0,0
270615,-100,4,2,1,70,0,0
272026,-90.9090909090909,4,2,1,70,0,0
272909,-90.9090909090909,4,2,20,70,0,0
273085,-83.3333333333333,4,2,20,70,0,0
273174,-83.3333333333333,4,2,1,70,0,0
273438,-83.3333333333333,4,2,1,70,0,0
274850,-71.4285714285714,4,2,1,70,0,0

[Colours]
Combo1 : 245,228,163
Combo2 : 192,192,192
Combo3 : 230,200,220
Combo4 : 180,150,190

[HitObjects]
122,253,2380,6,0,B|140:218|133:175|133:175|152:211|198:231,1,150,2|0,0:0|0:0,0:0:0:0:
263,85,3085,2,0,B|233:98|214:134|214:134|221:91|203:56,1,150
322,247,3791,1,2,0:0:0:0:
322,247,3968,2,0,B|323:207|299:171|299:171|331:196|381:194,1,150
447,37,5203,6,0,P|372:41|359:104,1,150,2|0,0:0|0:0,0:0:0:0:
453,193,5909,1,0,0:0:0:0:
468,118,6085,2,0,P|472:155|476:181,1,59.9999981689454
389,255,6615,6,0,P|283:242|173:234,1,200,2|0,0:0|0:0,0:0:0:0:
86,112,7674,2,0,P|97:153|108:201,1,75
84,208,8027,6,0,P|42:237|48:308,1,119.999996337891,2|0,0:0|0:0,0:0:0:0:
167,343,8556,1,0,0:0:0:0:
240,321,8732,2,0,B|181:310|182:289|121:280,1,119.999996337891
302,147,9438,2,0,L|314:207,1,59.9999981689454,2|0,0:0|0:0,0:0:0:0:
319,230,9791,5,0,0:0:0:0:
232,189,9968,1,0,0:0:0:0:
412,71,10144,2,0,P|404:130|398:190,1,119.999996337891
396,48,10850,5,2,0:0:0:0:
247,0,11203,1,0,0:0:0:0:
156,118,11556,5,0,0:0:0:0:
75,144,11732,1,0,0:0:0:0:
16,87,11909,6,0,P|81:98|127:197,1,179.999994506836,0|2,0:0|0:0,0:0:0:0:
72,250,12968,6,0,P|48:258|32:275,1,40,0|0,3:2|1:2,0:0:0:0:
271,156,13321,1,8,0:0:0:0:
340,212,13497,5,0,1:2:0:0:
373,234,13585,1,0,1:2:0:0:
412,223,13674,5,6,3:2:0:0:
331,222,13850,1,0,0:0:0:0:
305,298,14027,1,10,0:0:0:0:
464,384,14203,5,0,0:0:0:0:
461,369,14291,1,0,1:2:0:0:
458,354,14379,1,2,3:2:0:0:
498,273,14556,1,2,3:2:0:0:
416,106,14732,5,8,1:1:0:0:
490,15,14909,2,0,L|481:74,1,50,2|0,0:0|0:0,0:0:0:0:
416,106,15085,6,0,B|389:94|389:94|340:110|340:110|305:98,1,110.000003356934,0|2,3:2|0:0,0:0:0:0:
254,28,15438,1,10,0:0:0:0:
166,164,15615,1,0,3:2:0:0:
73,50,15791,1,2,0:0:0:0:
0,98,15968,1,8,3:1:0:0:
180,250,16144,6,0,P|110:179|55:192,1,165.000005035401,8|0,1:1|0:0,0:0:0:0:
19,234,16497,6,0,L|126:218,1,100,2|0,3:2|0:0,0:0:0:0:
332,190,16850,1,10,0:0:0:0:
293,117,17027,1,0,0:0:0:0:
512,244,17203,5,2,3:2:0:0:
436,214,17379,1,2,3:2:0:0:
352,284,17556,1,10,0:0:0:0:
276,254,17732,2,0,L|265:310,1,50,2|0,0:0|0:0,0:0:0:0:
201,353,17909,6,0,P|156:380|91:359,1,110.000003356934,0|2,3:2|0:0,0:0:0:0:
114,141,18262,1,10,0:0:0:0:
197,221,18438,1,0,3:2:0:0:
0,120,18615,5,2,0:0:0:0:
124,153,18791,1,8,3:1:0:0:
233,43,18968,1,8,1:1:0:0:
386,135,19144,5,0,3:2:0:0:
424,143,19232,1,0,1:2:0:0:
466,112,19321,5,6,3:2:0:0:
512,191,19497,1,0,0:0:0:0:
458,279,19674,1,10,0:0:0:0:
506,355,19850,1,0,0:0:0:0:
345,208,20027,5,2,3:2:0:0:
252,298,20203,1,2,3:2:0:0:
113,143,20379,1,8,1:0:0:0:
21,236,20556,2,0,L|82:221,1,50,2|0,0:0|0:0,0:0:0:0:
113,143,20732,6,0,B|125:108|125:108|104:75|104:75|120:26,1,110.000003356934,0|2,3:2|0:0,0:0:0:0:
299,193,21085,1,10,0:0:0:0:
240,263,21262,2,0,B|252:298|252:298|231:331|231:331|247:380,1,110.000003356934,0|2,3:2|0:0,0:0:0:0:
437,153,21615,2,0,L|446:103,1,50,8|0,3:1|0:0,0:0:0:0:
481,14,21791,6,0,B|436:2|410:47|410:47|410:75|410:75|395:118|349:114,1,179.999994506836,8|0,1:1|0:0,0:0:0:0:
306,67,22144,6,0,P|240:56|203:51,1,100,2|0,3:2|0:0,0:0:0:0:
48,197,22497,1,10,0:0:0:0:
173,153,22674,1,0,0:0:0:0:
207,51,22850,5,2,3:2:0:0:
139,158,23027,1,2,3:2:0:0:
240,306,23203,6,0,L|251:240,1,59.9999981689454,14|0,0:0|0:0,0:0:0:0:
286,173,23379,2,0,L|276:232,1,59.9999981689454,2|0,0:0|0:0,0:0:0:0:
383,346,23556,6,0,B|413:358|413:358|442:358,1,59.9999981689454,0|0,3:2|0:0,0:0:0:0:
274,155,23732,2,0,B|244:143|244:143|215:143,1,59.9999981689454,0|0,1:2|1:2,0:0:0:0:
129,206,23909,1,0,1:2:0:0:
90,196,23997,1,0,1:2:0:0:
42,136,24085,2,0,L|31:81,1,50,0|0,3:2|0:0,0:0:0:0:
13,319,24262,5,4,3:2:0:0:
284,254,24438,5,0,1:2:0:0:
270,301,24527,1,0,1:2:0:0:
292,344,24615,1,0,3:2:0:0:
337,363,24703,1,0,1:2:0:0:
383,346,24791,1,0,1:2:0:0:
449,295,24879,5,0,1:2:0:0:
500,305,24968,1,4,3:2:0:0:
500,305,25321,6,0,P|513:260|485:226,1,89.9999972534181,10|0,0:0|0:0,0:0:0:0:
424,169,25674,1,2,3:2:0:0:
319,265,25850,2,0,B|285:292|238:278|238:278|208:224|156:232,1,170.000003242493,10|2,0:0|3:2,0:0:0:0:
84,270,26379,5,2,0:0:0:0:
156,315,26556,1,0,3:2:0:0:
1,291,26732,2,0,P|42:280|83:269,1,85.0000016212464,10|2,0:0|0:0,0:0:0:0:
244,125,27085,1,0,3:2:0:0:
242,137,27174,1,0,1:2:0:0:
240,149,27262,1,2,3:2:0:0:
146,43,27438,1,10,0:0:0:0:
380,162,27791,5,0,3:2:0:0:
458,128,27968,1,2,0:0:0:0:
352,20,28144,2,0,B|334:33|334:33|314:69|338:102,1,85.0000016212464,10|0,0:0|0:0,0:0:0:0:
433,230,28497,1,2,3:2:0:0:
337,382,28674,6,0,B|378:331|353:269|353:269|326:259|300:240,1,170.000003242493,10|2,0:0|3:2,0:0:0:0:
256,177,29203,1,2,0:0:0:0:
188,300,29379,1,0,3:2:0:0:
104,267,29556,2,0,P|88:214|97:174,1,85.0000016212464,10|2,0:0|0:0,0:0:0:0:
34,5,29909,1,0,3:2:0:0:
40,24,29997,1,0,1:2:0:0:
45,43,30085,1,2,3:2:0:0:
92,185,30262,6,0,B|168:192|161:227|242:237,1,150,10|0,0:0|0:0,0:0:0:0:
269,169,30615,6,0,P|270:108|300:41,1,127.50000243187,4|0,3:2|0:0,0:0:0:0:
330,35,30968,2,0,B|365:41|365:41|385:57|385:57|427:68,1,85.0000016212464,10|2,0:0|0:0,0:0:0:0:
486,17,31321,1,2,3:2:0:0:
376,168,31497,1,0,3:2:0:0:
443,243,31674,2,0,P|498:243|494:163,1,127.50000243187,8|0,0:0|0:0,0:0:0:0:
485,155,32027,6,0,B|465:227|488:256|459:342,1,170.000003242493,0|10,3:2|0:0,0:0:0:0:
443,243,32556,1,2,0:0:0:0:
365,156,32732,1,2,3:2:0:0:
204,162,32909,1,0,3:2:0:0:
130,306,33085,6,0,B|168:336|211:306|211:306|242:256|242:256|284:245,1,189.999994926453,10|2,0:0|3:2,0:0:0:0:
235,329,33615,1,0,0:0:0:0:
284,245,33791,2,0,P|354:291|341:357,1,127.50000243187,8|0,0:0|0:0,0:0:0:0:
315,351,34144,1,2,3:2:0:0:
424,252,34321,2,0,B|434:227|434:227|428:197,1,52.4999983978272,2|0,3:2|0:0,0:0:0:0:
246,131,34497,2,0,B|236:106|236:106|242:76,1,52.4999983978272,10|0,0:0|0:0,0:0:0:0:
361,0,34674,6,0,B|356:29|356:29|360:85|360:85|343:164,1,150,4|0,3:2|0:0,0:0:0:0:
284,245,35027,6,0,L|225:236,1,59.9999981689454,2|0,3:2|0:0,0:0:0:0:
134,242,35203,2,0,L|193:251,1,59.9999981689454,10|0,0:0|0:0,0:0:0:0:
339,378,35379,6,0,L|325:309,1,59.9999981689454,2|0,0:0|0:0,0:0:0:0:
247,102,35556,2,0,L|258:160,1,59.9999981689454,2|0,3:2|0:0,0:0:0:0:
469,218,35732,5,2,0:0:0:0:
464,204,35821,1,0,1:2:0:0:
412,173,35909,1,10,0:0:0:0:
354,180,35997,1,8,0:0:0:0:
326,221,36085,1,8,3:0:0:0:
284,245,36174,1,0,3:0:0:0:
235,241,36262,6,0,P|194:232|139:225,1,89.9999972534181,4|0,3:2|0:0,0:0:0:0:
93,154,36615,6,0,P|73:106|97:77,1,85.0000016212464,10|0,0:0|0:0,0:0:0:0:
168,50,36879,1,0,0:0:0:0:
159,28,36968,1,2,3:2:0:0:
301,104,37144,2,0,B|371:115|359:150|441:165,1,127.50000243187,10|0,0:0|0:0,0:0:0:0:
446,140,37497,1,2,3:2:0:0:
456,27,37674,5,2,0:0:0:0:
379,89,37850,1,0,3:2:0:0:
473,222,38027,2,0,L|481:273,1,42.5000008106232,10|0,0:0|0:0,0:0:0:0:
436,341,38203,1,2,0:0:0:0:
346,319,38379,1,0,0:0:0:0:
224,384,38556,6,0,L|232:333,1,42.5000008106232,2|0,3:2|0:0,0:0:0:0:
187,265,38732,1,10,0:0:0:0:
97,275,38909,1,2,3:2:0:0:
233,128,39085,6,0,P|259:213|187:265,2,189.999994926453,0|10|2,3:2|0:0|3:2,0:0:0:0:
60,57,39968,2,0,B|51:104|51:104|67:143,1,85.0000016212464,10|0,2:2|0:0,0:0:0:0:
155,171,40321,1,2,3:2:0:0:
277,30,40497,1,2,0:0:0:0:
373,66,40674,1,0,3:2:0:0:
472,6,40850,6,0,B|391:18|391:18|368:33|368:33|286:44,1,189.999994926453,10|0,0:0|0:0,0:0:0:0:
259,64,41291,1,0,1:2:0:0:
246,96,41379,1,2,3:2:0:0:
252,131,41468,1,0,3:2:0:0:
276,156,41556,6,0,P|306:163|333:171,1,57.5000010967255,10|0,0:0|0:0,0:0:0:0:
498,271,41732,2,0,P|469:276|442:295,1,57.5000010967255,2|0,0:0|0:0,0:0:0:0:
358,384,41909,6,0,B|299:370|299:370|279:315|279:315|199:298,1,189.999994926453,4|10,3:2|0:0,0:0:0:0:
65,238,42438,1,2,0:0:0:0:
117,319,42615,1,2,3:2:0:0:
301,282,42791,1,0,3:2:0:0:
321,277,42879,1,0,3:0:0:0:
341,272,42968,2,0,B|384:281|386:311|427:321,1,89.9999972534181,8|0,0:0|0:0,0:0:0:0:
453,307,43321,6,0,P|489:257|446:155,2,170.000003242493,0|10|2,3:2|0:0|3:2,0:0:0:0:
362,179,44203,1,0,3:2:0:0:
500,24,44379,6,0,L|509:90,1,60,10|0,0:0|0:0,0:0:0:0:
512,104,44732,5,2,3:2:0:0:
373,60,44909,1,0,3:2:0:0:
216,194,45085,6,0,B|170:221|118:194|118:194|102:165|102:165|53:127|-1:152,1,239.999992675781,12|8,0:0|3:3,0:0:0:0:
20,300,45615,1,0,3:2:0:0:
69,307,45703,1,0,1:2:0:0:
103,273,45791,1,10,0:0:0:0:
246,58,45968,6,0,P|310:81|398:83,1,150,4|0,3:2|0:0,0:0:0:0:
484,78,46321,6,0,L|423:65,1,59.9999981689454,2|0,3:2|0:0,0:0:0:0:
334,164,46497,2,0,L|273:151,1,59.9999981689454,10|0,0:0|0:0,0:0:0:0:
480,262,46674,6,0,L|464:194,1,59.9999981689454,2|0,0:0|0:0,0:0:0:0:
395,58,46850,2,0,L|381:0,1,59.9999981689454,2|0,3:2|0:0,0:0:0:0:
193,125,47027,5,2,1:2:0:0:
144,152,47115,1,0,1:2:0:0:
130,206,47203,1,10,2:2:0:0:
161,253,47291,1,8,2:2:0:0:
251,264,47379,5,2,3:2:0:0:
251,264,47468,1,0,3:2:0:0:
251,264,47556,2,0,B|173:265|191:337|87:343,1,172.500003290176,6|0,3:2|0:0,0:0:0:0:
72,332,47909,2,0,L|60:281,1,47.4999987316132,10|0,0:0|0:0,0:0:0:0:
0,227,48085,1,2,0:0:0:0:
192,125,48262,5,0,3:2:0:0:
122,15,48438,1,2,3:2:0:0:
192,125,48615,2,0,L|206:63,1,47.4999987316132,10|0,0:0|0:0,0:0:0:0:
223,0,48791,1,2,0:0:0:0:
469,74,48968,6,0,P|382:66|344:129,1,157.499995193482,2|0,3:2|0:0,0:0:0:0:
316,138,49321,2,0,L|332:202,1,47.4999987316132,10|0,0:0|0:0,0:0:0:0:
440,217,49497,1,2,1:2:0:0:
407,198,49585,1,0,1:0:0:0:
369,204,49674,1,0,3:2:0:0:
216,348,49850,6,0,L|274:336,1,55.0000016784668,8|0,3:1|0:0,0:0:0:0:
391,287,50027,2,0,L|337:298,1,55.0000016784668,8|0,1:1|0:0,0:0:0:0:
170,215,50203,5,2,3:2:0:0:
170,215,50291,1,0,1:0:0:0:
170,215,50379,2,0,B|182:292|115:282|129:370,1,142.49999619484,2|0,3:2|0:0,0:0:0:0:
106,372,50732,2,0,P|97:338|87:306,1,47.4999987316132,10|0,0:0|0:0,0:0:0:0:
25,265,50909,1,2,0:0:0:0:
216,348,51085,5,0,3:2:0:0:
309,257,51262,1,2,3:2:0:0:
505,358,51438,5,10,0:0:0:0:
465,383,51527,1,0,1:2:0:0:
419,369,51615,2,0,B|410:308|391:234|391:234|441:221|479:202,1,230.000004386902,6|2,3:2|3:2,0:0:0:0:
512,117,52144,6,0,P|475:109|442:104,1,59.9999981689454,10|0,0:0|0:0,0:0:0:0:
286,79,52321,1,2,3:2:0:0:
226,163,52497,6,0,P|189:171|156:176,1,59.9999981689454,8|0,0:0|0:0,0:0:0:0:
0,201,52674,1,2,3:2:0:0:
87,126,52850,2,0,P|154:133|228:144,1,142.49999619484,8|0,0:0|0:0,0:0:0:0:
326,177,53203,6,0,P|250:181|208:277,2,189.999994926453,6|10|0,3:2|0:0|3:2,0:0:0:0:
409,116,54085,1,2,3:2:0:0:
512,173,54262,2,0,P|467:155|417:139,1,94.9999974632264,10|2,0:0|0:0,0:0:0:0:
418,342,54615,6,0,P|374:258|326:177,2,189.999994926453,2|8|0,3:2|0:0|3:2,0:0:0:0:
334,384,55497,1,2,3:2:0:0:
210,242,55674,1,10,0:0:0:0:
88,271,55850,1,2,0:0:0:0:
52,361,56027,5,2,3:2:0:0:
52,361,56203,1,0,3:2:0:0:
52,361,56379,2,0,B|68:306|68:306|60:278|60:278|75:215,1,142.49999619484,10|0,0:0|0:0,0:0:0:0:
37,195,56732,2,0,L|25:144,1,47.4999987316132,0|0,3:2|0:0,0:0:0:0:
145,29,56909,5,0,1:0:0:0:
159,37,56997,1,0,1:2:0:0:
211,23,57085,1,8,2:2:0:0:
256,53,57174,1,8,0:0:0:0:
335,36,57262,6,0,P|291:78|283:186,1,172.500003290176,4|0,3:2|0:0,0:0:0:0:
354,227,57615,6,0,L|415:215,1,59.9999981689454,2|0,3:2|0:0,0:0:0:0:
251,276,57791,2,0,L|190:288,1,59.9999981689454,10|0,0:0|0:0,0:0:0:0:
403,314,57968,6,0,L|464:302,1,59.9999981689454,2|0,3:2|0:0,0:0:0:0:
192,193,58144,6,0,L|131:205,1,59.9999981689454,12|0,3:3|0:0,0:0:0:0:
51,232,58497,6,0,L|109:239,1,47.4999987316132,10|0,0:0|0:0,0:0:0:0:
259,304,58674,2,0,L|317:311,1,47.4999987316132,12|0,3:3|0:0,0:0:0:0:
428,235,58850,6,0,B|469:207|471:149|446:117|446:117|405:89,1,172.500003290176,6|0,3:2|0:0,0:0:0:0:
351,40,59203,6,0,L|365:99,1,47.4999987316132,10|0,0:0|0:0,0:0:0:0:
384,168,59379,1,2,0:0:0:0:
259,304,59556,5,0,3:2:0:0:
214,183,59732,1,2,3:2:0:0:
98,237,59909,2,0,L|39:223,1,47.4999987316132,10|0,0:0|0:0,0:0:0:0:
164,306,60085,1,2,0:0:0:0:
242,77,60262,6,0,P|144:101|128:149,1,157.499995193482,2|0,3:2|0:0,0:0:0:0:
151,170,60615,2,0,L|209:158,1,47.4999987316132,10|0,0:0|0:0,0:0:0:0:
301,212,60791,1,2,1:2:0:0:
330,235,60879,1,0,1:2:0:0:
367,225,60968,1,0,3:2:0:0:
411,115,61144,6,0,L|420:68,1,47.4999987316132,8|0,3:1|0:0,0:0:0:0:
483,285,61321,2,0,L|496:218,1,59.9999981689454,8|0,1:1|0:0,0:0:0:0:
416,133,61497,1,2,0:0:0:0:
492,6,61674,6,0,B|443:-6|443:-6|414:26|414:26|340:40,1,157.499995193482,2|0,3:2|0:0,0:0:0:0:
316,69,62027,2,0,L|250:57,1,47.4999987316132,10|0,0:0|0:0,0:0:0:0:
149,36,62203,1,2,0:0:0:0:
256,156,62379,5,0,3:2:0:0:
54,201,62556,1,2,3:2:0:0:
188,285,62732,2,0,L|182:333,1,47.4999987316132,10|0,0:0|0:0,0:0:0:0:
79,343,62909,6,0,B|115:355|115:355|265:304|265:304|306:319,1,230.000004386902,6|2,3:2|3:2,0:0:0:0:
376,384,63438,6,0,P|381:348|387:321,1,59.9999981689454,10|0,0:0|0:0,0:0:0:0:
437,150,63615,1,2,3:2:0:0:
349,236,63791,6,0,P|344:200|338:173,1,59.9999981689454,8|0,0:0|0:0,0:0:0:0:
288,2,63968,1,2,0:0:0:0:
133,133,64144,5,0,3:2:0:0:
182,129,64232,1,0,3:2:0:0:
223,156,64321,1,2,1:2:0:0:
240,202,64409,1,0,1:2:0:0:
211,274,64497,6,0,B|170:244|128:258|128:258|95:318|16:317,2,189.999994926453,6|8|0,3:2|0:0|3:2,0:0:0:0:
107,225,65379,1,2,3:2:0:0:
211,274,65556,2,0,P|256:297|313:298,1,94.9999974632264,8|2,0:0|0:0,0:0:0:0:
471,141,65909,6,0,B|432:126|392:155|392:155|368:183|368:183|329:216|278:204,1,209.999993591309,2|10,3:2|0:0,0:0:0:0:
208,149,66438,1,2,0:0:0:0:
324,66,66615,5,0,3:2:0:0:
270,211,66791,1,2,3:2:0:0:
406,371,66968,6,0,P|401:342|396:321,1,47.4999987316132,8|0,0:0|0:0,0:0:0:0:
299,300,67144,1,2,1:2:0:0:
252,288,67232,1,0,1:2:0:0:
212,313,67321,2,0,B|150:320|148:375|55:379,1,157.499995193482,4|2,3:2|0:0,0:0:0:0:
47,351,67674,2,0,P|102:359|152:376,1,94.9999974632264,10|2,0:0|0:0,0:0:0:0:
510,227,68027,5,2,3:2:0:0:
397,183,68203,1,2,3:2:0:0:
299,300,68379,5,10,0:0:0:0:
88,244,68556,1,2,3:2:0:0:
325,310,68732,5,12,0:0:0:0:
145,68,68909,1,2,3:2:0:0:
219,384,69085,6,0,P|207:280|181:156,1,209.999993591309,14|0,0:0|0:0,0:0:0:0:
151,85,69438,1,0,3:2:0:0:
387,240,69615,5,2,0:0:0:0:
414,233,69703,1,0,1:2:0:0:
466,172,69791,5,8,0:0:0:0:
458,116,69879,1,0,1:2:0:0:
410,85,69968,1,0,3:0:0:0:
356,100,70056,1,0,3:2:0:0:
302,159,70144,6,2,B|272:145|272:145|219:191|219:191|185:176,1,140,10|0,2:1|0:1,0:1:0:0:
106,66,70850,5,8,3:3:0:0:
55,74,70938,1,0,3:2:0:0:
29,118,71027,1,4,3:3:0:0:
45,166,71115,1,0,1:2:0:0:
113,201,71203,6,0,L|126:264,1,59.9999981689454,8|0,0:0|0:0,0:0:0:0:
286,363,71379,5,0,1:2:0:0:
314,323,71468,1,0,1:2:0:0:
296,286,71556,2,0,B|251:272|251:272|202:307|202:307|173:352|126:352,1,194.999991073609,6|0,3:2|0:0,0:0:0:0:
22,250,71909,2,0,P|76:228|125:259,1,119.999996337891,10|0,0:0|0:0,0:0:0:0:
43,380,72262,5,2,3:2:0:0:
234,236,72438,1,0,3:2:0:0:
378,275,72615,2,0,P|414:279|440:287,1,55.0000016784668,10|0,2:2|0:0,0:0:0:0:
484,168,72791,6,0,B|442:140|398:162|398:162|363:209|313:202,1,179.999994506836,2|0,3:2|0:0,0:0:0:0:
378,275,73144,2,0,P|414:279|440:287,1,55.0000016784668,2|0,3:2|0:0,0:0:0:0:
269,125,73321,2,0,P|305:120|331:113,1,55.0000016784668,8|0,0:0|0:0,0:0:0:0:
211,242,73497,5,2,0:0:0:0:
114,295,73674,1,0,3:2:0:0:
39,192,73850,6,0,L|118:199,1,69.9999978637696,8|0,3:1|0:0,0:0:0:0:
316,286,74027,2,0,L|395:293,1,69.9999978637696,8|0,1:1|0:0,0:0:0:0:
512,174,74203,5,0,1:0:0:0:
462,157,74291,1,0,1:0:0:0:
420,191,74379,2,0,B|409:259|409:259|436:300|436:300|446:335|426:363,1,179.999994506836,2|0,3:2|0:0,0:0:0:0:
338,376,74732,2,0,B|307:368|302:338|302:338|316:286,1,110.000003356934,8|2,0:0|0:0,0:0:0:0:
272,203,74997,1,0,0:0:0:0:
258,192,75085,2,0,B|198:186|198:237|133:229,1,119.999996337891,0|0,3:2|3:2,0:0:0:0:
111,138,75438,5,10,0:0:0:0:
236,283,75615,1,0,0:0:0:0:
72,372,75791,6,0,B|98:277|10:287|50:181,1,179.999994506836,2|0,3:2|0:0,0:0:0:0:
111,138,76144,2,0,L|99:75,1,59.9999981689454,8|0,0:0|0:0,0:0:0:0:
48,0,76321,2,0,P|-7:23|1:77,1,119.999996337891,2|0,3:2|0:0,0:0:0:0:
174,150,76674,6,0,P|143:142|111:138,1,64.9999970245363,8|0,3:1|0:0,0:0:0:0:
4,314,76850,2,0,P|35:305|67:301,1,64.9999970245363,8|0,1:0|0:0,0:0:0:0:
218,375,77027,1,0,3:2:0:0:
253,384,77115,1,0,1:0:0:0:
299,325,77203,6,0,B|266:222|266:222|252:311,1,194.999991073609,6|0,3:2|0:0,0:0:0:0:
174,302,77556,2,0,P|140:252|165:187,1,119.999996337891,8|2,0:0|0:0,0:0:0:0:
217,130,77821,1,0,2:0:0:0:
236,134,77909,1,0,3:2:0:0:
100,52,78085,5,0,3:2:0:0:
96,69,78174,1,2,0:0:0:0:
92,86,78262,1,10,2:2:0:0:
243,219,78438,1,0,0:0:0:0:
473,41,78615,6,0,B|387:53|387:53|376:59|376:59|280:75,1,179.999994506836,2|0,3:2|0:0,0:0:0:0:
366,34,78968,2,0,B|378:64|378:64|373:97,1,59.9999981689454,8|0,0:0|0:0,0:0:0:0:
243,219,79144,6,0,B|334:229|324:271|412:281,1,179.999994506836,2|0,3:2|0:0,0:0:0:0:
469,221,79497,2,0,L|479:161,1,59.9999981689454,8|0,3:1|0:0,0:0:0:0:
317,363,79674,2,0,L|327:303,1,59.9999981689454,8|0,1:1|0:0,0:0:0:0:
243,219,79850,1,0,3:2:0:0:
117,299,80027,6,0,P|61:307|23:361,1,119.999996337891,2|0,3:2|0:0,0:0:0:0:
139,181,80379,2,0,B|157:116|116:143|137:53,1,119.999996337891,8|2,0:0|0:0,0:0:0:0:
89,125,80644,1,0,1:0:0:0:
67,130,80732,1,0,3:2:0:0:
207,11,80909,5,0,3:2:0:0:
253,0,80997,1,2,0:0:0:0:
286,34,81085,1,10,0:0:0:0:
139,181,81262,2,0,P|175:171|212:163,1,59.9999981689454
410,11,81438,6,0,B|400:56|400:56|371:85|371:85|361:133,1,129.999994049073,6|0,3:2|0:0,0:0:0:0:
479,203,81703,1,8,2:2:0:0:
455,129,81791,1,10,0:0:0:0:
279,316,81968,6,0,B|327:247|402:270|402:270|443:313|491:300,1,209.999993591309,6|0,3:2|0:0,0:0:0:0:
479,203,82321,1,2,3:2:0:0:
264,341,82497,1,14,0:0:0:0:
130,97,82674,1,0,1:0:0:0:
134,63,82762,1,0,1:0:0:0:
212,47,82850,6,0,B|215:81|226:125|226:125|160:136|92:165,1,209.999993591309,6|0,3:2|0:0,0:0:0:0:
21,240,83203,2,0,P|82:246|117:296,1,119.999996337891,10|0,2:2|0:0,0:0:0:0:
128,378,83556,5,2,3:2:0:0:
329,261,83732,1,0,3:2:0:0:
475,352,83909,2,0,P|446:342|414:338,1,59.9999981689454,10|0,2:0|0:0,0:0:0:0:
332,371,84085,6,0,P|320:300|306:240,1,119.999996337891,0|2,3:2|0:0,0:0:0:0:
421,96,84438,1,0,3:2:0:0:
171,124,84615,2,0,B|242:139|219:172|294:187,1,119.999996337891,8|2,0:0|0:0,0:0:0:0:
346,149,84879,1,0,1:2:0:0:
350,132,84968,1,0,3:2:0:0:
218,323,85144,6,0,P|225:288|229:254,1,69.9999978637696,8|0,2:1|0:0,0:0:0:0:
292,20,85321,2,0,P|284:54|280:88,1,69.9999978637696,8|0,1:1|0:0,0:0:0:0:
80,246,85497,5,0,1:2:0:0:
129,244,85585,1,0,1:2:0:0:
163,208,85674,2,0,B|170:164|126:145|126:145|60:163|-10:176,1,209.999993591309,2|0,3:2|0:0,0:0:0:0:
24,151,86027,2,0,P|9:209|1:277,1,119.999996337891,8|2,0:0|0:0,0:0:0:0:
68,358,86291,1,0,1:2:0:0:
81,368,86379,2,0,P|151:353|168:306,1,119.999996337891,0|0,3:2|3:2,0:0:0:0:
256,142,86732,5,10,0:0:0:0:
80,246,86909,1,0,0:0:0:0:
272,371,87085,6,0,B|315:384|357:350|357:350|400:315|440:330,1,179.999994506836,2|0,3:2|0:0,0:0:0:0:
471,371,87438,2,0,L|482:310,1,59.9999981689454,8|0,0:0|0:0,0:0:0:0:
274,163,87615,2,0,B|268:195|268:195|279:221|279:221|294:290,1,119.999996337891,2|0,3:2|0:0,0:0:0:0:
132,270,87968,6,0,L|202:255,1,64.9999970245363,8|0,3:1|0:0,0:0:0:0:
425,201,88144,2,0,L|361:187,1,64.9999970245363,8|0,1:1|0:0,0:0:0:0:
232,38,88321,1,0,3:2:0:0:
219,71,88409,1,0,1:2:0:0:
280,126,88497,6,0,B|268:195|268:195|295:249|295:249|286:322,1,194.999991073609,6|0,3:2|0:0,0:0:0:0:
215,371,88850,2,0,B|151:385|151:385|117:371|112:332,1,119.999996337891,8|2,0:0|0:0,0:0:0:0:
132,270,89115,1,0,2:2:0:0:
127,247,89203,1,0,3:2:0:0:
32,72,89379,5,0,3:2:0:0:
0,108,89468,1,2,0:0:0:0:
10,154,89556,2,0,P|44:162|77:170,1,59.9999981689454,10|0,2:2|0:0,0:0:0:0:
159,88,89732,1,0,0:0:0:0:
275,257,89909,6,0,P|367:229|480:211,1,179.999994506836,2|0,3:2|0:0,0:0:0:0:
512,142,90262,1,8,0:0:0:0:
329,0,90438,6,0,P|256:63|287:149,1,194.999991073609,6|0,3:2|0:0,0:0:0:0:
315,155,90791,2,0,L|304:93,1,59.9999981689454,8|0,3:1|0:0,0:0:0:0:
459,273,90968,2,0,L|448:211,1,59.9999981689454,8|0,1:1|0:0,0:0:0:0:
295,376,91144,1,0,3:2:0:0:
182,307,91321,6,0,B|124:324|134:361|56:369,1,129.999994049073,6|0,3:2|0:0,0:0:0:0:
308,243,91674,2,0,P|322:187|283:146,1,119.999996337891,8|2,2:2|0:0,0:0:0:0:
223,203,91938,1,0,1:2:0:0:
202,209,92027,1,0,3:2:0:0:
7,102,92203,5,0,3:2:0:0:
57,84,92291,1,2,0:0:0:0:
97,120,92379,1,10,0:0:0:0:
26,238,92556,2,0,P|33:202|41:173,1,59.9999981689454,0|0,3:2|0:0,0:0:0:0:
85,2,92732,5,10,0:0:0:0:
202,209,92909,1,0,3:2:0:0:
42,384,93085,2,0,P|31:320|8:236,2,139.999995727539,14|2|0,0:0|0:0|3:2,0:0:0:0:
256,140,93615,5,8,2:3:0:0:
301,172,93703,1,8,2:3:0:0:
353,152,93791,1,8,2:3:0:0:
381,99,93879,1,12,2:3:0:0:
433,79,93968,1,12,2:3:0:0:
478,111,94056,1,12,2:3:0:0:
512,192,94144,6,0,B|471:177|436:214|436:214|426:245|426:245|397:285|357:278,1,194.999991073609,4|0,3:2|0:0,0:0:0:0:
340,258,94497,2,0,L|396:268,1,50,8|0,0:0|0:0,0:0:0:0:
474,326,94674,1,0,0:0:0:0:
332,384,94850,1,0,3:2:0:0:
166,187,95027,1,0,3:2:0:0:
214,275,95203,2,0,P|194:321|94:348,1,150,8|0,0:0|0:0,0:0:0:0:
65,329,95556,6,0,B|48:282|79:275|62:210,1,100,0|0,3:2|0:0,0:0:0:0:
168,104,95909,2,0,P|139:144|140:194,1,100,8|0,0:0|0:0,0:0:0:0:
267,180,96262,2,0,P|239:174|209:168,1,50,0|0,3:2|0:0,0:0:0:0:
74,49,96438,2,0,P|102:43|132:37,1,50,0|0,3:2|0:0,0:0:0:0:
226,0,96615,2,0,B|284:12|284:12|312:41|312:41|376:56,1,150,8|0,0:0|0:0,0:0:0:0:
398,34,96968,5,0,3:2:0:0:
471,146,97144,1,0,3:2:0:0:
288,257,97321,2,0,P|277:161|267:96,1,150,8|0,0:0|0:0,0:0:0:0:
240,89,97674,6,0,P|216:114|226:141,1,59.9999981689454,0|0,3:2|0:0,0:0:0:0:
366,243,97850,5,8,1:2:0:0:
397,272,97938,1,8,0:0:0:0:
385,312,98027,2,0,P|355:320|328:330,1,59.9999981689454,8|0,0:0|1:2,0:0:0:0:
118,380,98203,5,0,1:2:0:0:
115,362,98291,1,0,1:2:0:0:
111,344,98379,2,0,B|106:304|72:285|72:285|60:234|107:203,1,150.000005722046,10|0,0:0|0:0,0:0:0:0:
25,74,98644,2,0,B|83:85|83:85|105:122|105:122|169:140,1,150.000005722046,6|0,3:2|0:0,0:0:0:0:
207,0,98909,2,0,B|168:-6|168:-6|134:22,1,75.0000028610231,2|0,3:2|0:0,0:0:0:0:
28,159,99085,1,2,3:2:0:0:
406,364,99350,5,6,3:2:0:0:
428,316,99438,1,0,1:0:0:0:
397,272,99527,1,0,1:0:0:0:
343,215,99615,5,2,1:2:0:0:
349,181,99703,1,0,1:2:0:0:
408,127,99791,5,6,3:2:0:0:
88,244,111085,6,0,P|103:239|226:217,1,139.999995727539,4|0,3:2|0:0,0:0:0:0:
372,138,111615,1,8,3:2:0:0:
361,128,111703,2,0,B|331:138|296:143|296:143|310:195|312:253,1,174.999994659424,0|0,3:2|0:0,0:0:0:0:
216,362,112356,2,0,L|224:326,1,27.9999991455078,0|0,1:2|1:2,1:2:0:0:
235,338,112497,2,0,B|276:332|276:332|300:342|300:342|339:335,1,100,0|0,3:2|0:0,0:0:0:0:
488,200,113027,2,0,P|449:253|404:241,1,104.999996795654,4|0,0:3|0:0,0:0:0:0:
397,226,113379,5,8,3:3:0:0:
269,161,113556,1,0,3:2:0:0:
177,242,113732,5,12,3:3:0:0:
48,272,113909,1,4,3:3:0:0:
48,272,114438,6,0,B|9:192|72:180|30:95,1,179.999994506836,0|0,3:2|0:0,0:0:0:0:
163,0,115144,1,0,1:2:0:0:
131,32,115232,1,0,1:2:0:0:
141,76,115321,2,0,B|208:89|183:114|262:129,1,112.500004291535,0|0,3:2|0:0,0:0:0:0:
270,113,115674,2,0,P|277:93|288:73,1,37.5000014305115,10|0,0:0|0:0,0:0:0:0:
386,42,115850,5,2,0:0:0:0:
475,192,116027,1,0,3:2:0:0:
391,300,116203,5,8,0:0:0:0:
366,294,116291,1,0,1:2:0:0:
297,329,116379,5,8,0:0:0:0:
272,335,116468,1,8,0:0:0:0:
122,280,116644,5,0,1:2:0:0:
88,268,116732,2,0,P|31:300|42:355,1,127.50000243187,4|0,3:2|0:0,0:0:0:0:
70,373,117085,2,0,B|66:338|66:338|59:322|59:322|53:279,1,85.0000016212464,10|2,0:0|2:2,0:0:0:0:
167,182,117438,1,2,3:2:0:0:
0,114,117615,1,0,3:2:0:0:
79,53,117791,2,0,B|115:70|106:114|106:114|78:143|77:172,1,127.50000243187,8|0,0:0|0:0,0:0:0:0:
91,192,118144,6,0,B|167:182|167:182|203:206|203:206|272:196,1,189.999994926453,0|10,3:2|0:0,0:0:0:0:
345,77,118674,1,2,1:2:0:0:
311,72,118762,1,0,1:0:0:0:
289,98,118850,1,2,3:2:0:0:
366,202,119027,1,0,3:2:0:0:
260,366,119203,6,0,B|238:341|248:304|248:304|277:270|277:270|299:226|272:196,1,189.999994926453,10|2,0:0|3:2,0:0:0:0:
199,133,119732,1,0,3:2:0:0:
272,196,119909,2,0,B|255:269|301:270|286:340,1,142.49999619484,12|0,0:0|0:0,0:0:0:0:
260,366,120262,5,8,3:3:0:0:
217,340,120350,1,4,2:3:0:0:
171,359,120438,1,4,0:3:0:0:
129,333,120527,1,0,3:2:0:0:
58,360,120615,6,0,B|51:333|51:333|60:304,1,52.4999983978272,10|8,0:0|0:0,0:0:0:0:
11,159,120791,6,0,B|87:172|58:223|143:239,1,150,4|0,3:2|0:0,0:0:0:0:
209,141,121144,6,0,L|136:153,1,59.9999981689454,2|0,3:2|0:0,0:0:0:0:
52,89,121321,2,0,L|111:79,1,59.9999981689454,10|0,0:0|0:0,0:0:0:0:
285,27,121497,6,0,L|271:97,1,59.9999981689454,2|0,3:2|0:0,0:0:0:0:
211,299,121674,2,0,L|229:218,2,79.9999975585938,10|0|0,3:2|3:2|3:2,0:0:0:0:
401,169,122027,5,8,0:3:0:0:
444,189,122115,1,8,0:3:0:0:
456,236,122203,1,4,0:3:0:0:
425,273,122291,1,4,0:3:0:0:
420,352,122379,6,0,P|454:351|484:325,1,59.9999981689454,4|2,3:2|0:0,0:0:0:0:
309,206,122732,2,0,P|322:247|334:298,1,85.0000016212464,10|0,0:0|0:0,0:0:0:0:
308,360,122997,1,0,0:0:0:0:
294,371,123085,1,2,3:2:0:0:
114,245,123262,2,0,P|156:254|242:277,1,127.50000243187,10|0,0:0|0:0,0:0:0:0:
256,303,123615,1,2,3:2:0:0:
309,206,123791,5,2,0:0:0:0:
199,126,123968,1,0,3:2:0:0:
379,20,124144,2,0,L|371:72,1,42.5000008106232,10|0,0:0|0:0,0:0:0:0:
300,116,124321,1,2,0:0:0:0:
207,39,124497,5,0,3:2:0:0:
240,44,124585,1,0,1:2:0:0:
266,22,124674,1,2,3:2:0:0:
437,127,124850,2,0,L|445:179,1,42.5000008106232,10|0,0:0|0:0,0:0:0:0:
358,239,125027,5,2,3:2:0:0:
345,216,125115,1,0,1:2:0:0:
361,196,125203,2,0,B|430:208|418:240|490:257,1,127.50000243187,0|0,3:2|0:0,0:0:0:0:
506,236,125556,2,0,L|512:193,1,42.5000008106232,10|0,0:0|0:0,0:0:0:0:
397,319,125732,1,0,0:0:0:0:
218,177,125909,1,2,3:2:0:0:
218,177,125997,1,8,2:0:0:0:
218,177,126085,2,0,B|182:184|182:184|160:202|160:202|123:212,1,94.9999974632264,10|0,0:0|0:0,0:0:0:0:
226,264,126438,1,2,3:2:0:0:
112,122,126615,5,2,0:0:0:0:
64,319,126791,1,0,3:2:0:0:
33,236,126968,6,0,B|77:214|119:248|119:248|133:273|133:273|174:307|214:289,1,189.999994926453,10|0,0:0|3:2,0:0:0:0:
226,264,127409,2,0,P|228:237|231:217,1,47.4999987316132,0|2,1:2|3:2,0:0:0:0:
413,75,127674,2,0,P|424:122|434:176,1,85.0000016212464,10|0,0:0|0:0,0:0:0:0:
394,257,127938,5,0,1:0:0:0:
371,268,128027,2,0,B|354:231|391:195|391:195|523:219,1,200,4|10,3:2|0:0,0:0:0:0:
403,357,128556,1,2,3:2:0:0:
403,357,128644,1,0,3:2:0:0:
403,357,128732,2,0,L|314:369,1,85.0000016212464,2|0,3:2|3:2,0:0:0:0:
279,218,129085,2,0,B|241:235|249:265|206:279,1,89.9999972534181,8|0,0:0|0:0,0:0:0:0:
183,303,129438,6,0,P|99:258|28:271,2,170.000003242493,0|10|2,3:2|0:0|3:2,0:0:0:0:
279,218,130321,1,0,3:2:0:0:
146,78,130497,6,0,L|159:140,1,60,10|0,0:0|0:0,0:0:0:0:
166,165,130850,5,2,3:2:0:0:
378,110,131027,1,0,3:2:0:0:
273,8,131203,5,8,0:0:0:0:
512,51,131379,1,2,3:2:0:0:
298,167,131556,5,10,0:0:0:0:
279,218,131644,1,8,0:3:0:0:
307,265,131732,1,8,0:3:0:0:
362,273,131821,1,8,0:3:0:0:
423,213,131909,5,8,3:3:0:0:
423,213,131997,1,8,3:3:0:0:
423,213,132085,2,0,B|407:268|407:268|429:311|429:311|413:364,1,157.499995193482,4|0,3:2|0:0,0:0:0:0:
313,375,132438,6,0,L|253:367,1,59.9999981689454,2|0,3:2|0:0,0:0:0:0:
178,318,132615,2,0,L|238:326,1,59.9999981689454,10|0,0:0|0:0,0:0:0:0:
163,136,132791,6,0,L|148:194,1,59.9999981689454,2|0,3:2|0:0,0:0:0:0:
62,384,132968,2,0,L|77:323,1,59.9999981689454,10|0,0:0|0:0,0:0:0:0:
279,218,133144,5,2,0:0:0:0:
325,190,133232,1,0,1:2:0:0:
334,137,133321,1,2,3:2:0:0:
297,95,133409,1,0,3:0:0:0:
254,29,133497,5,8,0:3:0:0:
254,29,133585,1,0,3:0:0:0:
254,29,133674,2,0,B|344:40|329:82|416:92,1,172.500003290176,6|0,3:2|0:0,0:0:0:0:
444,73,134027,2,0,L|451:27,1,47.4999987316132,10|0,0:0|0:0,0:0:0:0:
512,114,134203,1,2,1:2:0:0:
476,145,134291,1,0,1:2:0:0:
482,191,134379,1,0,3:2:0:0:
345,292,134556,5,2,3:2:0:0:
454,369,134732,2,0,L|447:323,1,47.4999987316132,10|0,0:0|0:0,0:0:0:0:
345,292,134909,1,2,0:0:0:0:
126,371,135085,6,0,P|218:354|242:277,1,157.499995193482,2|0,3:2|0:0,0:0:0:0:
259,272,135438,2,0,L|242:223,1,47.4999987316132,10|0,0:0|0:0,0:0:0:0:
304,150,135615,1,2,1:2:0:0:
261,150,135703,1,0,1:2:0:0:
239,186,135791,1,0,3:2:0:0:
345,292,135968,6,0,L|403:277,1,55.0000016784668,8|0,3:1|0:0,0:0:0:0:
512,198,136144,2,0,L|458:211,1,55.0000016784668,8|0,1:1|0:0,0:0:0:0:
372,97,136321,5,2,3:2:0:0:
372,97,136409,1,0,1:2:0:0:
372,97,136497,2,0,P|309:46|248:64,1,142.49999619484,2|0,3:2|0:0,0:0:0:0:
225,50,136850,2,0,L|174:39,1,47.4999987316132,10|0,0:0|0:0,0:0:0:0:
94,85,137027,1,2,0:0:0:0:
262,163,137203,5,0,3:2:0:0:
44,257,137379,1,2,3:2:0:0:
258,345,137556,1,10,0:0:0:0:
159,383,137732,6,0,B|188:342|169:286|169:286|148:262|148:262|129:214|159:166,1,230.000004386902,6|2,3:2|3:2,0:0:0:0:
253,103,138262,6,0,L|262:163,1,59.9999981689454,10|0,0:0|0:0,0:0:0:0:
283,328,138438,1,2,3:2:0:0:
372,260,138615,6,0,L|380:200,1,59.9999981689454,8|0,0:0|0:0,0:0:0:0:
401,35,138791,1,2,3:2:0:0:
505,137,138968,2,0,P|516:235|491:274,1,142.49999619484,8|0,0:0|0:0,0:0:0:0:
428,327,139321,6,0,B|358:311|358:311|320:351|320:351|249:365,2,189.999994926453,6|10|0,3:2|0:0|3:2,0:0:0:0:
275,273,140203,1,2,3:2:0:0:
259,167,140379,2,0,B|266:206|266:206|281:227|281:227|287:255,1,94.9999974632264,10|2,0:0|0:0,0:0:0:0:
164,71,140732,6,0,P|160:157|66:190,2,189.999994926453,2|8|0,3:2|0:0|3:2,0:0:0:0:
100,0,141615,1,2,3:2:0:0:
305,71,141791,2,0,P|376:49|468:41,1,142.49999619484,10|0,0:0|0:0,0:0:0:0:
465,65,142144,6,0,B|459:117|440:111|436:161,1,94.9999974632264,2|0,3:2|0:0,0:0:0:0:
512,308,142497,2,0,P|448:252|386:270,1,142.49999619484,10|0,0:0|0:0,0:0:0:0:
369,292,142850,2,0,L|322:286,1,47.4999987316132,0|0,3:2|0:0,0:0:0:0:
156,166,143027,5,2,0:0:0:0:
111,182,143115,1,0,1:2:0:0:
97,225,143203,1,10,0:0:0:0:
121,264,143291,1,8,0:0:0:0:
188,297,143379,6,0,B|236:280|291:271|291:271|283:241|279:200,1,172.500003290176,4|0,3:2|0:0,0:0:0:0:
355,70,143732,6,0,L|346:145,1,59.9999981689454,2|0,3:2|0:0,0:0:0:0:
369,292,143909,2,0,L|376:232,1,59.9999981689454,10|0,0:0|0:0,0:0:0:0:
322,101,144085,6,0,L|344:157,1,59.9999981689454,2|0,3:2|0:0,0:0:0:0:
477,318,144262,2,0,L|455:262,1,59.9999981689454,8|0,3:3|0:0,0:0:0:0:
231,265,144438,5,2,1:2:0:0:
188,297,144527,1,0,1:2:0:0:
140,292,144615,1,10,0:0:0:0:
116,270,144703,1,8,0:0:0:0:
87,259,144791,1,4,0:3:0:0:
70,265,144879,1,4,2:3:0:0:
18,327,144968,6,0,P|102:310|187:296,1,172.500003290176,6|0,3:2|0:0,0:0:0:0:
231,265,145321,2,0,P|236:230|241:201,1,47.4999987316132,10|0,0:0|0:0,0:0:0:0:
169,155,145497,1,2,0:0:0:0:
409,95,145674,5,0,3:2:0:0:
292,0,145850,1,2,3:2:0:0:
313,156,146027,2,0,P|309:132|306:109,1,47.4999987316132,10|0,0:0|0:0,0:0:0:0:
237,218,146203,1,2,0:0:0:0:
442,254,146379,6,0,P|350:269|322:319,1,157.499995193482,2|0,3:2|0:0,0:0:0:0:
252,316,146732,2,0,L|196:322,1,47.4999987316132,10|0,0:0|0:0,0:0:0:0:
134,241,146909,1,2,0:0:0:0:
48,375,147085,5,0,3:2:0:0:
116,231,147262,2,0,L|123:280,1,47.4999987316132,8|0,3:1|0:0,0:0:0:0:
38,70,147438,2,0,P|-6:103|8:193,1,142.49999619484,8|0,1:1|0:0,0:0:0:0:
39,194,147791,6,0,B|63:189|78:163|78:163|124:173|124:173|145:204|180:214,1,157.499995193482,2|0,3:2|0:0,0:0:0:0:
207,200,148144,2,0,P|211:177|218:154,1,47.4999987316132,10|0,0:0|0:0,0:0:0:0:
260,27,148321,1,2,0:0:0:0:
316,193,148497,5,0,3:2:0:0:
512,107,148674,1,2,3:2:0:0:
366,0,148850,2,0,P|372:26|376:55,1,47.4999987316132,10|0,0:0|0:0,0:0:0:0:
335,171,149027,6,0,B|381:150|415:198|415:198|393:292|385:349,1,230.000004386902,6|2,3:2|3:2,0:0:0:0:
493,287,149556,6,0,P|466:279|431:271,1,59.9999981689454,10|0,0:0|0:0,0:0:0:0:
223,233,149732,1,2,3:2:0:0:
296,318,149909,6,0,P|269:326|234:334,1,59.9999981689454,8|0,0:0|0:0,0:0:0:0:
26,372,150085,1,2,0:0:0:0:
137,297,150262,1,0,3:2:0:0:
72,79,150438,5,6,0:3:0:0:
41,116,150527,1,8,0:3:0:0:
50,162,150615,2,0,B|162:174|126:217|224:233,2,189.999994926453,6|8|0,3:2|0:0|3:2,0:0:0:0:
137,297,151497,1,2,3:2:0:0:
219,132,151674,2,0,P|254:95|308:90,1,94.9999974632264,8|2,0:0|0:0,0:0:0:0:
501,198,152027,6,0,B|440:162|440:162|376:168|376:168|338:199|304:194,1,209.999993591309,2|10,3:2|0:0,0:0:0:0:
203,119,152556,1,2,0:0:0:0:
280,274,152732,5,0,3:2:0:0:
111,229,152909,1,2,3:2:0:0:
151,328,153085,1,8,0:0:0:0:
151,328,153262,1,2,3:2:0:0:
33,93,153438,6,0,P|80:136|177:133,1,165.000005035401,4|2,3:2|0:0,0:0:0:0:
203,119,153791,2,0,B|206:151|206:151|197:176|197:176|203:222,1,94.9999974632264,10|2,0:0|0:0,0:0:0:0:
417,382,154144,5,2,3:2:0:0:
467,246,154321,1,2,3:2:0:0:
380,93,154497,5,10,0:0:0:0:
182,230,154674,1,2,3:2:0:0:
404,75,154850,5,12,0:0:0:0:
265,365,155027,1,2,3:2:0:0:
32,121,155203,6,0,P|53:213|73:342,1,209.999993591309,14|0,0:0|0:0,0:0:0:0:
182,230,155556,5,0,3:2:0:0:
235,229,155644,1,0,3:0:0:0:
263,184,155732,1,0,1:2:0:0:
239,137,155821,1,0,1:2:0:0:
166,103,155909,5,8,0:0:0:0:
142,43,155997,1,8,0:0:0:0:
189,0,156085,1,0,1:2:0:0:
247,26,156174,1,0,1:2:0:0:
326,83,156262,6,2,B|360:72|360:72|408:120|408:120|444:127,1,140,10|0,2:1|0:1,0:1:0:0:
316,178,156968,5,8,3:3:0:0:
263,184,157056,1,0,3:2:0:0:
237,230,157144,1,4,3:3:0:0:
259,278,157232,1,0,1:2:0:0:
338,313,157321,6,0,L|329:236,1,59.9999981689454,8|0,0:0|0:0,0:0:0:0:
200,24,157497,5,0,1:2:0:0:
168,60,157585,1,0,1:2:0:0:
176,104,157674,2,0,B|217:112|256:117|256:117|242:170|237:230,1,194.999991073609,6|0,3:2|0:0,0:0:0:0:
88,318,158027,2,0,B|112:306|134:297|134:297|162:325|195:354,1,119.999996337891,14|0,0:0|0:0,0:0:0:0:
378,150,158379,5,2,3:2:0:0:
271,372,158556,1,0,3:2:0:0:
408,288,158732,2,0,P|435:291|466:296,1,55.0000016784668,10|0,2:2|0:0,0:0:0:0:
384,175,158909,6,0,P|317:192|331:299,1,179.999994506836,2|0,3:2|0:0,0:0:0:0:
408,288,159262,2,0,P|435:291|466:296,1,55.0000016784668,2|0,3:2|0:0,0:0:0:0:
267,103,159438,2,0,P|294:100|325:95,1,55.0000016784668,8|0,0:0|0:0,0:0:0:0:
186,262,159615,5,2,0:0:0:0:
70,288,159791,1,0,3:2:0:0:
3,153,159968,6,0,P|39:160|85:166,1,69.9999978637696,8|0,3:1|0:0,0:0:0:0:
205,279,160144,2,0,P|241:286|287:292,1,69.9999978637696,8|0,1:1|0:0,0:0:0:0:
376,195,160321,5,0,1:2:0:0:
401,153,160409,1,0,1:2:0:0:
378,117,160497,2,0,B|357:95|320:96|320:96|289:128|289:128|214:144,1,179.999994506836,2|0,3:2|0:0,0:0:0:0:
153,84,160850,2,0,B|132:20|132:20|173:59,1,110.000003356934,8|2,0:0|0:0,0:0:0:0:
141,188,161115,1,0,1:2:0:0:
122,196,161203,2,0,B|67:221|82:252|-5:274,1,119.999996337891,0|0,3:2|3:2,0:0:0:0:
205,279,161556,5,10,0:0:0:0:
59,113,161732,1,0,0:0:0:0:
240,161,161909,6,0,B|285:169|323:128|323:128|361:97|405:113,1,179.999994506836,2|0,3:2|0:0,0:0:0:0:
507,76,162262,2,0,P|496:112|492:143,1,59.9999981689454,8|0,0:0|0:0,0:0:0:0:
404,315,162438,2,0,P|393:249|379:190,1,119.999996337891,2|0,3:2|0:0,0:0:0:0:
384,22,162791,6,0,P|392:53|397:85,1,64.9999970245363,8|0,3:1|0:0,0:0:0:0:
306,306,162968,2,0,P|300:271|292:242,1,64.9999970245363,8|0,1:0|0:0,0:0:0:0:
191,87,163144,1,0,3:2:0:0:
156,82,163232,1,0,1:2:0:0:
90,141,163321,6,0,P|74:214|175:202,1,194.999991073609,6|0,3:2|0:0,0:0:0:0:
148,187,163674,2,0,B|96:200|102:237|36:250,1,119.999996337891,8|2,0:0|0:0,0:0:0:0:
0,337,163938,1,0,2:2:0:0:
22,326,164027,1,0,3:2:0:0:
247,181,164203,5,0,3:2:0:0:
267,217,164291,1,2,0:0:0:0:
248,254,164379,1,10,2:2:0:0:
109,342,164556,2,0,P|144:349|176:358,1,59.9999981689454
355,384,164732,6,0,P|364:296|445:246,1,179.999994506836,2|0,3:2|0:0,0:0:0:0:
350,238,165085,2,0,P|353:268|373:304,1,59.9999981689454,8|0,0:0|0:0,0:0:0:0:
512,117,165262,6,0,B|423:98|450:49|349:34,1,179.999994506836,2|0,3:2|0:0,0:0:0:0:
281,130,165615,2,0,L|347:113,1,59.9999981689454,8|0,3:1|0:0,0:0:0:0:
173,318,165791,2,0,L|239:301,1,59.9999981689454,8|0,1:1|0:0,0:0:0:0:
47,262,165968,1,0,3:2:0:0:
157,153,166144,6,0,B|223:163|205:204|269:215,1,119.999996337891,2|0,3:2|0:0,0:0:0:0:
122,36,166497,2,0,P|87:94|30:93,1,119.999996337891,8|2,0:0|0:0,0:0:0:0:
0,23,166762,1,0,1:2:0:0:
8,0,166850,1,0,3:2:0:0:
157,153,167027,5,0,3:2:0:0:
166,200,167115,1,2,0:0:0:0:
134,236,167203,1,10,0:0:0:0:
14,113,167379,2,0,P|19:142|22:188,1,59.9999981689454
193,323,167556,6,0,B|191:285|225:269|225:269|262:276|299:281,1,129.999994049073,6|0,3:2|0:0,0:0:0:0:
359,164,167821,1,8,2:2:0:0:
285,196,167909,1,10,0:0:0:0:
493,384,168085,6,0,B|524:342|512:297|512:297|487:263|487:263|501:184,1,209.999993591309,6|0,3:2|0:0,0:0:0:0:
427,323,168438,1,2,3:2:0:0:
221,70,168615,5,8,0:0:0:0:
170,62,168703,1,8,0:0:0:0:
128,91,168791,1,2,3:2:0:0:
119,141,168879,1,0,3:2:0:0:
175,204,168968,6,0,B|195:156|252:168|252:168|265:229|290:286,1,209.999993591309,6|0,3:2|0:0,0:0:0:0:
235,384,169321,2,0,P|184:343|206:285,1,119.999996337891,10|0,0:0|0:0,0:0:0:0:
423,166,169674,5,2,3:2:0:0:
221,70,169850,1,0,3:2:0:0:
52,177,170027,2,0,P|80:172|110:164,1,59.9999981689454,10|0,0:0|0:0,0:0:0:0:
207,56,170203,6,0,L|190:183,1,119.999996337891,2|0,3:2|0:0,0:0:0:0:
10,384,170556,1,2,3:2:0:0:
177,346,170732,2,0,P|170:271|127:242,1,119.999996337891,8|2,0:0|3:2,0:0:0:0:
52,177,170997,1,0,1:2:0:0:
41,204,171085,1,0,0:0:0:0:
257,156,171262,6,0,P|224:168|190:173,1,69.9999978637696,8|0,3:1|0:0,0:0:0:0:
24,301,171438,2,0,P|56:312|91:318,1,69.9999978637696,8|0,1:1|0:0,0:0:0:0:
369,352,171615,5,0,1:2:0:0:
397,312,171703,1,0,1:2:0:0:
376,267,171791,2,0,B|338:254|338:254|269:256|242:359|301:399,1,209.999993591309,2|0,3:2|0:0,0:0:0:0:
369,352,172144,2,0,B|427:338|430:377|491:367,1,119.999996337891,8|2,0:0|0:0,0:0:0:0:
497,248,172409,1,0,1:2:0:0:
475,258,172497,2,0,P|432:192|451:139,1,119.999996337891,0|0,3:2|3:2,0:0:0:0:
512,54,172850,5,10,0:0:0:0:
270,0,173027,1,0,0:0:0:0:
162,143,173203,6,0,B|228:129|228:129|274:149|274:149|347:133,1,179.999994506836,2|0,3:2|0:0,0:0:0:0:
364,167,173556,2,0,L|374:103,1,59.9999981689454,8|0,0:0|0:0,0:0:0:0:
158,230,173732,2,0,P|130:293|147:347,1,119.999996337891,2|0,3:2|0:0,0:0:0:0:
286,302,174085,6,0,P|252:297|222:293,1,64.9999970245363,8|0,3:1|0:0,0:0:0:0:
58,129,174262,2,0,P|90:133|122:138,1,64.9999970245363,8|0,1:1|0:0,0:0:0:0:
282,63,174438,1,0,3:2:0:0:
203,381,174615,6,0,P|134:319|158:230,1,194.999991073609,6|0,3:2|0:0,0:0:0:0:
237,170,174968,2,0,B|286:181|286:181|307:202|307:202|345:215,1,119.999996337891,8|2,0:0|0:0,0:0:0:0:
409,140,175232,1,0,2:2:0:0:
403,114,175321,1,0,3:2:0:0:
512,312,175497,5,0,3:2:0:0:
478,277,175585,1,2,0:0:0:0:
429,279,175674,2,0,P|420:309|415:342,1,59.9999981689454,10|0,0:0|0:0,0:0:0:0:
345,215,175850,1,0,0:0:0:0:
236,383,176027,5,2,3:2:0:0:
129,201,176203,1,0,3:2:0:0:
208,46,176379,1,8,0:0:0:0:
104,205,176556,6,0,B|69:213|34:218|34:218|45:278|52:352,1,194.999991073609,6|0,3:2|0:0,0:0:0:0:
83,371,176909,2,0,L|92:312,1,59.9999981689454,8|0,3:1|0:0,0:0:0:0:
305,203,177085,2,0,L|314:143,1,59.9999981689454,8|0,1:1|0:0,0:0:0:0:
189,27,177262,1,0,3:2:0:0:
192,245,177438,6,0,B|256:258|243:294|309:308,1,129.999994049073,6|0,3:2|0:0,0:0:0:0:
511,147,177791,2,0,B|451:161|460:196|410:208,1,119.999996337891,8|2,0:0|0:0,0:0:0:0:
339,151,178056,1,0,1:2:0:0:
314,143,178144,1,0,3:2:0:0:
494,326,178321,5,0,3:2:0:0:
453,360,178409,1,2,0:0:0:0:
399,352,178497,1,10,0:0:0:0:
410,208,178674,2,0,P|421:247|426:273,1,59.9999981689454,0|0,3:2|0:0,0:0:0:0:
288,384,178850,6,0,P|236:351|160:356,1,129.999994049073,6|0,3:2|0:0,0:0:0:0:
51,314,179115,1,0,1:2:0:0:
130,278,179203,1,10,0:0:0:0:
19,36,179379,6,0,B|1:109|1:109|23:163|23:163|9:245,1,209.999993591309,6|0,3:2|0:0,0:0:0:0:
51,314,179732,2,0,L|39:244,1,69.9999978637696,0|0,3:2|0:0,0:0:0:0:
213,86,179909,5,4,2:3:0:0:
270,74,179997,1,4,2:3:0:0:
327,64,180085,1,4,2:3:0:0:
385,56,180174,1,4,2:3:0:0:
462,104,180262,6,0,B|396:79|396:79|438:220,1,194.999991073609,4|0,3:2|0:0,0:0:0:0:
403,228,180615,2,0,L|404:166,1,50,8|0,0:0|0:0,0:0:0:0:
501,278,180791,1,0,0:0:0:0:
361,384,180968,1,0,3:2:0:0:
361,384,181144,1,0,3:2:0:0:
208,271,181321,2,0,P|279:276|367:294,1,150,8|0,0:0|0:0,0:0:0:0:
376,259,181674,6,0,P|413:214|393:166,1,100,0|0,3:2|0:0,0:0:0:0:
245,81,182027,2,0,P|259:137|267:183,1,100,8|0,0:0|0:0,0:0:0:0:
120,288,182379,6,0,L|130:240,1,50,0|0,3:2|0:0,0:0:0:0:
111,110,182556,2,0,L|101:158,1,50,0|0,3:2|0:0,0:0:0:0:
208,271,182732,5,8,0:0:0:0:
20,185,182909,1,0,2:0:0:0:
181,359,183085,5,0,3:2:0:0:
362,278,183262,1,0,3:2:0:0:
243,102,183438,5,8,0:0:0:0:
101,312,183615,1,0,3:2:0:0:
445,243,183791,1,0,3:2:0:0:
383,54,183968,5,8,1:2:0:0:
352,36,184056,1,8,0:0:0:0:
280,63,184144,5,8,0:0:0:0:
243,102,184232,1,0,1:2:0:0:
245,156,184321,1,0,1:2:0:0:
284,192,184409,1,0,1:2:0:0:
345,246,184497,6,0,B|412:232|397:174|468:163,1,150.000005722046,10|0,0:0|0:0,0:0:0:0:
366,350,184762,2,0,P|279:320|192:313,1,150.000005722046,6|0,3:2|0:0,0:0:0:0:
86,152,185027,2,0,P|101:182|114:223,1,75.0000028610231,2|0,3:2|0:0,0:0:0:0:
117,328,185203,6,0,P|66:269|117:208,1,150.000005722046,2|0,3:2|0:0,0:0:0:0:
284,192,185468,2,0,P|335:133|284:72,1,150.000005722046,6|0,3:2|0:0,0:0:0:0:
143,3,185732,5,2,1:2:0:0:
133,42,185821,1,0,1:2:0:0:
178,109,185909,6,0,B|191:195|191:195|200:212|200:212|216:299,1,194.999991073609,6|0,3:2|0:0,0:0:0:0:
301,355,186262,6,0,P|355:345|411:337,1,100,12|2,0:0|0:0,0:0:0:0:
512,158,186615,1,2,3:2:0:0:
303,79,186791,1,0,3:2:0:0:
147,178,186968,1,10,0:0:0:0:
23,113,187144,5,0,3:2:0:0:
60,87,187232,1,2,0:0:0:0:
102,102,187321,2,0,L|112:153,1,50,2|0,0:0|0:0,0:0:0:0:
254,269,187497,1,0,3:2:0:0:
50,384,187674,1,10,0:2:0:0:
244,241,187850,5,2,0:0:0:0:
235,214,187938,1,0,1:2:0:0:
282,151,188027,2,0,P|329:155|347:237,1,129.999994049073,2|8,3:2|3:1,0:0:0:0:
512,290,188379,2,0,B|441:301|463:365|386:373,1,150,8|0,1:1|0:0,0:0:0:0:
327,328,188732,5,6,3:2:0:0:
163,249,188909,1,2,0:0:0:0:
113,243,188997,1,2,0:0:0:0:
80,280,189085,2,0,P|87:308|92:334,1,50,10|0,0:0|0:0,0:0:0:0:
251,195,189262,2,0,P|258:223|263:249,1,50,2|0,0:0|0:0,0:0:0:0:
18,77,189438,5,2,3:2:0:0:
32,27,189527,1,2,0:0:0:0:
77,0,189615,1,2,3:2:0:0:
128,10,189703,1,2,0:0:0:0:
174,85,189791,1,10,0:0:0:0:
174,85,189879,1,2,0:0:0:0:
174,85,189968,2,0,P|166:112|161:140,1,50,2|0,0:0|0:0,0:0:0:0:
262,243,190144,5,4,3:2:0:0:
483,141,190321,1,0,3:2:0:0:
355,14,190497,1,10,0:0:0:0:
313,40,190585,1,2,0:0:0:0:
298,87,190674,1,2,0:0:0:0:
315,133,190762,1,2,0:0:0:0:
373,183,190850,6,0,L|382:245,1,50,0|0,3:2|0:0,0:0:0:0:
467,285,191027,2,0,L|476:347,1,50,8|0,0:3|0:0,0:0:0:0:
352,384,191203,6,0,B|339:383|339:383|312:380|312:380|291:379|291:379|265:376|265:376|242:374|242:374|223:371,1,120,12|0,0:3|3:2,0:0:0:0:
146,325,191556,6,0,B|140:292|115:261|115:261|155:291|198:289,1,150,4|0,3:2|0:0,0:0:0:0:
62,384,191909,2,0,P|30:339|20:290,1,100,8|2,0:0|0:0,0:0:0:0:
191,165,192262,5,2,3:2:0:0:
231,152,192350,1,2,0:0:0:0:
272,162,192438,1,2,3:2:0:0:
309,184,192527,1,2,0:0:0:0:
343,210,192615,1,10,0:0:0:0:
380,232,192703,1,2,0:0:0:0:
421,244,192791,1,2,0:0:0:0:
462,236,192879,1,2,0:0:0:0:
508,171,192968,6,0,P|490:94|480:33,1,129.999994049073,0|2,3:2|0:0,0:0:0:0:
343,49,193232,1,0,1:2:0:0:
410,92,193321,2,0,L|347:79,1,64.9999970245363,8|2,0:0|0:0,0:0:0:0:
191,165,193497,2,0,L|128:152,1,64.9999970245363,2|2,1:2|1:2,0:0:0:0:
17,49,193674,6,0,B|102:85|102:85|57:207,1,209.999993591309,6|0,3:2|0:0,0:0:0:0:
179,379,194027,2,0,B|153:253|153:253|238:329,1,240,6|0,3:2|0:0,0:0:0:0:
63,291,194379,6,0,L|-2:304,1,64.9999970245363,6|0,3:2|0:0,0:0:0:0:
191,165,194556,2,0,L|126:152,1,64.9999970245363,2|0,0:0|0:0,0:0:0:0:
328,335,194732,2,0,L|263:348,1,64.9999970245363,8|0,0:0|0:0,0:0:0:0:
448,221,194909,2,0,L|383:208,1,64.9999970245363,2|0,0:0|0:0,0:0:0:0:
267,50,195085,6,0,B|232:78|232:78|177:65,2,86.6666626993817,2|2|2,3:2|0:0|0:0,0:0:0:0:
377,83,195438,6,0,B|386:127|386:127|372:158|372:158|384:211,1,129.999994049073,14|0,2:2|3:2,0:0:0:0:
400,277,195703,1,2,0:0:0:0:
328,335,195791,5,6,3:2:0:0:
265,339,195879,1,2,0:0:0:0:
220,294,195968,1,2,0:0:0:0:
225,231,196056,1,2,0:0:0:0:
161,180,196144,5,2,3:2:0:0:
169,127,196232,1,2,0:0:0:0:
211,95,196321,1,2,0:0:0:0:
263,100,196409,1,2,0:0:0:0:
338,60,196497,6,0,P|345:93|350:125,1,64.9999970245363,2|0,1:2|0:0,0:0:0:0:
231,358,196674,2,0,P|226:326|220:295,1,64.9999970245363,2|0,1:2|0:0,0:0:0:0:
50,129,196850,6,0,P|121:120|161:180,1,150,10|0,0:0|0:0,0:0:0:0:
137,208,197203,1,4,3:2:0:0:
256,31,198262,5,0,0:0:0:0:
256,31,198968,1,0,0:0:0:0:
256,31,199674,1,0,0:0:0:0:
256,31,200379,1,0,0:0:0:0:
256,31,201085,1,0,0:0:0:0:
256,31,201791,1,0,0:0:0:0:
256,31,202497,1,0,0:0:0:0:
358,143,202674,5,0,3:3:0:0:
358,143,202762,1,0,3:2:0:0:
358,143,202850,2,0,B|384:171|435:155|435:155|469:115|506:126,1,160,4|0,3:2|0:0,0:0:0:0:
358,143,203379,1,0,0:0:0:0:
256,31,203556,5,0,0:0:0:0:
154,143,203732,2,0,B|128:171|77:155|77:155|43:115|6:126,1,160,8|12,0:3|0:3,0:0:0:0:
256,31,204262,6,0,B|236:65|256:106|256:106|276:149|257:185,2,160,4|0|0,3:2|0:0|3:2,0:0:0:0:
257,184,205144,1,8,0:0:0:0:
154,143,205321,1,0,3:2:0:0:
99,278,205497,1,8,0:3:0:0:
99,278,205585,1,8,0:3:0:0:
99,278,205674,1,4,3:2:0:0:
256,31,206027,5,0,0:0:0:0:
256,31,206379,1,0,0:0:0:0:
358,143,206556,1,0,3:2:0:0:
487,29,206732,2,0,P|474:79|463:161,1,120,12|0,0:0|0:0,0:0:0:0:
510,216,207085,6,0,L|470:239,1,44.999998626709,0|0,3:2|0:0,0:0:0:0:
443,323,207262,6,0,L|391:322,1,52.4999983978272,0|0,3:2|0:0,0:0:0:0:
312,384,207438,6,0,L|261:353,1,59.9999981689454,0|0,3:2|0:0,0:0:0:0:
153,380,207615,6,0,L|120:320,1,67.5000002574921,8|0,0:0|0:0,0:0:0:0:
31,250,207791,6,0,L|67:184,1,75.0000028610231,0|0,1:2|0:0,0:0:0:0:
43,56,207968,6,0,L|116:15,1,82.5000007867813,8|0,0:0|0:0,0:0:0:0:
393,31,208144,5,0,3:2:0:0:
335,32,208232,1,0,1:2:0:0:
296,73,208321,1,0,1:0:0:0:
299,131,208409,1,0,1:0:0:0:
353,187,208497,6,0,B|445:200|417:248|509:269,1,165.000005035401,4|0,3:2|0:0,0:0:0:0:
490,227,208850,2,0,P|495:197|501:172,1,47.4999987316132,8|0,0:0|0:0,0:0:0:0:
358,280,209027,1,0,1:2:0:0:
361,298,209115,1,0,1:2:0:0:
364,316,209203,1,0,3:2:0:0:
220,239,209379,1,0,3:2:0:0:
141,299,209556,2,0,B|79:305|79:305|61:301|61:301|-6:307,1,142.49999619484,8|0,0:0|1:2,0:0:0:0:
20,218,209909,6,0,P|-2:150|91:86,1,189.999994926453,0|8,3:2|0:0,0:0:0:0:
302,12,210527,5,0,1:2:0:0:
289,18,210615,2,0,L|242:8,1,47.4999987316132,0|0,3:2|0:0,0:0:0:0:
383,107,210791,1,0,3:2:0:0:
512,0,210968,2,0,P|445:17|427:51,1,94.9999974632264,8|0,0:0|0:0,0:0:0:0:
312,176,211321,6,0,B|322:262|379:225|395:322,1,157.499995193482,0|0,3:2|0:0,0:0:0:0:
416,325,211674,2,0,P|421:298|428:270,1,47.4999987316132,8|0,0:0|0:0,0:0:0:0:
509,122,211850,1,0,1:2:0:0:
491,115,211938,1,0,1:2:0:0:
472,110,212027,1,0,3:2:0:0:
512,240,212203,1,0,3:2:0:0:
297,321,212379,2,0,P|218:332|144:349,1,142.49999619484,8|0,0:0|0:0,0:0:0:0:
40,197,212732,6,0,P|92:256|194:238,1,189.999994926453,0|8,3:2|0:0,0:0:0:0:
272,150,213262,1,0,0:0:0:0:
444,265,213438,2,0,P|398:260|350:246,1,94.9999974632264,0|0,3:2|0:0,0:0:0:0:
272,150,213703,1,0,3:2:0:0:
327,99,213791,2,0,P|372:112|419:117,1,94.9999974632264,8|0,0:0|3:2,0:0:0:0:
178,0,214144,6,0,B|117:33|117:33|151:153,1,172.500003290176,4|0,3:2|0:0,0:0:0:0:
110,165,214497,2,0,L|62:157,1,47.4999987316132,8|0,0:0|0:0,0:0:0:0:
0,279,214674,1,0,1:2:0:0:
42,283,214762,1,0,1:2:0:0:
73,254,214850,1,0,3:2:0:0:
145,132,215027,1,0,3:2:0:0:
314,217,215203,2,0,P|303:260|296:317,1,94.9999974632264,8|4,0:0|2:3,0:0:0:0:
364,359,215468,5,0,3:0:0:0:
384,369,215556,2,0,B|446:359|430:300|503:288,1,142.49999619484,0|0,3:2|0:0,0:0:0:0:
512,261,215909,2,0,L|504:215,1,47.4999987316132,8|0,0:0|0:0,0:0:0:0:
414,173,216085,1,0,0:0:0:0:
512,85,216262,5,0,3:2:0:0:
303,196,216438,1,0,3:2:0:0:
165,129,216615,1,8,0:0:0:0:
36,223,216791,1,0,1:2:0:0:
44,243,216879,1,0,1:2:0:0:
113,273,216968,6,0,B|145:261|177:250|177:250|160:203|145:150,1,157.499995193482,0|0,3:2|0:0,0:0:0:0:
169,133,217321,2,0,P|194:84|174:40,1,94.9999974632264,8|0,0:0|0:0,0:0:0:0:
106,3,217585,1,0,1:2:0:0:
84,15,217674,1,0,3:2:0:0:
169,133,217850,1,0,3:2:0:0:
379,19,218027,1,8,0:0:0:0:
323,116,218203,2,0,L|337:177,1,47.4999987316132,0|0,3:2|0:0,0:0:0:0:
466,197,218379,6,0,B|397:160|397:160|325:247,1,187.5,12|0,0:0|0:0,0:0:0:0:
457,274,218732,2,0,L|444:219,1,52.4999983978272,0|0,3:2|0:0,0:0:0:0:
292,106,218909,2,0,L|303:157,1,52.4999983978272,0|0,1:2|1:2,0:0:0:0:
198,345,219085,5,0,3:2:0:0:
151,367,219174,1,0,1:2:0:0:
102,352,219262,1,0,1:2:0:0:
76,308,219350,1,0,1:2:0:0:
121,230,219438,1,0,3:2:0:0:
121,230,219527,1,0,1:2:0:0:
121,230,219615,2,0,L|173:241,1,52.4999983978272,0|0,1:2|1:2,0:0:0:0:
443,0,219791,5,4,3:2:0:0:
340,27,219968,1,2,2:0:0:0:
320,192,220144,5,8,0:0:0:0:
490,192,220321,1,2,0:0:0:0:
443,384,220497,5,8,0:0:0:0:
340,357,220674,1,0,3:2:0:0:
329,310,220762,1,0,3:0:0:0:
366,280,220850,1,8,0:0:0:0:
256,384,221027,1,2,0:0:0:0:
170,357,221203,5,8,3:2:0:0:
69,384,221379,1,2,0:0:0:0:
22,192,221556,5,8,0:0:0:0:
192,192,221732,1,0,3:2:0:0:
170,27,221909,5,8,0:0:0:0:
77,7,222085,1,0,3:2:0:0:
77,7,222174,1,0,3:0:0:0:
77,7,222262,1,8,0:0:0:0:
30,199,222438,5,0,3:2:0:0:
30,199,222527,1,0,3:0:0:0:
30,199,222615,1,12,0:0:0:0:
230,261,222791,1,0,3:2:0:0:
473,102,222968,5,12,0:0:0:0:
273,40,223144,1,0,3:2:0:0:
11,216,223321,5,0,3:2:0:0:
211,278,223497,1,0,1:2:0:0:
211,278,223585,1,0,1:2:0:0:
211,278,223674,2,0,L|201:207,1,59.9999981689454,8|0,0:0|0:0,0:0:0:0:
379,88,223850,2,0,L|369:17,1,59.9999981689454,0|0,3:2|3:2,0:0:0:0:
493,353,224027,5,8,0:0:0:0:
89,105,224732,5,8,3:3:0:0:
40,105,224821,1,0,3:2:0:0:
9,143,224909,1,4,3:3:0:0:
18,190,224997,1,0,1:2:0:0:
85,236,225085,6,0,L|156:216,1,59.9999981689454,8|0,0:0|0:0,0:0:0:0:
317,57,225262,5,0,1:2:0:0:
317,57,225350,1,0,1:2:0:0:
317,57,225438,2,0,B|318:88|289:108|289:108|199:96|199:96|162:117|167:151,1,209.999993591309,6|0,3:2|0:0,0:0:0:0:
222,291,225791,2,0,B|249:280|255:240|255:240|231:174,1,119.999996337891,14|0,0:0|0:0,0:0:0:0:
228,19,226144,5,2,3:2:0:0:
142,219,226321,1,0,3:2:0:0:
303,375,226497,2,0,P|308:337|315:313,1,55.0000016784668,10|0,2:2|0:0,0:0:0:0:
476,199,226674,6,0,P|405:222|431:323,1,179.999994506836,2|0,3:2|0:0,0:0:0:0:
495,340,227027,2,0,P|498:312|505:286,1,55.0000016784668,2|0,3:2|0:0,0:0:0:0:
303,375,227203,2,0,P|308:337|315:313,1,55.0000016784668,8|0,0:0|0:0,0:0:0:0:
240,185,227379,5,2,0:0:0:0:
133,253,227556,1,0,3:2:0:0:
33,112,227732,6,0,P|70:120|107:125,1,69.9999978637696,8|0,3:1|0:0,0:0:0:0:
324,42,227909,2,0,P|361:50|398:55,1,69.9999978637696,8|0,1:1|0:0,0:0:0:0:
494,150,228085,5,0,1:2:0:0:
510,196,228174,1,0,1:2:0:0:
474,224,228262,2,0,B|387:202|418:137|312:122,1,194.999991073609,2|0,3:2|0:0,0:0:0:0:
240,185,228615,1,8,0:0:0:0:
109,44,228791,2,0,P|118:73|126:111,1,59.9999981689454,2|0,0:0|0:0,0:0:0:0:
199,339,228968,5,0,3:2:0:0:
337,219,229144,1,0,3:2:0:0:
131,124,229321,1,10,0:0:0:0:
69,354,229497,1,0,0:0:0:0:
185,247,229674,6,0,B|260:262|260:262|284:303|284:303|357:319,1,194.999991073609,2|0,3:2|0:0,0:0:0:0:
387,293,230027,2,0,L|372:229,1,64.9999970245363,8|0,0:0|0:0,0:0:0:0:
498,41,230203,2,0,P|500:115|457:141,1,119.999996337891,2|0,3:2|0:0,0:0:0:0:
328,11,230556,6,0,L|264:0,1,64.9999970245363,8|0,3:1|0:0,0:0:0:0:
43,126,230732,2,0,L|106:137,1,64.9999970245363,8|0,1:0|0:0,0:0:0:0:
277,206,230909,1,0,3:2:0:0:
286,247,230997,1,0,1:2:0:0:
234,310,231085,6,0,B|198:211|278:220|245:121,1,194.999991073609,6|0,3:2|0:0,0:0:0:0:
181,58,231438,2,0,B|138:100|138:100|162:169,1,119.999996337891,8|2,0:0|0:0,0:0:0:0:
104,259,231703,1,0,2:0:0:0:
134,247,231791,1,0,3:2:0:0:
399,79,231968,5,0,3:2:0:0:
361,49,232056,1,2,0:0:0:0:
315,65,232144,1,10,2:2:0:0:
277,206,232321,1,0,0:0:0:0:
448,384,232497,6,0,B|489:330|472:253|472:253|422:215,1,194.999991073609,2|0,3:2|0:0,0:0:0:0:
493,165,232850,2,0,P|480:201|475:225,1,59.9999981689454,8|0,0:0|0:0,0:0:0:0:
319,353,233027,2,0,B|240:355|236:289|152:296,1,179.999994506836,2|0,3:2|0:0,0:0:0:0:
71,350,233379,2,0,L|134:335,1,59.9999981689454,8|0,3:1|0:0,0:0:0:0:
290,193,233556,2,0,L|231:206,1,59.9999981689454,8|0,1:1|0:0,0:0:0:0:
113,148,233732,1,0,3:2:0:0:
218,0,233909,6,0,P|209:59|201:130,1,119.999996337891,2|0,3:2|0:0,0:0:0:0:
388,226,234262,2,0,P|385:153|357:119,1,119.999996337891,8|2,0:0|0:0,0:0:0:0:
280,163,234527,1,0,1:2:0:0:
290,193,234615,1,0,3:2:0:0:
512,343,234791,5,0,3:2:0:0:
472,306,234879,1,2,0:0:0:0:
419,319,234968,1,10,0:0:0:0:
259,380,235144,2,0,L|190:385,1,59.9999981689454
89,192,235321,6,0,B|101:258|148:239|161:315,1,129.999994049073,6|0,3:2|0:0,0:0:0:0:
30,384,235585,1,8,2:2:0:0:
78,317,235674,1,10,0:0:0:0:
378,153,235850,6,0,B|307:138|307:138|254:181|254:181|182:168,1,209.999993591309,6|0,3:2|0:0,0:0:0:0:
94,94,236203,1,2,3:2:0:0:
89,45,236291,1,0,1:2:0:0:
127,14,236379,1,8,0:0:0:0:
350,249,236556,5,2,3:2:0:0:
355,298,236644,1,8,0:0:0:0:
317,329,236732,2,0,B|206:300|206:300|283:363,1,209.999993591309,6|0,3:2|0:0,0:0:0:0:
401,384,237085,2,0,B|466:369|466:369|486:343|474:308,1,119.999996337891,14|0,2:2|0:0,0:0:0:0:
407,82,237438,5,2,3:2:0:0:
185,168,237615,1,0,3:2:0:0:
36,99,237791,2,0,P|70:106|98:114,1,59.9999981689454,10|0,2:0|0:0,0:0:0:0:
201,178,237968,6,0,P|210:108|221:57,1,119.999996337891,0|2,3:2|0:0,0:0:0:0:
68,215,238321,1,0,3:2:0:0:
239,287,238497,2,0,B|305:305|281:331|349:355,1,119.999996337891,10|2,0:0|0:0,0:0:0:0:
404,294,238762,1,0,1:2:0:0:
396,270,238850,1,0,3:2:0:0:
216,371,239027,6,0,P|182:376|148:384,1,69.9999978637696,8|0,2:1|0:0,0:0:0:0:
0,201,239203,2,0,P|33:206|68:215,1,69.9999978637696,8|0,1:1|0:0,0:0:0:0:
311,119,239379,5,0,1:2:0:0:
333,75,239468,1,0,1:2:0:0:
298,39,239556,2,0,B|196:48|217:131|106:134,1,209.999993591309,2|0,3:2|0:0,0:0:0:0:
90,114,239909,2,0,B|76:82|76:82|99:43|99:43|86:5,1,119.999996337891,8|2,0:0|0:0,0:0:0:0:
235,169,240174,1,0,1:2:0:0:
225,188,240262,2,0,B|211:220|211:220|234:259|234:259|221:297,1,119.999996337891,0|0,3:2|3:2,0:0:0:0:
128,379,240615,5,10,0:0:0:0:
327,220,240791,1,0,0:0:0:0:
512,350,240968,6,0,B|445:346|445:346|388:378|388:378|316:369,1,194.999991073609,2|0,3:2|0:0,0:0:0:0:
295,384,241321,2,0,L|285:312,1,59.9999981689454,8|0,0:0|0:0,0:0:0:0:
172,171,241497,2,0,B|128:162|128:162|93:176|93:176|43:180,1,119.999996337891,2|0,3:2|0:0,0:0:0:0:
188,95,241850,6,0,L|257:111,1,64.9999970245363,8|0,3:1|0:0,0:0:0:0:
64,259,242027,2,0,L|-2:264,1,64.9999970245363,8|0,1:1|0:0,0:0:0:0:
281,354,242203,1,0,3:2:0:0:
286,324,242291,1,0,1:2:0:0:
230,272,242379,6,0,B|192:257|163:287|163:287|145:341|145:341|119:370|78:361,1,194.999991073609,6|0,3:2|0:0,0:0:0:0:
64,259,242732,2,0,B|42:242|47:208|47:208|87:146,1,119.999996337891,8|2,0:0|0:0,0:0:0:0:
0,88,242997,1,0,0:0:0:0:
6,107,243085,1,0,3:2:0:0:
218,0,243262,5,0,3:2:0:0:
240,35,243350,1,2,0:0:0:0:
224,73,243438,2,0,P|195:67|165:63,1,59.9999981689454,10|0,2:2|0:0,0:0:0:0:
74,3,243615,1,0,0:0:0:0:
218,214,243791,6,0,P|304:192|409:175,1,179.999994506836,2|0,3:2|0:0,0:0:0:0:
451,112,244144,1,8,0:0:0:0:
512,337,244321,2,0,P|431:277|356:300,1,179.999994506836,2|0,3:2|0:0,0:0:0:0:
338,327,244674,6,0,L|325:269,1,59.9999981689454,8|0,3:1|0:0,0:0:0:0:
93,215,244850,2,0,L|80:157,1,59.9999981689454,8|0,1:1|0:0,0:0:0:0:
188,32,245027,1,0,3:2:0:0:
285,105,245203,6,0,B|265:172|232:152|216:220,1,129.999994049073,2|0,3:2|0:0,0:0:0:0:
59,355,245556,2,0,P|100:312|158:299,1,119.999996337891,8|2,2:2|0:0,0:0:0:0:
222,355,245821,1,0,1:2:0:0:
251,361,245909,1,0,3:2:0:0:
443,201,246085,5,0,3:2:0:0:
395,190,246174,1,0,1:0:0:0:
363,226,246262,1,10,0:0:0:0:
439,342,246438,2,0,P|428:298|420:273,1,59.9999981689454,0|0,3:2|1:2,0:0:0:0:
273,49,246615,1,6,3:2:0:0:
176,153,246791,5,2,3:2:0:0:
176,153,246879,1,0,1:2:0:0:
176,153,246968,2,0,L|246:135,1,69.9999978637696,10|8,0:0|0:0,0:0:0:0:
366,53,247144,2,0,L|298:70,1,69.9999978637696,6|0,3:2|0:0,0:0:0:0:
74,7,247321,6,0,L|106:85,1,69.9999978637696,10|0,0:0|0:0,0:0:0:0:
253,304,247497,2,0,L|226:239,1,69.9999978637696,6|0,3:2|0:0,0:0:0:0:
85,201,247674,5,10,0:0:0:0:
29,198,247762,1,0,1:2:0:0:
0,245,247850,1,10,0:0:0:0:
28,293,247938,1,0,1:2:0:0:
79,361,248027,6,0,P|122:345|172:333,1,89.9999972534181,6|0,3:2|0:0,0:0:0:0:
277,214,248379,2,0,B|268:255|253:304|253:304|308:317|375:339,1,209.999993591309,10|0,0:0|0:0,0:0:0:0:
424,384,248732,5,2,3:2:0:0:
332,140,248909,1,0,3:2:0:0:
512,54,249085,2,0,L|500:121,1,59.9999981689454,10|0,2:2|0:0,0:0:0:0:
458,264,249262,6,0,B|465:216|423:166|423:166|454:205|498:207,1,194.999991073609,2|0,3:2|0:0,0:0:0:0:
512,54,249615,2,0,L|500:121,1,59.9999981689454,2|0,3:2|0:0,0:0:0:0:
354,312,249791,2,0,L|364:252,1,59.9999981689454,8|0,0:0|0:0,0:0:0:0:
245,107,249968,5,2,0:0:0:0:
151,51,250144,1,0,3:2:0:0:
16,223,250321,6,0,L|92:207,1,69.9999978637696,8|0,3:1|0:0,0:0:0:0:
268,120,250497,2,0,L|336:105,1,69.9999978637696,8|0,1:1|0:0,0:0:0:0:
151,51,250674,1,0,0:0:0:0:
260,234,250850,6,0,B|288:300|241:357|241:357|201:368|174:377,1,194.999991073609,2|0,3:2|0:0,0:0:0:0:
87,308,251203,2,0,B|95:273|128:268|128:268|186:283,1,119.999996337891,8|2,0:0|0:0,0:0:0:0:
336,360,251468,1,0,1:2:0:0:
360,368,251556,2,0,B|417:383|417:383|450:378|459:344,1,119.999996337891,0|0,3:2|3:2,0:0:0:0:
512,163,251909,5,10,0:0:0:0:
260,234,252085,1,0,0:0:0:0:
336,60,252262,2,0,B|342:150|403:130|405:247,1,179.999994506836,2|0,3:2|0:0,0:0:0:0:
318,247,252615,2,0,P|289:239|260:234,1,59.9999981689454,8|0,0:0|0:0,0:0:0:0:
116,356,252791,6,0,B|176:358|176:358|220:309,1,119.999996337891,2|0,3:2|0:0,0:0:0:0:
152,173,253144,6,0,P|164:205|173:240,1,64.9999970245363,8|0,3:1|0:0,0:0:0:0:
19,379,253321,2,0,P|10:347|0:317,1,64.9999970245363,8|0,1:0|0:0,0:0:0:0:
108,77,253497,1,0,3:2:0:0:
136,85,253585,1,2,1:2:0:0:
213,110,253674,6,0,B|256:122|291:94|291:94|305:70|305:70|349:29|402:56,1,194.999991073609,6|0,3:2|0:0,0:0:0:0:
428,125,254027,2,0,P|357:179|315:170,1,119.999996337891,8|2,0:0|0:0,0:0:0:0:
284,255,254291,1,0,0:0:0:0:
262,246,254379,1,0,3:2:0:0:
464,314,254556,5,0,3:2:0:0:
429,347,254644,1,2,0:0:0:0:
381,338,254732,1,10,2:2:0:0:
243,238,254909,1,0,0:0:0:0:
17,362,255085,6,0,B|103:350|103:350|114:344|114:344|210:328,1,179.999994506836,2|0,3:2|0:0,0:0:0:0:
124,369,255438,2,0,B|112:339|112:339|117:306,1,59.9999981689454,8|0,0:0|0:0,0:0:0:0:
302,154,255615,6,0,B|218:146|222:98|115:89,1,194.999991073609,6|0,3:2|0:0,0:0:0:0:
69,152,255968,2,0,L|59:212,1,59.9999981689454,8|0,3:1|0:0,0:0:0:0:
231,11,256144,2,0,L|221:71,1,59.9999981689454,8|0,1:1|0:0,0:0:0:0:
302,154,256321,1,0,0:0:0:0:
501,44,256497,6,0,P|427:82|419:128,1,129.999994049073,6|0,3:2|0:0,0:0:0:0:
299,265,256850,2,0,B|365:282|343:306|423:331,1,119.999996337891,8|2,0:0|0:0,0:0:0:0:
453,229,257115,1,0,1:2:0:0:
429,238,257203,1,0,3:2:0:0:
171,384,257379,5,0,3:2:0:0:
140,346,257468,1,2,0:0:0:0:
160,302,257556,1,10,0:0:0:0:
282,182,257732,2,0,P|289:146|293:121,1,59.9999981689454,0|0,3:2|0:0,0:0:0:0:
140,0,257909,5,6,3:2:0:0:
225,246,258085,1,0,3:2:0:0:
62,384,258262,2,0,B|49:324|28:252|28:252|102:216,1,209.999993591309,14|0,0:0|0:0,0:0:0:0:
116,138,258615,5,0,3:2:0:0:
317,292,258791,2,0,L|385:279,1,59.9999981689454,8|8,0:3|0:3,0:0:0:0:
474,105,258968,5,8,0:3:0:0:
474,105,259056,1,8,0:3:0:0:
474,105,259144,1,4,3:3:0:0:
474,105,259232,1,4,3:3:0:0:
512,180,259321,6,0,B|443:190|443:190|398:165|398:165|313:177,1,194.999991073609,4|0,3:2|0:0,0:0:0:0:
292,145,259674,2,0,L|350:154,1,50,12|0,0:0|0:0,0:0:0:0:
223,229,259850,1,0,0:0:0:0:
155,74,260027,1,0,3:2:0:0:
46,40,260203,1,0,3:2:0:0:
0,196,260379,6,0,L|63:181,1,59.9999981689454,8|0,0:0|0:0,0:0:0:0:
204,147,260556,1,0,0:0:0:0:
148,354,260732,6,0,B|143:340|143:340|113:307|123:260,1,100,0|0,3:2|0:0,0:0:0:0:
353,164,261085,2,0,B|348:177|348:177|318:210|328:257,1,100,8|0,0:0|0:0,0:0:0:0:
491,384,261438,6,0,L|483:319,1,50,0|0,3:2|0:0,0:0:0:0:
472,251,261615,2,0,L|464:186,1,50,0|0,3:2|0:0,0:0:0:0:
512,20,261791,2,0,B|451:8|456:103|387:93,1,150,8|0,0:0|0:0,0:0:0:0:
353,164,262144,5,4,3:2:0:0:
174,43,262321,1,0,3:2:0:0:
328,257,262497,5,8,0:0:0:0:
60,195,262674,1,0,3:2:0:0:
342,359,262850,5,8,0:0:0:0:
13,384,263027,5,0,3:2:0:0:
34,344,263115,1,0,1:2:0:0:
112,335,263203,5,0,3:2:0:0:
171,346,263291,1,0,1:2:0:0:
216,306,263379,1,0,1:2:0:0:
211,246,263468,1,0,1:2:0:0:
141,205,263556,6,0,B|95:216|95:216|59:260|59:260|7:274,1,150.000005722046,10|0,2:2|1:2,0:0:0:0:
158,115,263821,2,0,P|164:44|242:38,1,150.000005722046,6|0,3:2|1:2,0:0:0:0:
6,116,264085,2,0,B|43:112|43:112|72:135,1,75.0000028610231,2|0,3:2|0:0,0:0:0:0:
210,289,264262,5,6,3:2:0:0:
211,246,264350,1,0,1:2:0:0:
247,223,264438,1,0,1:2:0:0:
319,196,264527,5,6,3:2:0:0:
322,149,264615,1,0,1:2:0:0:
288,119,264703,1,0,1:2:0:0:
249,55,264791,5,2,1:2:0:0:
329,15,264879,5,0,1:2:0:0:
377,89,264968,6,0,L|436:77,1,60,6|0,3:2|0:0,0:0:0:0:
486,11,265321,5,14,0:0:0:0:
420,162,265497,1,0,0:0:0:0:
494,280,265674,5,2,3:2:0:0:
372,237,265850,1,2,3:2:0:0:
204,305,266027,5,10,0:0:0:0:
82,262,266203,2,0,L|146:248,1,50,2|0,3:2|0:0,0:0:0:0:
204,305,266379,6,0,B|241:348|241:348|299:315,1,110.000003356934,0|2,0:0|3:2,0:0:0:0:
365,262,266732,1,10,0:0:0:0:
257,133,266909,1,0,0:0:0:0:
344,57,267085,1,2,3:2:0:0:
342,41,267174,1,0,3:2:0:0:
341,26,267262,1,8,3:1:0:0:
147,109,267438,6,0,P|85:66|-6:79,1,165.000005035401,8|0,1:1|0:0,0:0:0:0:
0,118,267791,6,0,L|120:85,1,100,6|0,3:2|0:0,0:0:0:0:
328,211,268144,1,10,0:0:0:0:
263,295,268321,1,0,2:0:0:0:
260,280,268409,1,0,1:2:0:0:
257,265,268497,5,2,3:2:0:0:
369,316,268674,1,2,3:2:0:0:
455,228,268850,1,10,0:0:0:0:
401,116,269027,2,0,L|413:66,1,50,2|0,0:0|0:0,0:0:0:0:
348,6,269203,6,0,B|317:10|317:10|295:39|295:39|256:46,1,100,0|2,3:2|3:2,0:0:0:0:
38,112,269556,1,10,0:0:0:0:
106,161,269732,2,0,L|157:168,1,50,0|0,3:2|0:0,0:0:0:0:
314,272,269909,1,10,0:0:0:0:
246,321,270085,2,0,L|195:328,1,50,8|0,3:1|0:0,0:0:0:0:
27,384,270262,6,0,B|4:282|4:282|58:340,1,179.999994506836,8|0,1:1|1:2,0:0:0:0:
141,356,270615,6,0,L|244:341,1,100,6|0,3:2|0:0,0:0:0:0:
427,379,270968,1,10,0:0:0:0:
314,272,271144,1,0,0:0:0:0:
400,165,271321,5,2,3:2:0:0:
375,53,271497,1,2,3:2:0:0:
196,11,271674,1,10,0:0:0:0:
221,123,271850,2,0,L|281:108,1,50,2|0,0:0|0:0,0:0:0:0:
160,214,272027,6,0,P|97:185|51:187,1,110.000003356934,0|2,3:2|3:2,0:0:0:0:
222,374,272379,1,10,0:0:0:0:
324,345,272556,2,0,P|275:370|221:373,1,110.000003356934,0|2,3:2|0:0,0:0:0:0:
493,193,272909,2,0,P|462:182|427:180,1,55.0000016784668,8|0,3:1|0:0,0:0:0:0:
344,191,273085,6,0,B|358:287|412:238|429:350,1,179.999994506836,8|0,1:1|1:2,0:0:0:0:
324,345,273438,6,0,L|265:338,1,59.9999981689454,6|0,3:2|0:0,0:0:0:0:
157,267,273615,2,0,L|216:274,1,59.9999981689454,0|0,3:2|0:0,0:0:0:0:
88,114,273791,6,0,L|106:194,1,59.9999981689454,10|0,0:0|0:0,0:0:0:0:
75,384,273968,2,0,L|61:325,1,59.9999981689454,0|0,3:2|0:0,0:0:0:0:
205,164,274144,5,10,0:0:0:0:
382,278,274321,1,2,0:0:0:0:
401,270,274409,1,0,1:2:0:0:
474,271,274497,1,10,0:0:0:0:
506,206,274585,1,0,1:2:0:0:
467,147,274674,1,8,0:3:0:0:
452,141,274762,1,8,0:3:0:0:
381,171,274850,6,0,P|389:200|397:240,1,69.9999978637696,8|0,0:0|0:0,0:0:0:0:
233,316,275027,2,0,P|241:349|248:384,1,69.9999978637696,0|0,3:2|0:0,0:0:0:0:
282,80,275203,6,0,P|290:109|298:149,1,69.9999978637696,8|0,0:0|0:0,0:0:0:0:
99,293,275379,2,0,P|108:327|114:362,1,69.9999978637696,4|0,3:2|0:0,0:0:0:0:
