osu file format v14

[General]
AudioFilename: audio.mp3
AudioLeadIn: 0
PreviewTime: 71294
Countdown: 0
SampleSet: Normal
StackLeniency: 0.7
Mode: 2
LetterboxInBreaks: 0
WidescreenStoryboard: 0

[Editor]
DistanceSpacing: 1.6
BeatDivisor: 4
GridSize: 32
TimelineZoom: 3.099999

[Metadata]
Title:Romeo to Cinderella
TitleUnicode:ロミオとシンデレラ
Artist:YURiCa/Hanatan
ArtistUnicode:ユリカ/花たん
Creator:Cowboy
Version:Halleged Love
Source:初音ミク Project DIVA Arcade
Tags:Vocaloid Hatsune Miku 初音ミク doriko nico douga Romio Shinderera Kiru astreachan
BeatmapID:2097999
BeatmapSetID:1002320

[Difficulty]
HPDrainRate:6
CircleSize:4
OverallDifficulty:8.8
ApproachRate:8.8
SliderMultiplier:1.7
SliderTickRate:2

[Events]
//Background and Video events
0,0,"wew.jpg",0,0
//Break Periods
//Storyboard Layer 0 (Background)
//Storyboard Layer 1 (Fail)
//Storyboard Layer 2 (Pass)
//Storyboard Layer 3 (Foreground)
//Storyboard Layer 4 (Overlay)
//Storyboard Sound Samples

[TimingPoints]
2382,352.941176470588,4,1,0,50,1,0
13853,-100,4,1,1,60,0,0
71558,-100,4,1,1,60,0,1
99793,-100,4,1,1,50,0,0
110382,-100,4,1,0,50,0,0
116735,-100,4,1,1,50,0,0
157676,-100,4,1,1,60,0,1
185911,-100,4,1,1,50,0,0
190147,-66.6666666666667,4,1,1,50,0,0
197206,-100,4,2,0,50,0,0
205059,-100,4,2,1,50,0,0
205235,-100,4,2,0,50,0,0
208500,-100,4,1,1,50,0,0
225440,-100,4,1,1,60,0,1
264970,-100,4,1,1,50,0,0

[Colours]
Combo1 : 244,189,213
Combo2 : 197,105,143
Combo3 : 158,71,150
Combo4 : 110,54,129
Combo5 : 161,188,211

[HitObjects]
38,250,1677,6,0,L|38:134,1,85
169,120,2029,2,0,L|169:236,1,85
365,197,2382,6,0,P|417:240|339:303,1,170,4|0,0:0|0:0,0:0:0:0:
255,304,2912,1,0,0:0:0:0:
119,303,3088,2,0,L|119:120,1,170,2|0,0:2|0:0,0:0:0:0:
289,116,3794,5,2,0:2:0:0:
204,116,3970,1,2,0:2:0:0:
119,116,4146,1,2,0:2:0:0:
227,191,4500,2,0,L|339:191,1,85,2|0,0:2|0:0,0:0:0:0:
431,223,4853,2,0,L|319:223,1,85,0|0,0:0|0:0,0:0:0:0:
159,223,5205,6,0,P|127:256|159:370,1,170,4|8,0:0|0:2,0:0:0:0:
212,287,5735,1,0,0:0:0:0:
384,290,6088,1,8,0:2:0:0:
256,286,6441,1,0,0:0:0:0:
120,290,6617,6,0,P|81:248|120:146,1,170,2|0,0:2|0:0,0:0:0:0:
322,154,7324,2,0,L|119:154,1,170,0|0,0:0|0:0,0:0:0:0:
445,162,8029,6,0,P|442:274|387:290,1,170,4|0,0:0|0:0,0:0:0:0:
312,292,8559,1,0,0:0:0:0:
192,290,8735,1,8,0:2:0:0:
351,193,9088,2,0,L|152:193,1,170,0|2,0:0|0:2,0:0:0:0:
351,195,9794,1,0,0:0:0:0:
181,193,10147,2,0,P|149:243|195:349,1,170,0|0,0:0|0:0,0:0:0:0:
328,335,10853,6,0,L|328:243,1,85,4|0,0:0|0:0,0:0:0:0:
243,247,11206,1,0,0:0:0:0:
113,247,11382,1,0,0:0:0:0:
203,248,11559,2,0,P|200:142|68:93,1,255
159,89,12265,5,8,0:2:0:0:
257,88,12441,1,0,2:0:0:0:
367,88,12618,2,0,L|367:199,1,85,0|0,2:0|2:0,0:0:0:0:
257,187,12971,2,8,L|159:187,2,85,8|8|8,2:0|2:0|2:0,0:0:0:0:
372,190,13500,2,8,L|317:190,1,42.5,8|8,2:0|2:0,0:0:0:0:
128,194,13676,5,12,2:0:0:0:
233,193,13853,2,0,L|330:193,2,85,0|8|0,0:0|0:0|0:0,0:0:0:0:
103,193,14382,2,0,L|103:297,1,85,0|0,0:0|0:0,0:0:0:0:
206,195,14735,1,8,0:0:0:0:
351,188,14912,1,0,0:0:0:0:
166,267,15265,5,0,0:0:0:0:
69,268,15441,1,8,0:0:0:0:
166,217,15618,1,0,0:0:0:0:
297,218,15794,2,0,L|388:218,1,85,0|0,0:0|0:0,0:0:0:0:
134,220,16147,1,8,0:0:0:0:
132,296,16324,1,0,0:0:0:0:
303,197,16676,6,0,L|208:197,2,85,0|8|0,0:0|0:0|0:0,0:0:0:0:
432,196,17206,2,0,L|432:303,1,85
327,194,17559,1,8,0:0:0:0:
183,192,17735,1,0,0:0:0:0:
386,191,18088,6,0,L|478:191,2,85,0|8|0,0:0|0:0|0:0,0:0:0:0:
290,262,18618,1,0,0:0:0:0:
56,264,18794,2,0,L|56:168,1,85,0|8,0:0|0:0,0:0:0:0:
161,135,19147,2,8,L|211:135,1,42.5,8|8,0:0|0:0,0:0:0:0:
396,133,19323,5,12,0:0:0:0:
399,224,19500,1,0,0:0:0:0:
278,227,19676,2,0,L|181:227,1,85,8|0,0:0|0:0,0:0:0:0:
317,173,20029,2,0,L|411:173,2,85,0|0|8,0:0|0:0|0:0,0:0:0:0:
201,175,20558,2,0,L|201:266,1,85
327,174,20912,6,0,L|327:78,1,85,0|8,0:0|0:0,0:0:0:0:
224,86,21265,1,0,0:0:0:0:
114,84,21441,1,0,0:0:0:0:
351,110,21618,1,0,0:0:0:0:
448,111,21794,1,8,0:0:0:0:
352,178,21971,1,0,0:0:0:0:
155,230,22324,6,0,L|255:230,1,85,0|8,0:0|0:0,0:0:0:0:
155,286,22676,1,0,0:0:0:0:
391,282,22853,2,0,L|391:163,1,85
268,194,23206,2,0,L|369:194,1,85,12|0,0:0|0:0,0:0:0:0:
246,270,23559,5,8,0:0:0:0:
241,311,23647,1,8,0:0:0:0:
212,341,23735,1,8,0:0:0:0:
171,346,23823,1,8,0:0:0:0:
135,325,23911,1,8,0:0:0:0:
120,286,24000,1,8,0:0:0:0:
133,246,24088,1,8,0:0:0:0:
167,223,24176,1,8,0:0:0:0:
357,221,24265,5,12,0:0:0:0:
230,216,24529,1,8,0:0:0:0:
197,220,24618,1,8,0:0:0:0:
180,258,24706,1,8,0:0:0:0:
186,300,24794,1,8,0:0:0:0:
211,333,24882,1,8,0:0:0:0:
401,323,24971,6,0,L|501:323,1,85,4|0,0:0|0:0,0:0:0:0:
374,296,25324,2,0,L|374:202,1,85,8|0,0:0|0:0,0:0:0:0:
272,197,25676,1,0,0:0:0:0:
187,282,25853,2,0,L|281:282,2,85,0|8|0,0:0|0:0|0:0,0:0:0:0:
84,283,26382,6,0,P|44:248|91:143,1,170,0|8,0:0|0:0,0:0:0:0:
192,192,26912,2,0,L|16:192,1,170,0|0,0:0|0:0,0:0:0:0:
112,190,27441,2,0,L|212:190,1,85,8|8,0:0|0:0,0:0:0:0:
436,187,27794,5,0,0:0:0:0:
328,192,27971,2,0,L|328:284,1,85,0|8,0:0|0:0,0:0:0:0:
224,224,28324,2,0,L|128:224,1,85,0|0,0:0|0:0,0:0:0:0:
256,224,28676,2,0,L|352:224,2,85,0|8|0,0:0|0:0|0:0,0:0:0:0:
128,224,29206,6,0,P|96:288|160:384,1,170,0|8,0:0|0:0,0:0:0:0:
224,288,29735,1,0,0:0:0:0:
352,288,29912,1,8,0:0:0:0:
352,256,30000,1,8,0:0:0:0:
352,224,30088,1,8,0:0:0:0:
256,192,30265,2,0,L|352:192,1,85,8|0,0:0|0:0,0:0:0:0:
96,192,30618,5,4,0:0:0:0:
192,192,30794,2,0,L|288:192,2,85,0|8|0,0:0|0:0|0:0,0:0:0:0:
64,256,31324,2,0,L|256:256,1,170,0|8,0:0|0:0,0:0:0:0:
352,256,31853,1,0,0:0:0:0:
114,256,32029,6,0,L|114:160,1,85
224,128,32382,2,0,L|224:224,1,85,8|0,0:0|0:0,0:0:0:0:
352,224,32735,2,0,L|256:224,2,85,0|0|8,0:0|0:0|0:0,0:0:0:0:
448,224,33265,1,0,0:0:0:0:
261,185,33441,6,0,L|453:185,1,170,0|6,0:0|0:2,0:0:0:0:
309,187,33971,1,2,0:2:0:0:
160,192,34147,6,0,L|256:192,1,85,0|2,0:0|0:2,0:0:0:0:
352,192,34500,1,8,0:0:0:0:
110,225,34676,2,0,L|302:225,1,170,4|0,0:0|0:0,0:0:0:0:
384,224,35206,2,0,L|384:128,1,85,8|0,0:0|0:0,0:0:0:0:
288,96,35559,5,8,0:0:0:0:
192,96,35735,1,8,0:0:0:0:
160,96,35824,1,8,0:0:0:0:
133,128,35912,1,8,0:0:0:0:
129,169,36000,1,8,0:0:0:0:
150,205,36088,1,8,0:0:0:0:
480,192,36265,5,4,0:0:0:0:
384,192,36441,2,0,L|288:192,2,85,0|8|0,0:0|0:0|0:0,0:0:0:0:
256,256,36971,2,0,L|256:160,1,85,0|0,0:0|0:0,0:0:0:0:
160,160,37324,2,0,L|160:64,1,85,8|0,0:0|0:0,0:0:0:0:
401,159,37676,6,0,L|209:159,1,170,0|8,0:0|0:0,0:0:0:0:
96,160,38206,2,0,P|64:224|96:320,1,170,0|0,0:0|0:0,0:0:0:0:
192,320,38735,1,8,0:0:0:0:
96,320,38912,1,8,0:0:0:0:
333,321,39088,5,0,0:0:0:0:
224,224,39265,2,0,L|128:224,2,85,0|8|0,0:0|0:0|0:0,0:0:0:0:
352,224,39794,2,0,L|352:320,1,85,0|0,0:0|0:0,0:0:0:0:
224,192,40147,2,0,L|128:192,1,85,8|0,0:0|0:0,0:0:0:0:
384,192,40500,6,0,P|448:224|416:320,1,170,0|8,0:0|0:0,0:0:0:0:
320,288,41029,2,0,L|512:288,1,170,0|8,0:0|0:0,0:0:0:0:
426,285,41471,1,8,0:0:0:0:
160,160,41559,2,8,L|160:256,1,85,8|8,0:0|0:0,0:0:0:0:
416,160,41912,5,4,0:0:0:0:
320,192,42088,2,0,L|224:192,2,85,0|8|0,0:0|0:0|0:0,0:0:0:0:
192,256,42618,2,0,L|0:256,1,170,0|8,0:0|0:0,0:0:0:0:
128,256,43147,1,0,0:0:0:0:
384,256,43324,6,0,L|384:160,1,85,4|0,0:0|0:0,0:0:0:0:
288,128,43676,2,0,L|192:128,1,85,8|0,0:0|0:0,0:0:0:0:
320,192,44029,2,0,L|224:192,2,85,0|0|8,0:0|0:0|0:0,0:0:0:0:
416,192,44559,1,0,0:0:0:0:
160,192,44735,6,0,P|128:256|160:352,1,170,4|8,0:0|0:0,0:0:0:0:
256,192,45265,1,0,0:0:0:0:
383,190,45440,1,8,0:3:0:0:
387,232,45528,1,0,0:0:0:0:
375,272,45616,1,0,0:0:0:0:
349,305,45704,1,0,0:0:0:0:
313,326,45792,1,0,0:0:0:0:
73,227,45970,5,4,0:0:0:0:
313,206,46324,2,0,L|313:302,1,85,0|8,0:0|0:0,0:0:0:0:
177,205,46676,1,0,0:0:0:0:
421,261,46852,2,0,L|437:333,1,42.5,8|8,0:0|0:0,0:0:0:0:
362,264,47029,2,0,L|336:327,1,42.5,8|8,0:0|0:0,0:0:0:0:
411,254,47205,1,8,0:0:0:0:
428,215,47293,1,0,0:0:0:0:
419,174,47381,1,0,0:0:0:0:
388,146,47469,1,0,0:0:0:0:
160,192,47558,6,0,P|96:224|64:320,1,170,4|8,0:0|0:0,0:0:0:0:
192,320,48088,2,0,P|192:224|128:192,1,170,4|0,0:0|0:0,0:0:0:0:
32,192,48618,2,0,L|32:288,1,85,8|8,0:0|0:0,0:0:0:0:
288,352,48971,6,0,P|320:256|256:192,1,170,4|8,0:0|0:0,0:0:0:0:
160,192,49500,2,0,P|128:288|160:352,1,170,4|0,0:0|0:0,0:0:0:0:
256,256,50029,2,8,L|352:256,1,85,8|8,0:0|0:0,0:0:0:0:
96,256,50382,6,0,L|288:256,1,170,4|8,0:0|0:0,0:0:0:0:
384,256,50912,2,0,P|384:160|320:128,1,170,4|0,0:0|0:0,0:0:0:0:
224,128,51441,1,8,0:0:0:0:
480,128,51618,1,8,0:0:0:0:
354,178,51794,6,0,L|471:178,1,85,8|0,0:0|0:0,0:0:0:0:
299,256,52147,2,0,L|395:256,1,85,8|0,0:0|0:0,0:0:0:0:
96,256,52500,2,0,L|96:160,1,85,8|0,0:0|0:0,0:0:0:0:
352,128,52853,2,0,L|448:128,1,85,8|0,0:0|0:0,0:0:0:0:
178,133,53206,6,0,P|114:197|146:293,1,170,4|8,0:0|0:0,0:0:0:0:
224,192,53735,1,0,0:0:0:0:
320,224,53912,2,0,L|224:224,1,85,0|0,0:0|0:0,0:0:0:0:
128,288,54265,2,0,L|224:288,1,85,8|0,0:0|0:0,0:0:0:0:
480,288,54618,5,0,0:0:0:0:
480,192,54794,1,0,0:0:0:0:
384,192,54971,1,8,0:0:0:0:
256,192,55147,2,0,P|224:256|288:320,1,170,0|0,0:0|0:0,0:0:0:0:
384,192,55676,2,0,L|288:192,1,85,8|0,0:0|0:0,0:0:0:0:
32,288,56029,6,0,P|0:256|32:128,1,170,0|8,0:0|0:0,0:0:0:0:
96,192,56559,1,0,0:0:0:0:
352,192,56735,1,0,0:0:0:0:
416,192,56912,1,8,0:0:0:0:
448,192,57000,1,8,0:0:0:0:
454,233,57088,1,8,0:0:0:0:
437,271,57176,1,8,0:0:0:0:
224,288,57265,5,12,0:0:0:0:
352,192,57618,2,0,L|448:192,2,85,0|8|8,0:0|0:0|0:0,0:0:0:0:
96,192,58147,2,0,L|96:288,1,85,8|8,0:3|0:0,0:0:0:0:
352,192,58500,2,8,L|352:96,1,85,8|8,0:3|0:3,0:0:0:0:
96,96,58853,6,0,P|64:128|96:256,1,170,4|8,0:0|0:0,0:0:0:0:
192,192,59382,2,0,P|128:192|64:288,1,170,4|0,0:0|0:0,0:0:0:0:
160,192,59912,2,8,L|256:192,1,85,8|8,0:0|0:0,0:0:0:0:
480,192,60265,6,0,P|480:288|416:320,1,170,4|8,0:0|0:0,0:0:0:0:
320,224,60794,2,0,L|512:224,1,170,4|0,0:0|0:0,0:0:0:0:
233,228,61324,1,8,0:0:0:0:
233,324,61500,1,8,0:0:0:0:
480,192,61676,6,0,L|288:192,1,170,4|8,0:0|0:0,0:0:0:0:
192,256,62206,2,0,P|192:192|288:160,1,170,4|0,0:0|0:0,0:0:0:0:
384,160,62735,1,8,0:0:0:0:
125,191,62911,2,0,L|13:192,2,85,8|0|0,0:0|0:0|0:0,0:0:0:0:
273,242,63441,6,0,L|173:241,1,85,8|0,0:0|0:0,0:0:0:0:
444,191,63794,5,8,0:0:0:0:
412,287,63971,1,0,0:0:0:0:
288,288,64147,1,8,0:0:0:0:
256,288,64235,1,8,0:0:0:0:
249,246,64323,1,8,0:0:0:0:
266,208,64411,1,8,0:0:0:0:
480,192,64500,6,0,L|288:192,1,170,4|8,0:0|0:0,0:0:0:0:
192,256,65029,2,0,P|96:224|96:160,1,170,0|0,0:0|0:0,0:0:0:0:
192,160,65559,1,8,0:0:0:0:
64,160,65735,1,8,0:0:0:0:
96,160,65824,1,8,0:0:0:0:
288,160,65912,6,0,P|352:192|320:288,1,170,4|8,0:0|0:0,0:0:0:0:
224,160,66441,1,0,0:0:0:0:
352,160,66618,1,0,0:0:0:0:
256,160,66794,1,0,0:0:0:0:
496,160,66971,2,8,L|496:256,1,85
448,192,67235,1,8,0:0:0:0:
256,192,67324,5,8,0:0:0:0:
160,192,67500,2,8,L|160:256,2,42.5,8|8|8,0:0|0:0|0:0,0:0:0:0:
288,192,67853,1,0,0:0:0:0:
416,256,68029,2,0,L|320:256,2,85,8|0|8,0:0|0:0|0:0,0:0:0:0:
160,256,68559,1,0,0:0:0:0:
160,160,68734,5,8,0:0:0:0:
256,160,68912,1,0,0:0:0:0:
496,160,69088,1,8,0:0:0:0:
496,256,69265,1,0,0:0:0:0:
224,288,69441,5,8,0:0:0:0:
193,260,69529,1,8,0:0:0:0:
194,218,69617,1,8,0:0:0:0:
225,191,69705,1,8,0:0:0:0:
256,192,69794,2,8,L|316:227,3,42.5
224,192,70147,6,2,L|32:192,1,170
160,192,70676,1,2,0:0:0:0:
309,194,70853,1,8,0:3:0:0:
344,171,70941,1,8,0:3:0:0:
359,132,71029,1,8,0:0:0:0:
347,92,71117,1,8,0:0:0:0:
314,67,71205,1,8,0:0:0:0:
224,64,71382,2,8,L|224:128,1,42.5,8|8,0:0|0:0,0:0:0:0:
448,160,71559,6,0,L|256:160,1,170,4|8,0:3|0:0,0:0:0:0:
192,160,72088,1,0,0:0:0:0:
448,256,72265,2,0,L|352:256,2,85,0|0|8,0:0|0:0|0:0,0:0:0:0:
192,256,72794,2,0,P|128:224|192:160,1,170,4|0,0:0|0:0,0:0:0:0:
288,160,73324,6,0,L|288:256,1,85,8|0,0:0|0:0,0:0:0:0:
416,192,73676,2,0,L|416:96,1,85
160,160,74029,1,8,0:0:0:0:
160,256,74206,1,0,0:0:0:0:
416,192,74382,6,0,L|224:192,1,170,4|8,0:0|0:0,0:0:0:0:
96,288,74912,2,0,L|288:288,1,170,4|0,0:0|0:0,0:0:0:0:
384,288,75441,2,0,L|384:192,1,85,8|0,0:0|0:0,0:0:0:0:
128,192,75794,6,0,P|64:224|96:320,1,170,4|8,0:0|0:0,0:0:0:0:
192,192,76324,2,0,P|96:224|96:320,1,170,4|0,0:0|0:0,0:0:0:0:
192,288,76853,2,8,L|192:192,1,85,8|8,0:0|0:0,0:0:0:0:
448,192,77205,6,0,P|480:160|416:64,1,170,4|8,0:0|0:0,0:0:0:0:
320,64,77735,2,0,L|320:160,1,85,0|0,0:0|0:0,0:0:0:0:
192,160,78087,1,8,0:0:0:0:
192,202,78176,1,8,0:0:0:0:
192,245,78264,1,8,0:0:0:0:
320,160,78441,1,0,0:0:0:0:
64,256,78617,6,0,L|160:256,2,85,4|0|8,0:0|0:0|0:0,0:0:0:0:
320,256,79147,2,0,P|384:224|384:128,1,170,4|0,0:0|0:0,0:0:0:0:
256,128,79676,2,0,L|256:224,1,85,8|0,0:0|0:0,0:0:0:0:
16,256,80029,6,0,L|112:256,1,85,4|0,0:0|0:0,0:0:0:0:
192,256,80382,1,8,0:0:0:0:
320,256,80559,2,0,L|128:256,1,170,4|8,0:0|0:0,0:0:0:0:
96,256,81000,2,8,L|96:320,1,42.5,8|8,0:0|0:0,0:0:0:0:
192,256,81265,1,8,0:0:0:0:
448,256,81441,6,0,P|480:192|416:128,1,170,12|8,0:0|0:0,0:0:0:0:
352,128,81882,1,8,0:0:0:0:
160,128,81971,1,8,0:0:0:0:
320,192,82324,2,0,L|224:192,2,85,0|0|0,0:0|0:0|0:0,0:0:0:0:
64,288,82853,6,0,L|64:96,1,170,4|8,0:0|0:0,0:0:0:0:
160,128,83382,1,0,0:0:0:0:
288,128,83559,2,0,L|288:224,1,85,0|0,0:0|0:0,0:0:0:0:
160,224,83912,2,0,L|256:224,1,85,8|0,0:0|0:0,0:0:0:0:
480,224,84265,6,0,L|480:320,1,85,4|0,0:0|0:0,0:0:0:0:
384,224,84618,1,8,0:0:0:0:
288,320,84794,2,0,P|288:256|384:160,1,170,4|8,0:0|0:0,0:0:0:0:
448,192,85324,2,8,L|352:192,1,85,8|8,0:0|0:0,0:0:0:0:
128,224,85676,6,0,P|64:288|64:384,1,170,4|8,0:0|0:0,0:0:0:0:
160,224,86206,1,4,0:0:0:0:
256,224,86382,6,0,L|160:224,2,85,0|0|8,0:0|0:0|0:0,0:0:0:0:
128,224,86912,1,0,0:0:0:0:
384,256,87088,6,0,L|192:256,1,170,4|8,0:0|0:0,0:0:0:0:
96,256,87618,2,0,P|128:160|224:128,1,170,4|0,0:0|0:0,0:0:0:0:
288,128,88147,2,0,L|288:224,1,85,8|0,0:0|0:0,0:0:0:0:
32,288,88500,6,0,L|32:96,1,170,4|8,0:0|0:0,0:0:0:0:
128,128,89029,1,0,0:0:0:0:
32,128,89206,1,0,0:0:0:0:
288,128,89382,1,8,0:0:0:0:
288,170,89470,1,8,0:0:0:0:
288,213,89558,1,8,0:0:0:0:
384,192,89735,1,8,0:0:0:0:
128,192,89912,6,0,L|128:288,1,85,4|0,0:0|0:0,0:0:0:0:
224,192,90265,1,8,0:0:0:0:
480,256,90441,2,0,L|288:256,1,170,4|0,0:0|0:0,0:0:0:0:
224,192,90971,2,0,L|320:192,1,85,8|0,0:0|0:0,0:0:0:0:
64,192,91324,6,0,L|64:288,1,85,4|0,0:0|0:0,0:0:0:0:
160,192,91676,1,8,0:0:0:0:
288,192,91853,2,0,P|352:224|320:320,1,170,4|8,0:0|0:0,0:0:0:0:
288,320,92294,2,8,L|224:320,1,42.5,8|8,0:0|0:0,0:0:0:0:
128,256,92559,1,0,0:0:0:0:
384,256,92735,6,0,L|384:160,1,85,4|0,0:0|0:0,0:0:0:0:
128,160,93088,2,0,L|32:160,1,85,8|0,0:0|0:0,0:0:0:0:
320,160,93441,1,0,0:0:0:0:
416,160,93618,1,8,0:3:0:0:
446,188,93706,1,8,0:3:0:0:
453,229,93794,1,8,0:3:0:0:
435,267,93882,1,8,0:3:0:0:
398,287,93970,1,8,0:3:0:0:
352,288,94059,1,8,0:3:0:0:
160,160,94147,6,0,P|96:192|160:256,1,170,4|8,0:0|0:0,0:0:0:0:
256,256,94676,2,0,P|288:288|192:352,1,170,0|0,0:0|0:0,0:0:0:0:
128,352,95206,2,0,L|128:256,1,85,8|0,0:0|0:0,0:0:0:0:
384,256,95559,6,8,P|416:192|352:96,1,170,8|8,0:0|0:0,0:0:0:0:
288,96,96088,1,0,0:0:0:0:
32,256,96265,2,0,L|128:256,2,85,8|0|8,0:0|0:0|0:0,0:0:0:0:
480,256,96970,6,0,L|480:160,1,85,8|0,0:0|0:0,0:0:0:0:
224,192,97324,1,8,0:0:0:0:
416,192,97676,2,8,L|416:256,1,42.5
224,320,97853,1,8,0:0:0:0:
193,291,97941,1,8,0:0:0:0:
184,250,98029,1,8,0:0:0:0:
200,211,98117,1,8,0:0:0:0:
234,187,98205,1,8,0:0:0:0:
276,187,98294,1,8,0:0:0:0:
448,224,98382,6,8,L|288:224,1,127.5,12|2,0:0|0:2,0:0:0:0:
160,224,98912,1,0,0:0:0:0:
416,224,99088,2,0,P|416:160|352:128,1,127.5,4|2,0:0|0:2,0:0:0:0:
224,128,99618,2,8,L|224:192,1,42.5,8|8,0:0|0:0,0:0:0:0:
416,128,99794,5,4,0:0:0:0:
320,128,99971,1,0,0:0:0:0:
192,160,100147,2,0,L|192:256,1,85,8|0,0:0|0:0,0:0:0:0:
320,192,100500,2,0,L|224:192,2,85,0|0|8,0:0|0:0|0:0,0:0:0:0:
448,192,101029,6,0,P|448:256|352:288,1,170
256,288,101559,2,0,L|256:192,1,85,8|0,0:0|0:0,0:0:0:0:
128,192,101912,2,0,L|128:288,1,85
384,192,102265,1,8,0:0:0:0:
384,288,102441,1,0,0:0:0:0:
128,288,102618,5,4,0:0:0:0:
224,288,102794,5,0,0:0:0:0:
320,288,102971,2,0,L|224:288,1,85,8|0,0:0|0:0,0:0:0:0:
96,224,103324,2,0,L|192:224,2,85,0|0|8,0:0|0:0|0:0,0:0:0:0:
224,224,103853,1,0,0:0:0:0:
416,224,104206,6,0,L|416:320,1,85,0|8,0:0|0:0,0:0:0:0:
320,224,104559,1,0,0:0:0:0:
64,224,104735,2,0,L|160:224,1,85,0|0,0:0|0:0,0:0:0:0:
256,256,105088,1,8,0:0:0:0:
281,222,105176,1,8,0:0:0:0:
287,181,105264,1,8,0:0:0:0:
270,142,105352,1,8,0:0:0:0:
64,128,105441,5,4,0:0:0:0:
160,128,105618,1,0,0:0:0:0:
288,192,105794,2,0,L|192:192,1,85,8|0,0:0|0:0,0:0:0:0:
320,160,106147,2,0,L|416:160,2,85,0|0|8,0:0|0:0|0:0,0:0:0:0:
224,160,106676,6,0,L|224:256,1,85
480,224,107029,2,0,L|384:224,1,85,0|8,0:0|0:0,0:0:0:0:
288,224,107382,1,0,0:0:0:0:
32,288,107559,2,0,L|128:288,1,85,0|0,0:0|0:0,0:0:0:0:
384,288,107912,2,0,L|384:192,1,85,8|0,0:0|0:0,0:0:0:0:
128,192,108265,5,4,0:0:0:0:
224,192,108441,1,0,0:0:0:0:
352,192,108618,2,0,L|352:288,1,85,8|0,0:0|0:0,0:0:0:0:
224,224,108971,2,0,L|128:224,1,85,0|0,0:0|0:0,0:0:0:0:
256,224,109324,2,0,L|256:320,1,85,8|0,0:0|0:0,0:0:0:0:
496,192,109676,5,12,0:0:0:0:
448,192,109765,1,8,0:0:0:0:
417,163,109853,1,8,0:0:0:0:
410,122,109941,1,8,0:0:0:0:
428,84,110029,1,8,0:0:0:0:
465,64,110117,1,8,0:0:0:0:
497,96,110206,2,8,L|433:96,1,42.5,8|8,0:0|0:0,0:0:0:0:
224,96,110382,6,0,L|224:256,1,127.5,4|0,0:0|0:0,0:0:0:0:
96,192,110912,2,0,L|160:192,1,42.5,0|0,0:0|0:0,0:0:0:0:
352,192,111088,5,0,0:0:0:0:
352,320,111265,1,0,0:0:0:0:
224,320,111441,2,0,L|224:224,1,85,0|2,0:0|0:2,0:0:0:0:
352,192,111793,2,0,L|256:192,2,85
224,192,112324,2,0,L|224:256,1,42.5,0|0,0:0|0:0,0:0:0:0:
448,256,112499,6,0,P|480:224|416:128,1,170
320,256,113029,2,0,P|352:160|448:128,1,170,0|4,0:0|0:3,0:0:0:0:
160,160,113559,2,0,L|160:256,1,85,4|8,0:3|0:3,0:0:0:0:
416,192,113912,5,0,0:0:0:0:
320,160,114088,2,0,L|320:352,1,170,0|2,0:0|0:2,0:0:0:0:
64,320,114618,2,0,L|64:224,1,85
160,192,114971,2,0,L|256:192,1,85,0|8,0:0|0:3,0:0:0:0:
288,192,115235,1,8,0:3:0:0:
448,192,115324,6,0,P|480:224|448:352,1,170,8|0,0:3|0:0,0:0:0:0:
352,224,115853,1,8,0:3:0:0:
96,224,116029,1,0,0:0:0:0:
192,224,116206,1,8,0:3:0:0:
222,195,116294,1,8,0:3:0:0:
231,154,116382,1,8,0:3:0:0:
215,115,116470,1,8,0:3:0:0:
181,91,116558,1,8,0:3:0:0:
139,91,116647,1,8,0:3:0:0:
352,96,116735,5,4,0:0:0:0:
256,192,116912,2,0,L|160:192,2,85,0|8|0,0:0|0:0|0:0,0:0:0:0:
352,192,117441,2,0,P|320:288|224:320,1,170,4|6,0:0|0:2,0:0:0:0:
160,320,117971,1,2,0:2:0:0:
416,320,118147,6,0,L|416:224,1,85,2|0,0:2|0:0,0:0:0:0:
320,224,118500,2,0,L|320:128,1,85,8|0,0:0|0:0,0:0:0:0:
64,128,118853,2,0,L|64:224,1,85
320,160,119206,1,8,0:0:0:0:
320,256,119382,1,0,0:0:0:0:
192,256,119559,6,0,L|192:160,1,85
288,128,119912,2,0,L|384:128,1,85,6|0,0:2|0:0,0:0:0:0:
128,224,120265,2,8,L|64:224,2,42.5,8|8|8,0:3|0:3|0:3,0:0:0:0:
288,256,120529,2,8,L|352:256,2,42.5,8|8|8,0:0|0:0|0:0,0:0:0:0:
64,288,120794,6,0,L|64:96,1,170,4|0,0:0|0:0,0:0:0:0:
192,64,121324,2,0,L|96:64,1,85,8|0,0:0|0:0,0:0:0:0:
352,160,121676,5,8,0:3:0:0:
394,160,121764,1,8,0:3:0:0:
433,161,121853,1,8,0:3:0:0:
463,190,121941,1,8,0:3:0:0:
476,230,122029,1,8,0:3:0:0:
468,271,122117,1,8,0:3:0:0:
441,304,122205,1,8,0:3:0:0:
403,320,122294,1,8,0:3:0:0:
192,160,122382,6,0,L|192:256,1,85,4|0,0:0|0:0,0:0:0:0:
288,256,122735,2,0,L|192:256,1,85,6|0,0:2|0:0,0:0:0:0:
320,224,123088,2,0,L|416:224,1,85,0|2,0:0|0:2,0:0:0:0:
256,192,123441,2,0,L|256:96,1,85,6|0,0:2|0:0,0:0:0:0:
384,96,123794,6,0,P|288:128|256:224,1,170,0|8,0:0|0:0,0:0:0:0:
128,288,124324,2,0,P|224:224|256:160,1,170,2|0,0:2|0:0,0:0:0:0:
352,160,124853,2,0,L|352:256,1,85,6|0,0:2|0:0,0:0:0:0:
96,192,125206,5,0,0:0:0:0:
192,192,125382,1,0,0:0:0:0:
320,192,125559,2,0,L|320:288,1,85,6|0,0:2|0:0,0:0:0:0:
256,192,125824,1,0,0:0:0:0:
64,192,125912,1,0,0:0:0:0:
64,234,126000,1,0,0:0:0:0:
64,277,126088,1,2,0:2:0:0:
192,160,126265,2,0,L|288:160,1,85,8|0,0:0|0:0,0:0:0:0:
416,192,126618,6,0,L|224:192,1,170,2|8,0:2|0:0,0:0:0:0:
160,192,127147,2,0,P|96:224|128:320,1,170,2|0,0:2|0:0,0:0:0:0:
192,320,127676,2,0,L|192:224,1,85,6|0,0:2|0:0,0:0:0:0:
448,192,128029,5,4,0:0:0:0:
352,192,128206,2,0,L|256:192,2,85,0|8|0,0:0|0:0|0:0,0:0:0:0:
224,256,128735,2,0,P|160:256|32:288,1,170,0|8,0:0|0:0,0:0:0:0:
128,192,129265,1,0,0:0:0:0:
384,192,129441,5,0,0:0:0:0:
256,192,129618,2,0,L|256:288,1,85,0|8,0:0|0:0,0:0:0:0:
384,256,129971,1,0,0:0:0:0:
128,256,130147,2,0,L|128:352,1,85,0|0,0:0|0:0,0:0:0:0:
384,192,130500,1,8,0:0:0:0:
384,288,130676,1,0,0:0:0:0:
236,293,130853,6,0,P|192:256|256:160,1,170,0|8,0:0|0:0,0:0:0:0:
352,160,131382,1,0,0:0:0:0:
96,160,131559,1,8,0:3:0:0:
59,181,131647,1,8,0:3:0:0:
35,215,131735,1,8,0:3:0:0:
26,257,131823,1,8,0:3:0:0:
48,288,131912,2,8,L|112:288,1,42.5,8|8,0:3|0:3,0:0:0:0:
299,267,132088,6,0,P|352:224|288:160,1,170,4|0,0:0|0:0,0:0:0:0:
32,224,132618,2,0,L|32:128,1,85,8|0,0:0|0:0,0:0:0:0:
288,128,132971,2,8,L|384:128,1,85,8|8,0:0|0:0,0:0:0:0:
416,128,133235,1,8,0:0:0:0:
446,156,133323,1,8,0:0:0:0:
453,197,133411,1,8,0:0:0:0:
435,235,133499,1,8,0:0:0:0:
398,255,133587,1,8,0:0:0:0:
184,297,133676,6,0,P|128:256|192:192,1,170,4|8,0:0|0:0,0:0:0:0:
288,224,134206,2,0,L|96:224,1,170,4|8,0:0|0:0,0:0:0:0:
6,192,134735,2,8,L|102:192,1,85,8|8,0:0|0:0,0:0:0:0:
352,192,135088,6,0,P|401:239|369:335,1,170,4|8,0:0|0:0,0:0:0:0:
242,346,135618,2,0,P|194:260|254:179,1,170,4|8,0:0|0:0,0:0:0:0:
352,192,136147,2,8,L|256:192,1,85,8|8,0:0|0:0,0:0:0:0:
20,288,136500,6,0,L|20:96,1,170,4|8,0:0|0:0,0:0:0:0:
128,96,137029,2,0,L|0:256,1,170,4|8,0:0|0:0,0:0:0:0:
89,187,137559,2,8,L|192:128,1,85,8|8,0:0|0:0,0:0:0:0:
416,128,137912,6,0,L|512:160,2,85,4|0|8,0:0|0:0|0:0,0:0:0:0:
160,128,138441,1,0,0:0:0:0:
160,224,138618,1,8,0:0:0:0:
288,224,138794,2,0,L|288:128,1,85,0|8,0:0|0:0,0:0:0:0:
384,128,139147,2,8,L|384:192,1,42.5
192,288,139324,6,0,L|96:288,2,85,4|0|8,0:0|0:0|0:0,0:0:0:0:
278,290,139853,2,0,P|320:256|256:160,1,170,0|0,0:0|0:0,0:0:0:0:
160,160,140382,2,0,L|160:256,1,85,8|0,0:0|0:0,0:0:0:0:
416,256,140735,6,0,L|416:160,1,85,4|0,0:0|0:0,0:0:0:0:
288,192,141088,1,8,0:0:0:0:
160,192,141265,2,0,L|352:192,1,170,0|0,0:0|0:0,0:0:0:0:
448,224,141794,2,0,L|352:224,1,85,8|0,0:0|0:0,0:0:0:0:
87,293,142147,6,0,P|32:256|96:192,1,170,4|8,0:0|0:0,0:0:0:0:
194,190,142676,1,8,0:3:0:0:
306,191,142853,1,8,0:3:0:0:
338,217,142941,1,8,0:3:0:0:
344,258,143029,1,8,0:3:0:0:
321,293,143117,1,8,0:3:0:0:
140,306,143206,2,8,L|140:245,1,42.5,8|8,0:3|0:3,0:0:0:0:
335,194,143382,5,4,0:0:0:0:
157,245,143735,2,0,L|262:245,1,85,0|8,0:0|0:0,0:0:0:0:
131,246,144088,1,0,0:0:0:0:
371,232,144265,2,8,L|419:232,2,42.5,8|8|8,0:3|0:3|0:3,0:0:0:0:
320,231,144529,2,8,L|259:249,1,42.5
320,231,144706,2,8,L|378:209,1,42.5
97,302,144971,6,0,P|55:267|101:165,1,170,4|8,0:0|0:0,0:0:0:0:
185,163,145500,2,0,L|173:264,1,85,4|0,0:0|0:0,0:0:0:0:
57,258,145853,1,8,0:0:0:0:
161,256,146029,1,8,0:0:0:0:
57,258,146205,1,8,0:0:0:0:
332,151,146382,6,0,P|367:195|297:296,1,170,4|8,0:0|0:0,0:0:0:0:
209,149,146912,1,4,0:0:0:0:
315,152,147088,1,0,0:0:0:0:
432,301,147265,2,8,L|513:260,2,85
177,300,147794,6,0,L|169:118,1,170,4|8,0:0|0:0,0:0:0:0:
281,100,148324,2,0,P|324:140|247:226,1,170,4|8,0:0|0:0,0:0:0:0:
171,143,148853,1,8,0:0:0:0:
428,202,149029,2,0,L|245:201,1,170,12|0,0:0|0:0,0:0:0:0:
146,203,149559,6,0,L|141:303,1,85,8|0,0:0|0:0,0:0:0:0:
385,197,149912,2,0,L|388:89,1,85,0|0,0:0|0:0,0:0:0:0:
145,114,150265,1,8,0:0:0:0:
40,116,150441,2,8,L|104:116,1,42.5,8|8,0:3|0:3,0:0:0:0:
258,171,150618,5,4,0:0:0:0:
364,171,150794,1,0,0:0:0:0:
469,174,150971,1,8,0:0:0:0:
320,305,151147,2,0,L|320:127,1,170,0|0,0:0|0:0,0:0:0:0:
233,154,151676,1,8,0:0:0:0:
346,158,151853,2,0,L|289:158,1,42.5,0|0,0:0|0:0,0:0:0:0:
94,152,152029,6,0,P|46:177|102:262,1,170,4|8,0:0|0:0,0:0:0:0:
201,189,152559,2,0,P|96:221|74:292,1,170,0|0,0:0|0:0,0:0:0:0:
140,212,153088,2,0,L|236:211,1,85,8|0,0:0|0:0,0:0:0:0:
459,212,153441,5,4,0:0:0:0:
362,213,153618,2,8,L|313:213,1,42.5,8|8,0:0|0:0,0:0:0:0:
116,284,153794,2,0,L|11:284,1,85,8|0,0:0|0:0,0:0:0:0:
159,224,154147,2,0,L|44:224,2,85,12|0|8,0:0|0:0|0:0,0:0:0:0:
259,223,154676,1,0,0:0:0:0:
496,224,154853,6,0,L|495:108,1,85,12|0,0:0|0:0,0:0:0:0:
256,128,155206,2,0,L|160:128,1,85,12|0,0:0|0:0,0:0:0:0:
416,128,155559,5,8,0:0:0:0:
423,169,155647,1,8,0:0:0:0:
404,206,155735,1,8,0:0:0:0:
367,224,155823,1,8,0:0:0:0:
199,235,155912,1,8,0:0:0:0:
158,245,156000,1,8,0:0:0:0:
128,274,156088,1,8,0:0:0:0:
117,315,156176,1,8,0:0:0:0:
320,224,156265,6,2,P|416:224|480:384,1,255,2|2,0:0|0:0,0:0:0:0:
384,352,156971,6,8,L|384:288,1,42.5,8|8,0:3|0:3,0:0:0:0:
334,293,157147,2,8,L|334:229,1,42.5,8|8,0:3|0:3,0:0:0:0:
384,224,157324,2,8,L|416:192,1,42.5,8|8,0:0|0:0,0:0:0:0:
416,160,157500,2,8,L|384:96,1,42.5,8|8,0:0|0:0,0:0:0:0:
160,128,157676,6,0,P|96:160|128:256,1,170,4|8,0:3|0:0,0:0:0:0:
224,192,158206,2,0,L|128:192,2,85,0|0|0,0:0|0:0|0:0,0:0:0:0:
352,192,158735,1,8,0:0:0:0:
78,307,158912,6,0,P|32:224|64:160,1,170,4|0,0:0|0:0,0:0:0:0:
201,133,159441,2,0,L|81:133,1,85,8|0,0:0|0:0,0:0:0:0:
371,134,159794,2,0,L|371:237,1,85
125,224,160147,1,8,0:0:0:0:
229,223,160324,1,0,0:0:0:0:
477,219,160500,6,0,L|290:219,1,170,4|8,0:0|0:0,0:0:0:0:
157,219,161029,2,0,P|217:110|291:105,1,170,4|0,0:0|0:0,0:0:0:0:
389,99,161559,2,0,L|389:212,1,85,8|0,0:0|0:0,0:0:0:0:
125,319,161912,6,0,P|71:283|151:222,1,170,4|8,0:0|0:0,0:0:0:0:
257,201,162441,2,0,L|71:201,1,170,4|0,0:0|0:0,0:0:0:0:
176,199,162971,2,0,L|176:305,1,85,8|0,0:0|0:0,0:0:0:0:
428,192,163324,6,0,P|487:217|418:275,1,170,4|8,0:0|0:0,0:0:0:0:
289,191,163853,2,0,P|244:215|317:286,1,170,4|8,0:0|0:0,0:0:0:0:
349,192,164294,1,8,0:0:0:0:
409,191,164382,2,0,L|409:290,1,85,8|0,0:0|0:0,0:0:0:0:
153,264,164734,6,0,L|242:265,2,85,4|0|8,0:0|0:0|0:0,0:0:0:0:
410,134,165265,2,0,P|488:211|490:298,1,170,4|8,0:0|0:0,0:0:0:0:
385,187,165794,2,0,L|268:187,1,85,8|0,0:0|0:0,0:0:0:0:
44,194,166147,6,0,L|43:315,1,85,4|0,0:0|0:0,0:0:0:0:
152,191,166500,1,8,0:0:0:0:
267,192,166676,2,0,P|206:102|127:98,1,170,4|8,0:0|0:0,0:0:0:0:
80,132,167118,1,8,0:0:0:0:
19,159,167206,2,0,L|114:202,1,85,8|0,0:0|0:0,0:0:0:0:
347,204,167559,6,0,L|447:204,1,85,4|8,0:0|0:0,0:0:0:0:
482,203,167824,2,8,L|482:263,1,42.5,8|8,0:0|0:0,0:0:0:0:
225,216,168088,1,4,0:0:0:0:
53,215,168441,1,4,0:0:0:0:
179,149,168618,1,8,0:0:0:0:
136,149,168706,1,8,0:0:0:0:
94,149,168794,1,8,0:0:0:0:
350,153,168971,6,0,P|443:196|490:270,1,170,4|8,0:0|0:0,0:0:0:0:
334,230,169500,1,0,0:0:0:0:
78,307,169676,2,0,L|66:203,1,85,0|0,0:0|0:0,0:0:0:0:
176,178,170029,1,8,0:0:0:0:
422,237,170206,6,0,L|219:247,1,170,4|0,0:0|0:0,0:0:0:0:
126,253,170735,2,0,L|243:248,1,85,8|0,0:0|0:0,0:0:0:0:
443,245,171265,2,0,L|321:253,2,85,0|8|0,0:0|0:0|0:0,0:0:0:0:
194,254,171794,6,0,P|106:196|102:119,1,170,0|8,0:0|0:0,0:0:0:0:
223,209,172324,2,0,P|141:154|139:83,1,170,4|0,0:0|0:0,0:0:0:0:
269,81,172853,2,0,L|184:81,1,85,8|0,0:0|0:0,0:0:0:0:
436,81,173206,6,0,L|436:268,1,170,4|8,0:0|0:0,0:0:0:0:
311,263,173735,2,0,P|360:126|393:110,1,170,4|0,0:0|0:0,0:0:0:0:
489,135,174265,2,0,L|403:194,1,85,8|0,0:0|0:0,0:0:0:0:
157,328,174618,6,0,P|110:303|168:222,1,170,4|8,0:0|0:0,0:0:0:0:
270,219,175147,2,0,P|161:256|126:333,1,170,4|8,0:0|0:0,0:0:0:0:
71,326,175588,2,8,L|30:263,1,42.5,8|8,0:0|0:0,0:0:0:0:
154,235,175853,1,0,0:0:0:0:
412,252,176029,6,0,L|515:252,2,85,4|0|8,0:0|0:0|0:0,0:0:0:0:
129,267,176559,1,4,0:0:0:0:
353,242,176912,2,8,L|353:150,1,85,8|8,0:0|0:0,0:0:0:0:
226,155,177265,1,0,0:0:0:0:
480,232,177441,6,0,L|362:250,2,85,4|0|8,0:0|0:0|0:0,0:0:0:0:
331,256,177971,2,0,L|211:264,2,85,0|0|0,0:0|0:0|0:0,0:0:0:0:
441,302,178500,2,0,L|325:314,1,85,8|0,0:0|0:0,0:0:0:0:
101,328,178853,6,0,P|38:260|50:211,1,127.5,4|8,0:0|0:0,0:0:0:0:
69,201,179206,2,8,L|139:201,1,42.5,8|8,0:0|0:0,0:0:0:0:
324,196,179382,2,0,P|375:228|413:343,1,170,4|0,0:0|0:0,0:0:0:0:
251,352,179912,1,8,0:3:0:0:
218,326,180000,1,8,0:3:0:0:
210,285,180088,1,8,0:3:0:0:
231,250,180176,1,8,0:3:0:0:
421,239,180265,6,0,P|476:228|499:112,1,170,4|8,0:0|0:0,0:0:0:0:
351,203,180794,2,0,P|443:162|443:87,1,170,4|0,0:0|0:0,0:0:0:0:
368,85,181324,2,0,L|258:113,1,85,8|0,0:0|0:0,0:0:0:0:
34,196,181676,6,8,P|81:293|153:325,1,170,12|8,0:0|0:0,0:0:0:0:
239,318,182206,1,0,0:0:0:0:
480,321,182382,2,0,L|489:222,1,85,12|0,0:0|0:0,0:0:0:0:
368,228,182735,2,0,L|382:111,1,85,8|0,0:0|0:0,0:0:0:0:
122,119,183088,6,8,P|54:222|65:298,1,170,12|8,0:0|0:0,0:0:0:0:
198,119,183618,1,0,0:0:0:0:
457,126,183794,2,0,L|463:242,1,85,8|0,0:0|0:0,0:0:0:0:
197,209,184147,1,8,0:0:0:0:
155,217,184235,1,8,0:0:0:0:
125,246,184323,1,8,0:0:0:0:
115,287,184411,1,8,0:0:0:0:
306,211,184500,6,0,L|159:210,1,127.5,4|4,0:0|0:0,0:0:0:0:
16,211,185029,1,4,0:0:0:0:
305,208,185206,2,4,L|175:209,1,127.5
294,141,185646,2,0,L|361:141,2,42.5
112,227,185912,5,4,0:0:0:0:
216,228,186088,1,0,0:0:0:0:
335,270,186265,2,0,L|211:270,1,85,8|0,0:0|0:0,0:0:0:0:
122,311,186617,2,0,L|228:310,2,85,0|8|8,0:0|0:0|0:0,0:0:0:0:
361,309,187147,6,0,P|407:272|350:187,1,170
261,192,187676,2,0,L|286:315,1,85,8|0,0:0|0:0,0:0:0:0:
220,281,187941,1,0,0:0:0:0:
35,283,188029,2,0,L|24:174,1,85,0|8,0:0|0:0,0:0:0:0:
263,216,188382,2,0,L|250:94,1,85,8|0,0:0|0:0,0:0:0:0:
496,106,188734,5,0,0:0:0:0:
502,147,188823,1,0,0:0:0:0:
509,189,188911,1,0,0:0:0:0:
406,194,189088,5,8,0:0:0:0:
300,277,189265,1,0,0:0:0:0:
287,237,189353,1,0,0:0:0:0:
272,198,189441,1,0,0:0:0:0:
435,278,189618,1,8,0:0:0:0:
318,277,189794,1,8,0:0:0:0:
168,277,189971,1,0,0:0:0:0:
496,285,190147,6,0,L|503:208,1,63.7500024318696,4|0,0:0|0:0,0:0:0:0:
468,196,190324,2,0,L|393:177,1,63.7500024318696,0|0,0:0|0:0,0:0:0:0:
353,177,190500,2,0,L|338:88,1,63.7500024318696,8|0,0:0|0:0,0:0:0:0:
397,94,190676,2,0,L|409:190,1,63.7500024318696,0|0,0:0|0:0,0:0:0:0:
225,287,190853,1,0,0:0:0:0:
98,255,191029,1,8,0:0:0:0:
16,193,191206,1,8,0:0:0:0:
29,254,191294,1,0,0:0:0:0:
70,302,191382,1,0,0:0:0:0:
129,326,191470,1,0,0:0:0:0:
290,327,191559,5,4,0:0:0:0:
227,317,191647,1,0,0:0:0:0:
174,282,191735,1,0,0:0:0:0:
140,229,191823,1,0,0:0:0:0:
124,175,191912,1,8,0:0:0:0:
134,112,192000,1,0,0:0:0:0:
167,58,192088,1,0,0:0:0:0:
219,22,192176,1,0,0:0:0:0:
483,54,192265,5,0,0:0:0:0:
498,114,192353,1,0,0:0:0:0:
473,171,192441,1,8,0:0:0:0:
418,200,192529,1,0,0:0:0:0:
366,232,192618,1,8,0:0:0:0:
348,291,192706,1,0,0:0:0:0:
377,346,192794,1,0,0:0:0:0:
436,364,192882,1,0,0:0:0:0:
185,346,192971,6,0,L|141:266,1,63.7500024318696,4|0,0:0|0:0,0:0:0:0:
184,241,193147,2,0,L|270:211,1,63.7500024318696,0|0,0:0|0:0,0:0:0:0:
480,226,193324,2,0,L|494:109,1,63.7500024318696,8|0,0:0|0:0,0:0:0:0:
218,166,193500,2,0,L|107:133,1,63.7500024318696,0|0,0:0|0:0,0:0:0:0:
398,194,193676,2,0,P|428:262|268:326,1,255.000009727478,4|8,0:0|0:0,0:0:0:0:
74,208,194382,6,0,L|223:207,1,127.500004863739,8|0,0:0|0:0,0:0:0:0:
451,206,194735,2,0,L|463:35,1,127.500004863739,8|0,0:0|0:0,0:0:0:0:
300,87,195088,1,8,0:0:0:0:
424,84,195265,1,0,0:0:0:0:
63,96,195441,1,8,0:0:0:0:
58,159,195529,1,0,0:0:0:0:
53,223,195617,1,0,0:0:0:0:
375,278,195794,5,8,0:0:0:0:
425,243,195882,1,0,0:0:0:0:
428,182,195970,1,0,0:0:0:0:
380,143,196058,1,0,0:0:0:0:
124,136,196146,5,8,0:0:0:0:
79,179,196235,1,0,0:0:0:0:
80,241,196323,1,0,0:0:0:0:
126,282,196411,1,0,0:0:0:0:
363,283,196499,1,8,0:0:0:0:
236,285,196676,1,8,0:0:0:0:
363,283,196853,2,0,L|361:79,1,191.250007295609,12|0,0:0|0:0,0:0:0:0:
128,83,197206,5,4,0:0:0:0:
320,83,197559,1,0,0:0:0:0:
185,78,197735,2,0,P|217:192|274:221,1,170
379,199,198441,1,0,0:0:0:0:
144,198,198618,6,0,P|84:265|90:351,1,170,4|0,0:0|0:0,0:0:0:0:
201,195,199147,1,0,0:0:0:0:
371,195,199500,2,0,L|187:195,1,170
448,205,200029,6,0,P|504:264|438:283,1,170,4|0,0:0|0:0,0:0:0:0:
304,292,200559,2,0,P|246:264|310:205,1,170,0|0,0:0|0:0,0:0:0:0:
423,194,201088,2,0,L|424:303,1,85,0|0,0:0|0:0,0:0:0:0:
185,287,201441,6,0,L|186:103,1,170,4|0,0:0|0:0,0:0:0:0:
331,75,201971,2,0,L|146:75,1,170,0|0,0:0|0:0,0:0:0:0:
35,75,202500,1,0,0:0:0:0:
142,73,202676,2,8,L|207:73,1,42.5,8|8,0:0|0:0,0:0:0:0:
416,64,202853,6,0,P|448:128|448:224,1,170,4|0,0:0|0:0,0:0:0:0:
320,224,203382,1,0,0:0:0:0:
192,224,203559,2,0,L|96:224,1,85,2|8,0:0|0:3,0:0:0:0:
352,224,204088,1,8,0:3:0:0:
64,224,204265,6,0,P|160:128|192:128,1,170,4|0,0:0|0:0,0:0:0:0:
288,128,204794,1,0,0:0:0:0:
448,160,204971,6,0,L|416:256,1,85,0|4,0:0|0:0,0:0:0:0:
320,192,205324,1,8,0:3:0:0:
192,192,205500,2,8,L|192:256,1,42.5,8|8,0:3|0:3,0:0:0:0:
428,229,205676,6,0,P|480:191|411:128,1,170,4|0,0:0|0:0,0:0:0:0:
288,216,206206,2,0,L|458:216,1,170,0|2,0:0|0:0,0:0:0:0:
219,189,206735,1,4,0:0:0:0:
97,187,206912,1,0,0:0:0:0:
376,198,207088,6,0,L|377:300,1,85,4|0,0:0|0:0,0:0:0:0:
138,247,207441,1,8,0:3:0:0:
137,129,207618,1,8,0:3:0:0:
446,225,207794,2,8,L|445:115,1,85,8|8,0:3|0:3,0:0:0:0:
197,128,208147,1,8,0:3:0:0:
157,142,208235,1,8,0:3:0:0:
127,171,208323,1,8,0:3:0:0:
112,211,208411,1,8,0:3:0:0:
331,192,208500,6,0,P|386:230|415:333,1,170,4|8,0:0|0:0,0:0:0:0:
258,342,209029,2,0,P|186:274|201:197,1,170,0|0,0:0|0:0,0:0:0:0:
319,194,209559,2,0,L|421:195,1,85,8|0,0:0|0:0,0:0:0:0:
121,289,209912,6,0,P|62:228|136:200,1,170,0|8,0:0|0:0,0:0:0:0:
196,127,210441,1,0,0:0:0:0:
242,127,210529,1,0,0:0:0:0:
446,129,210618,2,0,L|457:254,1,85
332,221,210971,2,0,L|324:118,1,85,8|0,0:0|0:0,0:0:0:0:
71,176,211324,6,0,P|156:257|225:263,1,170,0|8,0:0|0:0,0:0:0:0:
333,191,211853,2,0,L|334:257,1,42.5,0|0,0:0|0:0,0:0:0:0:
101,195,212029,2,0,L|101:310,1,85
221,153,212382,2,0,L|114:153,1,85,8|0,0:0|0:0,0:0:0:0:
383,166,212735,6,0,P|478:232|482:313,1,170,0|8,0:0|0:0,0:0:0:0:
346,291,213265,2,0,L|347:108,1,170,0|0,0:0|0:0,0:0:0:0:
288,288,213706,1,0,0:0:0:0:
37,272,213794,2,0,L|36:163,1,85,8|0,0:0|0:0,0:0:0:0:
309,126,214147,6,0,P|363:143|305:199,1,170,4|8,0:0|0:0,0:0:0:0:
171,205,214676,2,0,P|117:229|187:300,1,170,0|0,0:0|0:0,0:0:0:0:
290,198,215206,2,0,L|406:198,1,85,8|0,0:0|0:0,0:0:0:0:
110,191,215558,6,0,P|65:207|125:279,1,170,0|8,0:0|0:0,0:0:0:0:
219,177,216088,2,0,L|219:288,1,85
334,173,216441,1,0,0:0:0:0:
196,172,216618,1,8,0:0:0:0:
355,173,216794,2,0,L|355:239,1,42.5,0|0,0:0|0:0,0:0:0:0:
109,324,216971,6,0,P|81:279|131:175,1,170,4|8,0:0|0:0,0:0:0:0:
242,182,217500,2,0,P|145:217|113:293,1,170,0|0,0:0|0:0,0:0:0:0:
227,192,218029,2,0,L|334:192,1,85,8|0,0:0|0:0,0:0:0:0:
31,186,218382,6,0,P|33:277|121:323,1,170,0|8,0:0|0:0,0:0:0:0:
350,332,218912,2,8,L|421:308,1,42.5,8|8,0:0|0:0,0:0:0:0:
423,284,219088,2,8,L|429:222,1,42.5,8|8,0:0|0:0,0:0:0:0:
391,220,219265,2,8,L|310:204,1,42.5,8|8,0:0|0:0,0:0:0:0:
119,206,219441,2,8,L|110:271,1,42.5,8|8,0:0|0:0,0:0:0:0:
130,294,219618,2,8,L|196:322,1,42.5,8|8,0:0|0:0,0:0:0:0:
386,318,219794,6,0,P|405:230|353:159,1,170,12|12,0:0|0:0,0:0:0:0:
201,172,220324,1,0,0:0:0:0:
479,202,220500,2,0,L|385:215,1,85,12|0,0:0|0:0,0:0:0:0:
129,309,220853,2,0,L|28:249,1,85,12|0,0:0|0:0,0:0:0:0:
350,196,221206,5,12,0:0:0:0:
352,292,221382,1,0,0:0:0:0:
211,194,221559,1,12,0:0:0:0:
210,291,221735,1,0,0:0:0:0:
466,178,221912,2,0,L|352:178,1,85,12|0,0:0|0:0,0:0:0:0:
108,286,222265,2,0,L|204:285,1,85,12|0,0:0|0:0,0:0:0:0:
456,199,222617,5,12,0:0:0:0:
370,256,222794,1,0,0:0:0:0:
103,275,222971,2,0,L|101:162,1,85,12|0,0:0|0:0,0:0:0:0:
361,137,223323,5,8,0:0:0:0:
401,143,223412,1,8,0:0:0:0:
420,179,223500,1,8,0:0:0:0:
404,217,223588,1,8,0:0:0:0:
364,227,223676,1,8,0:0:0:0:
149,228,223765,2,8,L|91:228,2,42.5,8|8|8,0:0|0:0|0:0,0:0:0:0:
364,227,224029,5,4,0:0:0:0:
52,177,224735,2,8,L|45:228,1,42.5,8|8,0:3|0:3,0:0:0:0:
65,252,224912,2,8,L|125:275,1,42.5,8|8,0:3|0:3,0:0:0:0:
301,134,225088,2,0,L|301:283,1,127.5,4|0,0:0|0:0,0:0:0:0:
79,258,225441,6,0,P|28:229|95:152,1,170,4|12,0:3|0:0,0:0:0:0:
199,147,225971,2,0,L|109:147,2,85,0|0|0,0:0|0:0|0:0,0:0:0:0:
349,149,226500,1,8,0:0:0:0:
64,297,226676,6,0,P|87:222|201:187,1,170,4|0,0:0|0:0,0:0:0:0:
306,180,227206,6,0,L|182:192,1,85,8|0,0:0|0:0,0:0:0:0:
468,178,227559,2,0,L|485:280,1,85
350,268,227912,2,0,L|335:166,1,85,8|0,0:0|0:0,0:0:0:0:
83,174,228265,6,0,P|32:229|89:284,1,170,4|8,0:0|0:0,0:0:0:0:
229,171,228794,2,0,L|26:172,1,170,0|0,0:0|0:0,0:0:0:0:
359,167,229324,2,0,L|358:277,1,85,8|0,0:0|0:0,0:0:0:0:
68,153,229676,6,0,P|31:194|89:292,1,170,4|8,0:0|0:0,0:0:0:0:
349,303,230206,2,0,P|391:244|346:155,1,170,4|0,0:0|0:0,0:0:0:0:
230,97,230735,2,0,L|333:97,1,85,8|0,0:0|0:0,0:0:0:0:
76,288,231088,6,0,L|-18:289,2,85,4|0|8,0:0|0:0|0:0,0:0:0:0:
186,289,231618,2,0,L|186:173,1,85,0|0,0:0|0:0,0:0:0:0:
307,130,231971,1,8,0:0:0:0:
264,129,232059,1,8,0:0:0:0:
222,129,232147,1,8,0:0:0:0:
81,129,232324,1,0,0:0:0:0:
374,132,232500,6,0,L|374:252,1,85,4|0,0:0|0:0,0:0:0:0:
469,128,232853,1,8,0:0:0:0:
199,135,233029,2,0,P|132:227|141:310,1,170,0|0,0:0|0:0,0:0:0:0:
373,127,233559,2,0,L|375:236,1,85,8|0,0:0|0:0,0:0:0:0:
125,146,233912,6,0,L|34:146,2,85,0|0|8,0:0|0:0|0:0,0:0:0:0:
246,146,234441,2,0,L|133:145,1,85,0|0,0:0|0:0,0:0:0:0:
284,146,234794,1,8,0:0:0:0:
326,146,234882,1,8,0:0:0:0:
369,146,234970,1,8,0:0:0:0:
488,143,235147,1,0,0:0:0:0:
198,171,235324,6,0,P|176:187|204:274,1,127.5,4|8,0:0|0:0,0:0:0:0:
249,172,235676,1,8,0:0:0:0:
488,172,235853,2,0,L|489:263,1,85,4|0,0:0|0:0,0:0:0:0:
335,171,236206,2,0,L|336:345,1,170,12|8,0:0|0:0,0:0:0:0:
271,169,236647,1,8,0:0:0:0:
53,169,236735,6,0,P|17:219|39:333,1,170,4|8,0:0|0:0,0:0:0:0:
148,165,237265,1,0,0:0:0:0:
390,207,237441,2,0,L|296:230,2,85,0|0|8,0:0|0:0|0:0,0:0:0:0:
493,200,237971,1,0,0:0:0:0:
205,193,238147,5,0,0:0:0:0:
236,290,238324,1,0,0:0:0:0:
323,296,238500,1,8,0:0:0:0:
62,312,238676,2,0,P|30:275|76:160,1,170,0|0,0:0|0:0,0:0:0:0:
184,167,239206,6,0,L|61:175,1,85,8|0,0:0|0:0,0:0:0:0:
385,166,239559,2,0,P|416:177|366:272,1,170,4|8,0:0|0:0,0:0:0:0:
133,170,240088,2,0,L|132:355,1,170,4|0,0:0|0:0,0:0:0:0:
252,152,240618,2,0,L|147:152,1,85,8|0,0:0|0:0,0:0:0:0:
425,156,240971,6,0,L|227:155,1,170,4|8,0:0|0:0,0:0:0:0:
16,231,241500,2,0,L|204:231,1,170,4|0,0:0|0:0,0:0:0:0:
298,223,242029,2,0,L|299:319,1,85,8|0,0:0|0:0,0:0:0:0:
60,305,242382,6,0,P|21:285|72:189,1,170,4|8,0:0|0:0,0:0:0:0:
181,183,242912,2,0,L|181:278,1,85,0|0,0:0|0:0,0:0:0:0:
317,148,243265,1,8,0:0:0:0:
274,148,243353,1,8,0:0:0:0:
232,148,243441,1,8,0:0:0:0:
106,149,243618,1,0,0:0:0:0:
374,235,243794,6,0,L|488:236,2,85,4|0|8,0:0|0:0|0:0,0:0:0:0:
133,232,244324,1,0,0:0:0:0:
133,316,244500,1,0,0:0:0:0:
389,218,244676,1,0,0:0:0:0:
492,218,244853,1,8,0:0:0:0:
389,218,245029,1,0,0:0:0:0:
133,211,245206,6,0,L|133:303,1,85,4|0,0:0|0:0,0:0:0:0:
250,213,245559,1,8,0:0:0:0:
380,217,245735,2,0,L|380:321,1,85,0|0,0:0|0:0,0:0:0:0:
141,228,246088,1,0,0:0:0:0:
379,228,246265,2,8,P|414:185|371:93,1,127.5
184,113,246618,5,4,0:0:0:0:
293,112,246794,1,8,0:0:0:0:
325,115,246882,1,8,0:0:0:0:
335,155,246970,1,8,0:0:0:0:
323,195,247058,1,8,0:0:0:0:
89,186,247147,2,0,P|59:228|91:292,1,127.5,4|0,0:0|0:0,0:0:0:0:
281,281,247500,2,0,L|281:186,1,85,4|8,0:0|0:0,0:0:0:0:
395,183,247853,2,8,L|396:246,1,42.5,8|8,0:0|0:0,0:0:0:0:
165,319,248029,6,0,P|130:277|166:160,1,170,4|8,0:0|0:0,0:0:0:0:
271,162,248559,1,0,0:0:0:0:
23,268,248735,2,0,L|136:302,2,85,0|0|8,0:0|0:0|0:0,0:0:0:0:
289,184,249265,6,0,P|356:215|392:323,1,170,4|0,0:0|0:0,0:0:0:0:
299,298,249794,2,0,L|410:284,1,85,8|0,0:0|0:0,0:0:0:0:
107,214,250146,1,0,0:0:0:0:
107,314,250324,1,0,0:0:0:0:
215,212,250500,1,8,0:0:0:0:
107,214,250676,1,0,0:0:0:0:
385,211,250853,6,0,P|421:188|364:78,1,170,4|8,0:0|0:0,0:0:0:0:
140,89,251382,2,0,L|55:144,2,85,4|0|0,0:0|0:0|0:0,0:0:0:0:
267,87,251912,2,0,L|364:133,1,85,8|0,0:0|0:0,0:0:0:0:
83,308,252265,6,0,P|33:275|30:158,1,170,4|8,0:0|0:0,0:0:0:0:
274,140,252794,2,0,P|380:184|401:252,1,170,4|0,0:0|0:0,0:0:0:0:
286,151,253324,2,8,L|393:166,1,85,8|8,0:0|0:0,0:0:0:0:
91,148,253676,6,0,P|66:218|106:314,1,170,4|8,0:0|0:0,0:0:0:0:
217,123,254206,2,0,L|104:123,1,85,0|0,0:0|0:0,0:0:0:0:
267,121,254559,1,8,0:0:0:0:
224,121,254647,1,8,0:0:0:0:
182,121,254735,1,8,0:0:0:0:
53,122,254912,1,0,0:0:0:0:
329,209,255088,6,0,L|236:208,2,85,4|0|8,0:0|0:0|0:0,0:0:0:0:
86,316,255618,2,0,P|31:268|93:211,1,170,4|0,0:0|0:0,0:0:0:0:
215,207,256147,2,0,L|92:207,1,85,8|0,0:0|0:0,0:0:0:0:
416,205,256500,6,0,L|416:326,1,85,4|0,0:0|0:0,0:0:0:0:
306,167,256853,2,0,L|213:166,2,85,8|0|0,0:0|0:0|0:0,0:0:0:0:
411,169,257382,2,8,L|412:233,1,42.5
204,210,257559,2,0,L|204:318,1,85,8|0,0:0|0:0,0:0:0:0:
451,125,257912,5,4,0:0:0:0:
453,226,258088,1,0,0:0:0:0:
165,117,258265,2,0,L|269:117,2,85,12|0|0,0:0|0:0|0:0,0:0:0:0:
52,127,258794,5,8,0:0:0:0:
40,167,258882,1,8,0:0:0:0:
49,208,258970,1,8,0:0:0:0:
75,241,259058,1,8,0:0:0:0:
112,258,259147,2,8,L|170:258,1,42.5,8|8,0:0|0:0,0:0:0:0:
406,270,259324,6,0,P|457:223|396:167,1,170,4|8,0:0|0:0,0:0:0:0:
284,173,259853,2,0,L|460:173,1,170,4|0,0:0|0:0,0:0:0:0:
344,258,260382,2,0,L|244:256,1,85,12|0,0:0|0:0,0:0:0:0:
16,170,260735,6,8,L|217:170,1,170,12|8,0:0|0:0,0:0:0:0:
66,168,261265,1,0,0:0:0:0:
350,171,261441,1,12,0:0:0:0:
400,273,261618,1,0,0:0:0:0:
133,281,261794,2,0,L|133:162,1,85,12|0,0:0|0:0,0:0:0:0:
399,158,262147,6,0,L|281:158,1,85,12|0,0:0|0:0,0:0:0:0:
60,253,262500,2,0,L|173:253,1,85,12|0,0:0|0:0,0:0:0:0:
403,258,262853,1,12,0:0:0:0:
481,258,263029,1,8,0:0:0:0:
507,242,263118,1,8,0:0:0:0:
508,200,263206,1,8,0:0:0:0:
488,163,263294,1,8,0:0:0:0:
451,143,263382,1,8,0:0:0:0:
415,137,263471,1,8,0:0:0:0:
166,138,263559,6,4,L|146:281,1,127.5,4|4,0:0|0:0,0:0:0:0:
334,140,264088,1,4,0:0:0:0:
61,299,264265,2,4,L|35:163,1,127.5,4|4,0:0|0:0,0:0:0:0:
196,127,264794,1,8,0:0:0:0:
244,127,264882,1,8,0:0:0:0:
461,125,264971,6,0,L|461:238,1,85,4|0,0:0|0:0,0:0:0:0:
353,209,265324,2,0,L|313:107,1,85,8|0,0:0|0:0,0:0:0:0:
84,108,265676,2,0,L|-6:111,2,85,0|0|8,0:0|0:0|0:0,0:0:0:0:
324,108,266206,2,0,P|367:152|332:268,1,170,4|0,0:0|0:0,0:0:0:0:
203,254,266735,6,0,L|203:157,1,85,8|0,0:0|0:0,0:0:0:0:
442,164,267088,2,0,L|441:57,1,85,0|0,0:0|0:0,0:0:0:0:
192,77,267441,1,8,0:0:0:0:
306,77,267618,1,0,0:0:0:0:
43,199,267794,5,4,0:0:0:0:
106,295,267971,1,0,0:0:0:0:
213,301,268147,1,8,0:0:0:0:
312,301,268324,1,0,0:0:0:0:
454,301,268500,2,0,L|346:302,2,85,0|0|8,0:0|0:0|0:0,0:0:0:0:
182,306,269029,6,0,P|127:272|186:174,1,170,4|0,0:0|0:0,0:0:0:0:
277,176,269559,1,8,0:0:0:0:
154,176,269735,1,0,0:0:0:0:
421,177,269912,2,0,L|421:284,1,85,4|0,0:0|0:0,0:0:0:0:
167,148,270265,2,8,L|46:149,1,85,8|8,0:0|0:0,0:0:0:0:
28,150,270529,1,8,0:0:0:0:
281,148,270618,5,4,0:0:0:0:
390,149,270794,1,0,0:0:0:0:
252,218,270971,1,8,0:0:0:0:
136,223,271147,1,0,0:0:0:0:
289,223,271324,2,0,L|184:223,2,85,0|0|8,0:0|0:0|0:0,0:0:0:0:
24,322,271853,6,0,P|-6:223|37:172,1,170,4|0,0:0|0:0,0:0:0:0:
146,143,272382,2,0,L|33:143,1,85,8|0,0:0|0:0,0:0:0:0:
302,149,272735,2,0,L|303:246,1,85,4|0,0:0|0:0,0:0:0:0:
59,144,273088,1,8,0:0:0:0:
59,339,273265,1,8,0:0:0:0:
109,339,273353,1,8,0:0:0:0:
326,340,273441,6,8,L|325:239,1,85,8|0,0:0|0:0,0:0:0:0:
224,176,273794,2,0,L|126:175,1,85,8|0,0:0|0:0,0:0:0:0:
402,114,274147,6,0,L|518:133,1,85,8|0,0:0|0:0,0:0:0:0:
486,173,274412,1,8,0:0:0:0:
472,218,274500,1,8,0:0:0:0:
442,256,274588,1,8,0:0:0:0:
400,281,274676,1,8,0:0:0:0:
353,290,274764,1,8,0:0:0:0:
150,290,274853,6,8,L|151:178,1,85,12|4,0:0|0:0,0:0:0:0:
280,196,275206,1,8,0:0:0:0:
16,196,275382,1,4,0:0:0:0:
