osu file format v14

[General]
AudioFilename: audio.mp3
AudioLeadIn: 0
PreviewTime: 55442
Countdown: 0
SampleSet: Soft
StackLeniency: 0.7
Mode: 0
LetterboxInBreaks: 0
WidescreenStoryboard: 0

[Editor]
DistanceSpacing: 1.1
BeatDivisor: 2
GridSize: 32
TimelineZoom: 0.7

[Metadata]
Title:Cat Food
TitleUnicode:キャットフード
Artist:YURiCa/Hanatan
ArtistUnicode:ユリカ/花たん
Creator:Garden
Version:Normal
Source:初音ミク -Project DIVA- f
Tags:Karen flower drops cover utaite vocaloid hatsune miku doriko cut short version ロミオとシンデレラ romeo to and cinderella cordelia
BeatmapID:1418130
BeatmapSetID:670558

[Difficulty]
HPDrainRate:4
CircleSize:3
OverallDifficulty:4
ApproachRate:5
SliderMultiplier:1
SliderTickRate:1

[Events]
//Background and Video events
0,0,"neko.jpg",0,0
//Break Periods
//Storyboard Layer 0 (Background)
//Storyboard Layer 1 (Fail)
//Storyboard Layer 2 (Pass)
//Storyboard Layer 3 (Foreground)
//Storyboard Sound Samples

[TimingPoints]
787,344.827586206897,4,2,1,65,1,0
11476,-100,4,2,1,75,0,0
22338,-100,4,2,1,65,0,0
55959,-100,4,2,1,75,0,1
87683,-100,4,2,1,75,0,0

[Colours]
Combo1 : 255,214,87
Combo2 : 255,119,255
Combo3 : 255,162,117
Combo4 : 179,102,255

[HitObjects]
231,357,787,6,0,L|218:250,1,100,4|2,0:0|0:0,0:0:0:0:
303,186,1476,2,0,L|307:119,1,50,2|2,0:0|0:0,0:0:0:0:
241,46,1993,2,0,P|164:42|101:102,1,150,4|2,0:0|0:0,0:0:0:0:
105,195,2855,1,2,0:0:0:0:
201,142,3200,1,2,0:0:0:0:
302,185,3545,6,0,P|385:181|426:116,1,150,2|2,0:0|0:0,0:0:0:0:
201,142,4752,2,0,L|212:305,1,150,2|2,0:0|0:0,0:0:0:0:
293,366,5614,1,2,0:0:0:0:
383,303,5959,1,2,0:0:0:0:
479,356,6304,6,0,P|491:302|480:250,1,100,4|2,0:0|0:0,0:0:0:0:
433,160,6993,2,0,L|383:165,1,50,2|2,0:0|0:0,0:0:0:0:
299,237,7511,2,0,P|224:253|156:226,1,150,2|2,0:0|0:0,0:0:0:0:
235,148,8373,2,0,L|241:43,1,100,2|2,0:0|0:0,0:0:0:0:
135,16,9062,6,0,P|51:41|18:102,1,150,2|2,0:0|0:0,0:0:0:0:
235,148,10269,2,0,B|334:154|334:154|385:128,1,150,4|2,0:0|0:0,0:0:0:0:
419,108,10959,2,0,B|411:208|411:208|429:222|429:222|441:267,1,150,2|0,0:0|1:0,0:0:0:0:
422,357,11821,6,0,L|301:349,1,100,4|0,0:0|1:0,0:0:0:0:
238,288,12511,1,2,0:0:0:0:
238,288,12683,1,2,0:0:0:0:
153,359,13028,2,0,P|66:352|22:305,1,150,4|0,0:0|1:0,0:0:0:0:
120,255,13890,1,0,3:0:0:0:
25,198,14235,1,0,1:0:0:0:
122,146,14580,6,0,P|174:134|244:159,1,100,2|0,0:0|1:0,0:0:0:0:
260,163,15097,2,0,L|383:133,1,100,2|2,0:0|0:0,0:0:0:0:
317,36,15787,2,0,P|216:33|154:3,1,150,4|0,0:0|1:0,0:0:0:0:
62,9,16649,1,4,0:0:0:0:
20,110,16993,1,4,1:2:0:0:
113,167,17338,6,0,P|134:214|127:271,1,100,4|0,0:1|1:0,0:0:0:0:
65,350,18028,1,2,0:0:0:0:
65,350,18200,1,2,0:0:0:0:
171,376,18545,2,0,L|344:357,1,150,4|0,0:0|1:0,0:0:0:0:
422,318,19407,1,0,3:0:0:0:
339,244,19752,1,0,1:0:0:0:
444,212,20097,6,0,P|460:156|449:97,1,100,2|0,0:0|1:0,0:0:0:0:
440,73,20614,2,0,L|321:60,1,100,2|2,0:0|0:0,0:0:0:0:
261,138,21304,2,0,L|141:148,1,100,4|2,0:0|0:0,0:0:0:0:
131,112,21821,2,0,L|136:48,1,50,2|0,1:2|1:0,0:0:0:0:
27,38,22338,2,0,B|18:54|18:54|15:148,1,100,4|0,0:3|0:0,0:0:0:0:
15,181,22855,5,4,0:0:0:0:
101,250,23200,2,0,P|156:236|211:245,1,100,0|0,1:0|0:0,0:0:0:0:
242,252,23718,1,2,0:3:0:0:
337,306,24062,2,0,P|350:258|338:199,1,100,2|2,0:0|0:3,0:0:0:0:
321,169,24580,1,0,1:0:0:0:
240,93,24924,2,0,L|187:100,2,50,2|2|2,0:3|0:3|1:0,0:0:0:0:
318,15,25614,5,4,0:0:0:0:
400,88,25959,2,0,P|426:135|424:204,1,100,0|2,1:0|0:0,0:0:0:0:
414,223,26476,1,2,0:3:0:0:
329,293,26821,2,0,L|222:290,1,100,2|2,0:0|0:3,0:0:0:0:
186,275,27338,1,0,1:0:0:0:
87,324,27683,2,0,L|90:384,2,50,2|2|2,0:3|0:3|1:0,0:0:0:0:
6,250,28373,5,4,0:0:0:0:
89,177,28718,2,0,P|144:155|209:170,1,100,0|2,1:0|0:0,0:0:0:0:
227,169,29235,1,2,0:3:0:0:
315,235,29580,2,0,L|313:361,1,100,2|2,0:0|0:3,0:0:0:0:
343,370,30097,1,0,1:0:0:0:
447,335,30442,2,0,L|500:333,2,50,2|2|2,0:0|0:3|1:0,0:0:0:0:
373,260,31131,5,0,1:0:0:0:
373,260,31304,1,0,1:0:0:0:
465,200,31649,2,0,P|480:143|464:83,1,100,8|4,0:3|0:3,0:0:0:0:
404,17,32338,2,0,L|270:37,1,100,4|2,0:0|0:0,0:0:0:0:
261,41,32855,1,0,1:0:0:0:
326,129,33200,1,0,1:0:0:0:
217,145,33545,1,8,1:3:0:0:
287,229,33890,5,4,0:0:0:0:
396,220,34235,2,0,L|391:339,1,100,0|2,1:0|0:0,0:0:0:0:
363,355,34752,1,2,0:3:0:0:
258,321,35097,2,0,P|213:311|151:324,1,100,2|0,0:0|0:0,0:0:0:0:
119,338,35614,2,0,P|85:343|51:335,1,50,0|0,1:0|0:0,0:0:0:0:
31,318,35959,2,0,L|36:203,1,100,2|0,0:0|1:0,0:0:0:0:
59,110,36649,5,4,0:0:0:0:
157,161,36993,2,0,P|209:164|266:134,1,100,0|2,1:0|0:0,0:0:0:0:
288,117,37511,1,2,0:3:0:0:
373,48,37855,2,0,P|396:121|388:157,1,100,2|0,0:0|0:0,0:0:0:0:
365,179,38373,2,0,P|356:210|354:249,1,50,0|0,1:0|0:0,0:0:0:0:
356,273,38718,2,0,P|410:257|483:278,1,100,2|0,0:0|1:0,0:0:0:0:
413,365,39407,5,4,0:0:0:0:
302,365,39752,2,0,P|262:318|253:266,1,100,0|2,1:0|0:0,0:0:0:0:
257,237,40269,1,2,0:3:0:0:
358,194,40614,2,0,P|378:150|372:97,1,100,2|2,0:0|0:3,0:0:0:0:
357,57,41131,1,0,1:0:0:0:
252,21,41476,2,0,L|185:27,2,50,0|2|4,1:0|0:0|1:2,0:0:0:0:
286,131,42166,5,0,1:0:0:0:
286,131,42338,1,8,0:3:0:0:
181,124,42683,1,0,1:0:0:0:
181,124,42855,2,0,P|126:126|71:167,1,100,4|2,0:3|0:3,0:0:0:0:
75,191,43373,2,0,L|83:310,1,100,4|2,0:0|0:3,0:0:0:0:
109,327,43890,1,0,1:0:0:0:
206,276,44235,1,2,0:3:0:0:
295,340,44580,2,0,P|324:329|369:331,1,50,2|2,0:0|0:0,0:0:0:0:
387,337,44924,6,0,B|368:284|396:240|396:240|347:204|351:137,1,200,6|2,0:0|0:3,0:0:0:0:
461,151,45959,1,0,1:0:0:0:
402,57,46304,2,0,P|302:55|240:150,1,200,2|2,0:0|0:3,0:0:0:0:
350,155,47338,1,0,1:0:0:0:
273,234,47683,6,0,P|222:235|173:212,1,100,4|0,0:0|1:0,0:0:0:0:
133,121,48373,1,2,0:3:0:0:
133,121,48545,1,2,0:3:0:0:
206,39,48890,2,0,P|253:36|326:66,1,100,4|2,0:0|0:3,0:0:0:0:
337,81,49407,2,0,L|333:146,2,50,0|0|0,1:0|0:0|1:0,0:0:0:0:
433,27,50097,1,0,1:0:0:0:
501,113,50442,6,0,B|525:160|504:212|504:212|467:238|468:195|388:232,1,200,4|2,0:0|0:3,0:0:0:0:
448,326,51476,1,0,1:0:0:0:
339,310,51821,2,0,B|229:301|269:378|124:354,1,200,2|2,0:0|0:3,0:0:0:0:
73,278,52855,1,0,1:0:0:0:
183,250,53200,5,0,1:0:0:0:
183,250,53373,1,2,0:0:0:0:
36,183,53890,1,0,1:0:0:0:
36,183,54062,1,2,0:0:0:0:
140,150,54407,2,0,P|198:144|249:165,1,100,4|2,0:0|0:3,0:0:0:0:
271,187,54924,2,0,L|270:256,2,50,4|4|0,0:3|0:3|1:0,0:0:0:0:
360,122,55614,1,12,0:3:0:0:
453,179,55959,6,0,P|467:118|453:65,1,100,4|0,0:0|1:0,0:0:0:0:
437,43,56476,1,2,0:0:0:0:
360,122,56821,1,2,0:3:0:0:
256,85,57166,2,0,L|144:78,1,100,4|2,0:0|0:3,0:0:0:0:
113,94,57683,1,0,1:0:0:0:
43,179,58028,2,0,L|37:240,2,50,2|2|2,0:0|0:3|1:2,0:0:0:0:
151,202,58718,6,0,L|143:325,1,100,4|0,0:0|1:0,0:0:0:0:
161,344,59235,1,2,0:0:0:0:
259,294,59580,1,2,0:3:0:0:
355,345,59924,2,0,P|409:344|457:309,1,100,4|2,0:0|0:3,0:0:0:0:
477,286,60442,2,0,L|474:226,1,50,0|2,1:0|0:3,0:0:0:0:
472,191,60787,1,2,1:0:0:0:
380,250,61131,1,2,1:0:0:0:
285,193,61476,5,4,0:0:0:0:
207,271,61821,2,0,P|145:274|106:256,1,100,0|2,1:0|0:3,0:0:0:0:
73,234,62338,1,2,0:3:0:0:
60,124,62683,2,0,L|54:65,2,50,2|2|0,0:0|0:3|0:0,0:0:0:0:
167,155,63373,2,0,L|170:45,1,100,2|2,0:0|0:3,0:0:0:0:
186,13,63890,1,0,1:0:0:0:
281,68,64235,6,0,P|332:69|388:38,1,100,4|0,0:0|1:0,0:0:0:0:
409,18,64752,1,0,3:0:0:0:
502,77,65097,1,0,3:0:0:0:
421,152,65442,2,0,P|409:199|423:264,1,100,4|2,0:0|0:3,0:0:0:0:
448,282,65959,2,0,L|520:276,2,50,0|2|0,1:0|0:3|1:0,0:0:0:0:
365,355,66649,1,2,3:2:0:0:
260,324,66993,6,0,L|254:222,1,100,4|0,0:0|1:0,0:0:0:0:
268,181,67511,1,2,0:0:0:0:
358,119,67855,1,2,0:3:0:0:
450,179,68200,2,0,P|466:123|451:62,1,100,4|2,0:0|0:3,0:0:0:0:
441,41,68718,1,0,1:0:0:0:
335,10,69062,2,0,L|265:18,2,50,2|2|0,0:3|0:3|1:0,0:0:0:0:
358,119,69752,6,0,L|229:131,1,100,4|0,0:0|1:0,0:0:0:0:
217,146,70269,1,2,0:0:0:0:
123,87,70614,1,2,0:3:0:0:
25,138,70959,2,0,P|13:196|36:270,1,100,4|2,0:0|0:3,0:0:0:0:
46,272,71476,2,0,L|107:294,1,50,0|2,1:0|0:3,0:0:0:0:
137,301,71821,1,2,1:0:0:0:
117,193,72166,1,2,1:0:0:0:
217,146,72511,5,4,0:0:0:0:
302,210,72855,2,0,P|355:215|415:172,1,100,0|2,1:0|0:3,0:0:0:0:
428,163,73373,1,2,0:3:0:0:
496,250,73718,2,0,L|509:320,2,50,2|2|0,0:0|0:3|0:0,0:0:0:0:
405,313,74407,2,0,P|362:330|287:321,1,100,2|2,0:0|0:3,0:0:0:0:
269,308,74924,1,0,1:0:0:0:
176,367,75269,6,0,L|74:350,1,100,4|0,0:0|1:0,0:0:0:0:
33,340,75787,2,0,L|25:273,1,50,2|0,0:0|1:0,0:0:0:0:
56,256,76131,2,0,L|64:200,1,50,2|0,0:0|1:0,0:0:0:0:
36,171,76476,2,0,P|23:125|36:56,1,100,4|2,0:0|0:3,0:0:0:0:
55,37,76993,2,0,L|114:30,2,50,0|2|0,1:0|0:3|1:0,0:0:0:0:
127,120,77683,2,0,L|203:110,1,50,0|0,1:0|1:0,0:0:0:0:
221,106,78028,5,4,1:0:0:0:
288,18,78373,2,0,P|339:12|402:39,1,100,4|2,0:0|0:3,0:0:0:0:
418,58,78890,1,2,0:3:0:0:
329,122,79235,2,0,P|309:168|322:246,1,100,4|2,0:0|0:3,0:0:0:0:
337,254,79752,2,0,L|397:257,2,50,0|2|0,1:0|0:3|1:0,0:0:0:0:
243,311,80442,1,0,1:0:0:0:
337,366,80787,5,4,0:0:0:0:
444,342,81131,2,0,P|480:289|484:243,1,100,0|2,1:0|0:0,0:0:0:0:
474,210,81649,1,2,0:3:0:0:
427,110,81993,2,0,L|328:121,1,100,4|2,0:0|0:3,0:0:0:0:
288,143,82511,2,0,L|225:134,1,50,0|0,1:0|0:0,0:0:0:0:
200,112,82855,1,4,0:0:0:0:
257,18,83200,1,0,1:0:0:0:
146,15,83545,6,0,P|93:91|131:199,1,200,4|0,0:0|1:0,0:0:0:0:
200,112,84580,1,2,0:0:0:0:
284,181,84924,2,0,B|390:203|373:125|486:148,1,200,4|2,0:0|1:2,0:0:0:0:
450,253,85959,1,2,0:0:0:0:
345,287,86304,1,4,1:2:0:0:
256,192,86476,12,4,87683,1:0:0:0:
256,192,89062,5,4,0:0:0:0:
