osu file format v14

[General]
AudioFilename: audio.mp3
AudioLeadIn: 0
PreviewTime: 55442
Countdown: 0
SampleSet: Soft
StackLeniency: 0.7
Mode: 0
LetterboxInBreaks: 0
WidescreenStoryboard: 0

[Editor]
DistanceSpacing: 0.4
BeatDivisor: 4
GridSize: 32
TimelineZoom: 1.5

[Metadata]
Title:Cat Food
TitleUnicode:キャットフード
Artist:YURiCa/Hanatan
ArtistUnicode:ユリカ/花たん
Creator:Garden
Version:Karen's Insane
Source:初音ミク -Project DIVA- f
Tags:Karen flower drops cover utaite vocaloid hatsune miku doriko cut short version ロミオとシンデレラ romeo to and cinderella cordelia
BeatmapID:1418604
BeatmapSetID:670558

[Difficulty]
HPDrainRate:6
CircleSize:4
OverallDifficulty:8
ApproachRate:9
SliderMultiplier:1.8
SliderTickRate:1

[Events]
//Background and Video events
0,0,"neko.jpg",0,0
//Break Periods
//Storyboard Layer 0 (Background)
//Storyboard Layer 1 (Fail)
//Storyboard Layer 2 (Pass)
//Storyboard Layer 3 (Foreground)
//Storyboard Sound Samples

[TimingPoints]
787,344.827586206897,4,2,1,65,1,0
787,-133.333333333333,4,2,1,65,0,0
11476,-83.3333333333333,4,2,1,65,0,0
11821,-100,4,2,1,65,0,0
22338,-181.818181818181,4,2,1,65,0,0
22855,-133.333333333333,4,2,1,65,0,0
31649,-153.846153846153,4,2,1,65,0,0
31993,-200,4,2,1,65,0,0
32338,-100,4,2,1,65,0,0
33890,-133.333333333333,4,2,1,65,0,0
43373,-100,4,2,1,65,0,0
44924,-133.333333333333,4,2,1,65,0,0
54407,-100,4,2,1,65,0,0
55614,-153.846153846153,4,2,1,65,0,0
55959,-86.9565217391304,4,2,1,75,0,1
83545,-133.333333333333,4,2,1,75,0,1
87683,-133.333333333333,4,2,1,75,0,1
88545,-200,4,2,1,65,0,0

[Colours]
Combo1 : 255,214,87
Combo2 : 255,119,255
Combo3 : 255,162,117
Combo4 : 179,102,255

[HitObjects]
223,44,787,6,0,L|216:163,1,101.250003862381,4|0,0:0|0:0,0:0:0:0:
200,156,1131,2,0,L|194:249,1,67.5000025749208,2|0,0:0|0:0,0:0:0:0:
307,79,1476,2,0,L|301:172,1,67.5000025749208,2|2,0:0|0:0,0:0:0:0:
240,303,1821,1,0,0:0:0:0:
419,230,1993,6,0,L|268:228,1,135.000005149842,4|0,0:0|0:0,0:0:0:0:
397,314,2511,2,0,L|317:313,1,67.5000025749208,2|0,0:0|0:0,0:0:0:0:
392,145,2855,2,0,L|312:144,1,67.5000025749208,2|0,0:0|0:0,0:0:0:0:
195,223,3200,1,2,0:0:0:0:
199,227,3545,5,2,0:0:0:0:
127,165,3718,1,0,0:0:0:0:
37,195,3890,1,0,0:0:0:0:
213,207,4062,5,2,0:0:0:0:
127,165,4235,1,0,0:0:0:0:
48,218,4407,1,0,0:0:0:0:
121,337,4580,1,0,0:0:0:0:
121,337,4752,6,0,L|137:247,1,67.5000025749208,2|0,0:0|0:0,0:0:0:0:
66,83,5097,1,0,0:0:0:0:
192,97,5269,1,2,0:0:0:0:
66,83,5442,1,0,0:0:0:0:
284,104,5614,1,2,0:0:0:0:
66,83,5959,1,2,0:0:0:0:
131,168,6131,1,0,0:0:0:0:
131,168,6218,1,0,0:0:0:0:
131,168,6304,6,0,P|143:221|132:277,1,101.250003862381,4|0,0:0|0:0,0:0:0:0:
127,285,6649,2,0,P|103:305|60:318,1,67.5000025749208,2|0,0:0|0:0,0:0:0:0:
225,300,6993,2,0,P|208:333|178:365,1,67.5000025749208,2|2,0:0|0:0,0:0:0:0:
308,258,7338,1,0,0:0:0:0:
218,81,7511,6,0,P|206:134|231:212,1,135.000005149842,2|0,0:0|0:0,0:0:0:0:
308,105,8028,2,0,P|304:142|321:182,1,67.5000025749208,2|0,0:0|0:0,0:0:0:0:
401,135,8373,1,2,0:0:0:0:
401,135,8545,1,0,0:0:0:0:
503,132,8718,1,2,0:0:0:0:
503,132,9062,5,2,0:0:0:0:
470,220,9235,1,0,0:0:0:0:
488,312,9407,1,0,0:0:0:0:
480,127,9580,5,2,0:0:0:0:
470,220,9753,1,0,0:0:0:0:
512,304,9925,1,2,0:0:0:0:
381,257,10097,1,0,0:0:0:0:
213,329,10269,6,0,P|225:280|194:197,1,135.000005149842,4|2,0:0|0:0,0:0:0:0:
203,57,10787,1,2,0:0:0:0:
283,139,10959,2,0,L|279:166,6,16.8750006437302,2|0|0|0|0|0|0,0:0|0:0|0:0|0:0|0:0|0:0|0:0,0:0:0:0:
351,78,11304,1,4,0:3:0:0:
351,78,11390,1,4,0:3:0:0:
351,78,11476,6,0,B|396:89|430:70|430:70|461:95|519:87,1,161.999995056153,0|0,1:0|0:0,0:0:0:0:
495,172,11821,6,0,B|426:153|426:153|352:163,1,135,4|0,0:0|0:0,0:0:0:0:
353,182,12166,1,0,1:0:0:0:
424,259,12338,1,0,0:0:0:0:
328,367,12511,1,2,0:0:0:0:
246,268,12683,2,0,L|352:279,1,90,2|0,0:0|1:0,0:0:0:0:
488,374,13028,6,0,L|302:354,1,180,4|2,0:0|0:0,0:0:0:0:
154,242,13545,1,0,1:0:0:0:
217,356,13718,1,2,0:0:0:0:
324,219,13890,1,0,3:0:0:0:
324,219,14062,1,0,0:0:0:0:
246,268,14235,2,0,P|242:201|230:117,1,135,0|0,1:0|0:0,0:0:0:0:
218,116,14580,5,2,0:0:0:0:
279,17,14752,1,0,0:0:0:0:
335,119,14924,1,0,1:0:0:0:
187,205,15097,1,2,0:0:0:0:
190,28,15269,1,0,0:0:0:0:
366,33,15442,1,2,0:0:0:0:
360,208,15614,1,0,1:0:0:0:
273,150,15787,6,0,P|281:238|285:331,1,180,4|2,0:0|0:0,0:0:0:0:
387,184,16304,1,0,1:0:0:0:
375,362,16476,1,0,0:0:0:0:
495,289,16649,2,0,P|444:278|386:272,1,90,4|0,0:0|0:0,0:0:0:0:
294,306,16993,2,0,P|226:319|150:315,1,135,4|0,1:2|0:0,0:0:0:0:
144,300,17338,6,0,P|165:246|115:173,1,135,4|0,0:1|0:0,0:0:0:0:
108,178,17683,1,0,1:0:0:0:
181,41,17855,1,0,0:0:0:0:
247,207,18028,1,2,0:0:0:0:
340,121,18200,2,0,P|288:112|229:108,1,90,2|0,0:0|1:0,0:0:0:0:
92,5,18545,6,0,P|173:9|281:0,1,180,4|2,0:0|0:0,0:0:0:0:
426,167,19062,2,0,P|436:119|419:59,1,90,0|2,1:0|0:0,0:0:0:0:
340,99,19407,1,0,3:0:0:0:
340,99,19580,1,0,0:0:0:0:
373,244,19752,2,0,P|306:246|238:254,1,135,0|0,1:0|0:0,0:0:0:0:
221,238,20097,5,2,0:0:0:0:
134,160,20269,1,0,0:0:0:0:
244,123,20441,1,0,1:0:0:0:
303,283,20614,1,2,0:0:0:0:
129,250,20786,1,0,0:0:0:0:
164,77,20959,1,2,0:0:0:0:
336,114,21131,1,0,1:0:0:0:
236,178,21304,6,0,P|243:115|246:26,1,135,4|0,0:0|0:0,0:0:0:0:
236,27,21649,2,0,L|290:9,1,45,2|0,1:2|0:0,0:0:0:0:
334,80,21821,2,0,L|388:62,1,45,2|0,1:2|0:0,0:0:0:0:
439,125,21993,2,0,L|493:107,1,45,2|0,1:2|0:0,0:0:0:0:
454,301,22338,6,0,P|392:278|333:317,1,123.75000377655,4|0,0:3|0:0,0:0:0:0:
340,318,22855,1,4,0:0:0:0:
223,196,23028,1,2,0:0:0:0:
323,145,23200,2,0,L|314:224,1,67.5000025749208,0|2,1:0|0:0,0:0:0:0:
126,186,23545,1,0,0:0:0:0:
126,186,23718,2,0,L|135:265,1,67.5000025749208,2|0,0:3|1:0,0:0:0:0:
216,360,24062,6,0,P|137:367|80:316,1,135.000005149842,2|2,0:0|0:3,0:0:0:0:
231,198,24580,2,0,L|224:294,1,67.5000025749208,0|0,1:0|0:0,0:0:0:0:
43,258,24924,1,2,0:3:0:0:
43,258,25097,1,2,0:3:0:0:
120,98,25269,2,0,L|133:214,1,101.250003862381,2|0,1:0|0:0,0:0:0:0:
129,215,25614,5,4,0:0:0:0:
28,62,25787,1,2,0:0:0:0:
157,9,25959,2,0,L|242:-1,1,67.5000025749208,0|2,1:0|0:0,0:0:0:0:
221,123,26304,1,2,0:0:0:0:
221,123,26476,2,0,L|288:130,1,67.5000025749208,2|0,0:3|1:0,0:0:0:0:
472,49,26821,6,0,P|398:40|322:58,1,135.000005149842,2|2,0:0|0:3,0:0:0:0:
448,136,27338,2,0,P|411:132|362:142,1,67.5000025749208,0|0,1:0|0:0,0:0:0:0:
322,307,27683,1,2,0:3:0:0:
322,307,27855,1,2,0:3:0:0:
416,222,28028,2,0,L|408:344,1,101.250003862381,2|0,1:0|0:0,0:0:0:0:
419,336,28373,5,4,0:0:0:0:
323,209,28545,1,2,0:0:0:0:
241,350,28718,2,0,L|235:282,1,67.5000025749208,0|0,1:0|0:0,0:0:0:0:
321,112,29062,1,2,0:0:0:0:
321,112,29235,2,0,P|280:102|245:100,1,67.5000025749208,2|0,0:3|1:0,0:0:0:0:
136,192,29580,1,2,0:0:0:0:
136,192,29752,6,0,P|169:188|202:179,1,67.5000025749208,2|2,0:3|0:3,0:0:0:0:
225,13,30097,1,0,1:0:0:0:
161,102,30269,1,0,0:0:0:0:
294,194,30442,1,2,0:0:0:0:
355,108,30614,1,2,0:3:0:0:
355,108,30700,1,0,0:0:0:0:
355,108,30787,2,0,L|242:98,1,101.250003862381,2|0,1:0|0:0,0:0:0:0:
244,112,31131,5,0,1:0:0:0:
431,50,31304,1,0,1:0:0:0:
431,50,31649,6,0,L|446:149,1,87.749995983124,8|0,0:3|0:0,0:0:0:0:
456,144,31993,6,0,L|450:226,1,67.5,4|0,0:3|0:0,0:0:0:0:
440,291,32338,6,0,P|350:297|321:221,1,180,4|2,0:0|0:0,0:0:0:0:
312,80,32855,1,0,1:0:0:0:
240,192,33028,1,2,0:0:0:0:
148,177,33200,1,0,1:0:0:0:
250,283,33373,1,2,0:0:0:0:
377,151,33545,1,8,1:3:0:0:
377,151,33718,1,0,0:0:0:0:
159,272,33890,6,0,L|34:259,1,101.250003862381,4|0,0:0|0:0,0:0:0:0:
46,249,34235,1,0,1:0:0:0:
105,90,34407,1,0,0:0:0:0:
148,177,34580,1,2,0:0:0:0:
148,177,34752,2,0,L|228:166,1,67.5000025749208,2|0,0:3|1:0,0:0:0:0:
272,86,35097,1,2,0:0:0:0:
272,86,35269,6,0,L|338:95,1,67.5000025749208,0|0,0:0|0:0,0:0:0:0:
403,184,35614,1,0,1:0:0:0:
360,276,35787,1,0,0:0:0:0:
305,192,35959,1,2,0:0:0:0:
452,268,36131,1,2,0:3:0:0:
479,117,36304,6,0,L|462:18,1,101.250003862381,0|0,1:0|0:0,0:0:0:0:
446,10,36649,1,4,0:0:0:0:
342,99,36821,1,2,0:3:0:0:
249,25,36993,2,0,L|164:20,1,67.5000025749208,0|0,1:0|0:0,0:0:0:0:
266,164,37338,1,2,0:0:0:0:
266,164,37511,2,0,L|177:172,1,67.5000025749208,2|0,0:3|1:0,0:0:0:0:
113,248,37855,1,2,0:0:0:0:
113,248,38028,6,0,L|125:324,1,67.5000025749208,0|0,0:0|0:0,0:0:0:0:
274,380,38373,1,0,1:0:0:0:
322,271,38545,1,0,0:0:0:0:
274,380,38718,2,0,P|220:380|188:368,1,67.5000025749208,2|0,0:0|0:0,0:0:0:0:
263,192,39062,2,0,L|379:172,1,101.250003862381,0|0,1:0|0:0,0:0:0:0:
376,184,39407,5,4,0:0:0:0:
452,339,39580,1,2,0:3:0:0:
512,192,39752,2,0,L|501:280,1,67.5000025749208,0|0,1:0|0:0,0:0:0:0:
358,341,40097,1,2,0:0:0:0:
358,341,40269,2,0,L|349:274,1,67.5000025749208,2|0,0:3|1:0,0:0:0:0:
270,202,40614,1,2,0:0:0:0:
270,202,40787,6,0,L|278:135,1,67.5000025749208,0|2,0:0|0:3,0:0:0:0:
378,7,41131,1,0,1:0:0:0:
289,48,41304,1,2,0:0:0:0:
369,174,41476,1,0,1:0:0:0:
304,61,41649,1,2,0:0:0:0:
483,78,41821,6,0,L|472:184,1,101.250003862381,4|0,1:2|0:0,0:0:0:0:
469,195,42166,1,0,1:0:0:0:
347,283,42338,1,8,0:3:0:0:
347,283,42683,1,0,1:0:0:0:
273,224,42855,2,0,L|195:217,1,67.5000025749208,4|0,0:3|0:0,0:0:0:0:
45,215,43200,1,2,0:3:0:0:
139,89,43373,6,0,P|130:175|125:277,1,180,4|2,0:0|0:3,0:0:0:0:
48,117,43890,1,0,1:0:0:0:
205,217,44062,1,0,0:0:0:0:
301,86,44235,2,0,L|292:180,1,90,2|0,0:3|0:0,0:0:0:0:
347,359,44580,1,2,0:0:0:0:
368,353,44666,1,2,0:0:0:0:
389,348,44752,1,2,0:0:0:0:
410,342,44838,1,2,0:0:0:0:
431,336,44924,6,0,P|446:289|408:211,1,135.000005149842,6|0,0:0|1:0,0:0:0:0:
334,260,45442,1,0,0:0:0:0:
403,117,45614,1,2,0:3:0:0:
403,117,45787,1,2,0:3:0:0:
334,260,45959,2,0,L|246:256,1,67.5000025749208,0|0,1:0|0:0,0:0:0:0:
137,118,46304,6,0,P|210:121|251:180,1,135.000005149842,2|0,0:0|1:0,0:0:0:0:
225,342,46821,1,0,0:0:0:0:
171,203,46993,1,2,0:3:0:0:
171,203,47166,1,2,0:3:0:0:
43,312,47338,2,0,L|164:294,1,101.250003862381,0|0,1:0|0:0,0:0:0:0:
158,289,47683,5,4,0:0:0:0:
85,152,47855,1,0,0:0:0:0:
271,256,48028,1,0,1:0:0:0:
310,62,48200,1,0,1:0:0:0:
194,188,48373,1,2,0:3:0:0:
366,232,48545,1,2,0:3:0:0:
208,80,48718,1,0,1:0:0:0:
378,133,48890,6,0,L|525:118,1,135.000005149842,4|2,0:0|0:3,0:0:0:0:
512,0,49407,1,0,1:0:0:0:
401,41,49580,1,0,0:0:0:0:
462,219,49752,1,0,1:0:0:0:
415,52,49924,1,0,0:0:0:0:
457,240,50097,2,0,L|380:235,1,67.5000025749208,0|0,1:0|0:0,0:0:0:0:
225,121,50442,6,0,P|290:117|351:159,1,135.000005149842,4|0,0:0|1:0,0:0:0:0:
314,313,50959,1,0,0:0:0:0:
165,200,51131,1,2,0:3:0:0:
165,200,51304,1,2,0:3:0:0:
221,286,51476,2,0,L|132:301,1,67.5000025749208,0|0,1:0|0:0,0:0:0:0:
79,154,51821,6,0,P|92:90|46:13,1,135.000005149842,2|0,0:0|1:0,0:0:0:0:
188,89,52338,1,0,0:0:0:0:
295,23,52511,1,2,0:3:0:0:
295,23,52683,1,2,0:3:0:0:
358,98,52855,2,0,L|351:184,1,67.5000025749208,0|0,1:0|0:0,0:0:0:0:
295,339,53200,5,0,1:0:0:0:
295,339,53373,1,2,0:0:0:0:
240,262,53890,5,0,1:0:0:0:
240,262,54063,1,2,0:0:0:0:
261,171,54407,6,0,L|79:158,1,180,4|2,0:0|0:3,0:0:0:0:
151,239,54924,1,4,0:3:0:0:
116,75,55097,1,4,0:3:0:0:
97,318,55269,1,0,1:0:0:0:
97,318,55614,6,0,P|102:354|66:334,1,87.749995983124,12|0,0:3|0:0,0:0:0:0:
25,263,55959,6,0,L|197:272,1,155.250002961159,4|0,0:0|0:0,0:0:0:0:
202,258,56304,1,0,1:0:0:0:
309,116,56476,2,0,P|300:165|298:225,1,103.500001974106,2|0,0:0|0:0,0:0:0:0:
409,114,56821,1,2,0:3:0:0:
409,114,56907,1,0,0:0:0:0:
409,114,56993,1,0,1:0:0:0:
224,53,57166,6,0,P|205:152|203:275,1,207.000003948212,4|2,0:0|0:3,0:0:0:0:
400,324,57683,2,0,L|274:308,1,103.500001974106,0|0,1:0|0:0,0:0:0:0:
99,263,58028,1,2,0:0:0:0:
291,209,58200,1,2,0:3:0:0:
185,359,58373,2,0,L|201:257,1,103.500001974106,2|0,1:2|0:0,0:0:0:0:
135,135,58718,6,0,P|72:153|-5:84,1,155.250002961159,4|0,0:0|0:0,0:0:0:0:
5,79,59062,1,0,1:0:0:0:
230,57,59235,2,0,P|234:102|244:164,1,103.500001974106,2|2,0:0|0:3,0:0:0:0:
383,193,59580,1,2,0:3:0:0:
383,193,59666,1,0,0:0:0:0:
383,193,59752,1,0,1:0:0:0:
499,67,59924,6,0,P|406:42|313:128,1,207.000003948212,4|2,0:0|0:3,0:0:0:0:
350,315,60442,1,0,1:0:0:0:
507,186,60614,1,2,0:3:0:0:
293,238,60787,1,2,1:0:0:0:
496,279,60959,1,0,0:0:0:0:
448,108,61131,1,2,1:0:0:0:
409,239,61304,1,0,0:0:0:0:
386,34,61476,5,4,0:0:0:0:
386,34,61821,2,0,L|271:22,1,103.500001974106,0|0,1:0|0:0,0:0:0:0:
174,142,62166,1,2,0:3:0:0:
91,6,62338,2,0,P|75:62|85:125,1,103.500001974106,2|0,0:3|1:0,0:0:0:0:
278,126,62683,1,2,0:0:0:0:
278,126,62769,1,0,0:0:0:0:
278,126,62855,6,0,P|270:224|257:341,1,207.000003948212,2|0,0:3|1:0,0:0:0:0:
135,231,63373,1,2,0:0:0:0:
169,375,63545,1,2,0:3:0:0:
235,214,63718,1,2,0:3:0:0:
169,375,63890,2,0,L|66:362,1,103.500001974106,0|0,1:0|0:0,0:0:0:0:
0,187,64235,6,0,P|69:181|158:228,1,155.250002961159,4|0,0:0|0:0,0:0:0:0:
156,239,64580,1,0,1:0:0:0:
298,116,64752,2,0,P|246:110|194:130,1,103.500001974106,0|0,3:0|1:0,0:0:0:0:
92,7,65097,2,0,L|108:122,1,103.500001974106,0|0,3:0|1:0,0:0:0:0:
256,205,65442,6,0,L|234:386,1,155.250002961159,4|0,0:0|0:0,0:0:0:0:
260,370,65787,1,2,0:3:0:0:
360,208,65959,1,0,1:0:0:0:
483,381,66131,1,2,0:3:0:0:
456,175,66304,1,0,1:0:0:0:
512,262,66476,1,0,3:0:0:0:
494,273,66562,1,0,3:0:0:0:
478,286,66649,2,0,L|417:280,1,51.7500009870529,2|2,3:2|3:2,0:0:0:0:
364,356,66821,2,0,L|303:350,1,51.7500009870529,2|2,3:2|3:2,0:0:0:0:
208,271,66993,6,0,P|186:208|226:115,1,155.250002961159,4|0,0:0|0:0,0:0:0:0:
233,133,67338,1,0,1:0:0:0:
107,286,67511,2,0,P|90:226|91:170,1,103.500001974106,2|0,0:0|0:0,0:0:0:0:
188,29,67855,1,2,0:0:0:0:
188,29,67942,1,0,0:0:0:0:
188,29,68028,1,0,1:0:0:0:
372,115,68200,6,0,P|261:120|151:122,1,207.000003948212,4|2,0:0|0:3,0:0:0:0:
41,0,68718,1,0,1:0:0:0:
188,29,68890,1,0,0:0:0:0:
103,200,69062,1,2,0:3:0:0:
74,96,69235,1,2,0:3:0:0:
265,105,69407,2,0,P|254:155|248:214,1,103.500001974106,0|0,1:0|0:0,0:0:0:0:
358,280,69752,6,0,P|422:257|512:316,1,155.250002961159,4|0,0:0|0:0,0:0:0:0:
502,312,70097,1,0,1:0:0:0:
437,173,70269,2,0,L|445:69,1,103.500001974106,2|2,0:0|0:3,0:0:0:0:
340,182,70614,1,2,0:3:0:0:
421,356,70787,1,0,1:0:0:0:
247,233,70959,6,0,P|243:117|236:26,1,207.000003948212,4|2,0:0|0:3,0:0:0:0:
148,9,71390,1,0,0:0:0:0:
131,21,71476,1,0,1:0:0:0:
160,175,71649,1,2,0:3:0:0:
315,88,71821,1,2,1:0:0:0:
165,192,71993,1,0,0:0:0:0:
27,75,72166,2,0,L|39:191,1,103.500001974106,2|0,1:0|0:0,0:0:0:0:
125,292,72511,5,4,0:0:0:0:
125,292,72855,2,0,L|241:283,1,103.500001974106,0|0,1:0|0:0,0:0:0:0:
165,192,73200,1,2,0:3:0:0:
185,381,73373,2,0,L|301:372,1,103.500001974106,2|0,0:3|1:0,0:0:0:0:
466,206,73718,1,2,0:0:0:0:
466,206,73804,1,0,0:0:0:0:
466,206,73890,6,0,P|367:199|324:303,1,207.000003948212,2|0,0:3|1:0,0:0:0:0:
226,255,74407,1,2,0:0:0:0:
328,111,74580,1,0,0:0:0:0:
414,277,74752,1,2,0:3:0:0:
241,157,74924,2,0,L|225:29,1,103.500001974106,0|0,1:0|0:0,0:0:0:0:
433,10,75269,6,0,L|416:180,1,155.250002961159,4|0,0:0|0:0,0:0:0:0:
402,178,75614,1,0,1:0:0:0:
312,22,75787,1,2,0:0:0:0:
315,217,75959,1,0,1:0:0:0:
340,108,76131,1,2,0:0:0:0:
326,312,76304,1,0,1:0:0:0:
248,142,76476,6,0,L|36:127,1,207.000003948212,4|2,0:0|0:3,0:0:0:0:
168,44,76993,1,0,1:0:0:0:
185,274,77166,1,2,0:3:0:0:
6,212,77338,2,0,L|117:221,1,103.500001974106,0|0,1:0|1:0,0:0:0:0:
317,214,77683,1,0,1:0:0:0:
312,234,77769,1,0,1:0:0:0:
308,254,77855,1,0,1:0:0:0:
305,274,77942,1,0,1:0:0:0:
304,294,78028,5,4,1:0:0:0:
304,294,78373,2,0,L|422:281,1,103.500001974106,4|0,0:0|0:0,0:0:0:0:
507,95,78718,1,2,0:3:0:0:
410,182,78890,1,2,0:3:0:0:
371,33,79062,1,0,1:0:0:0:
503,210,79235,6,0,L|270:189,1,207.000003948212,4|2,0:0|0:3,0:0:0:0:
114,92,79752,1,0,1:0:0:0:
161,242,79924,1,2,0:3:0:0:
205,13,80097,1,0,1:0:0:0:
148,223,80269,1,2,0:3:0:0:
290,99,80442,1,0,1:0:0:0:
259,191,80614,1,0,0:0:0:0:
92,100,80787,6,0,L|195:109,1,103.500001974106,4|0,0:0|0:0,0:0:0:0:
358,176,81131,1,0,1:0:0:0:
321,264,81304,1,0,0:0:0:0:
259,191,81476,1,2,0:0:0:0:
392,87,81649,1,2,0:3:0:0:
418,258,81821,1,0,1:0:0:0:
358,176,81993,6,0,P|254:164|141:164,1,207.000003948212,4|2,0:0|0:3,0:0:0:0:
121,27,82511,2,0,P|68:44|15:72,1,103.500001974106,0|0,1:0|0:0,0:0:0:0:
52,160,82769,1,0,0:0:0:0:
60,178,82855,2,0,P|65:200|64:247,1,51.7500009870529,4|0,0:0|0:0,0:0:0:0:
11,322,83028,1,2,0:0:0:0:
11,322,83114,1,0,0:0:0:0:
11,322,83200,2,0,L|78:321,1,51.7500009870529,0|0,1:0|0:0,0:0:0:0:
160,276,83373,1,2,0:0:0:0:
160,276,83459,1,0,0:0:0:0:
160,276,83545,6,0,L|307:293,1,135.000005149842,4|2,0:0|0:0,0:0:0:0:
242,370,84062,1,0,0:0:0:0:
215,194,84235,2,0,L|296:203,1,67.5000025749208,0|0,1:0|0:0,0:0:0:0:
381,328,84580,1,2,0:0:0:0:
478,122,84924,5,4,0:0:0:0:
478,122,85097,2,0,L|472:209,1,67.5000025749208,2|0,0:0|0:0,0:0:0:0:
289,108,85442,1,0,0:0:0:0:
289,108,85615,2,0,L|284:40,1,67.5000025749208,2|0,1:2|0:0,0:0:0:0:
463,15,85959,1,2,0:0:0:0:
382,92,86131,1,0,0:0:0:0:
201,5,86304,5,4,1:2:0:0:
374,118,86476,1,2,0:0:0:0:
185,131,86649,1,0,1:0:0:0:
310,18,86821,1,2,0:0:0:0:
286,214,86993,1,0,1:3:0:0:
280,233,87080,1,0,0:3:0:0:
275,252,87166,1,0,1:3:0:0:
269,271,87252,1,0,0:3:0:0:
252,292,87338,5,4,1:3:0:0:
227,303,87424,1,4,1:3:0:0:
199,301,87511,1,4,1:3:0:0:
176,286,87597,1,4,1:3:0:0:
160,249,87683,5,4,1:0:0:0:
90,322,88545,1,0,0:0:0:0:
95,339,88718,1,2,0:0:0:0:
100,356,88890,1,0,0:0:0:0:
160,249,89062,5,4,0:0:0:0:
