osu file format v14

[General]
AudioFilename: audio.mp3
AudioLeadIn: 0
PreviewTime: 55442
Countdown: 0
SampleSet: Soft
StackLeniency: 0.7
Mode: 0
LetterboxInBreaks: 0
WidescreenStoryboard: 0

[Editor]
DistanceSpacing: 1.1
BeatDivisor: 2
GridSize: 32
TimelineZoom: 0.7

[Metadata]
Title:Cat Food
TitleUnicode:キャットフード
Artist:YURiCa/Hanatan
ArtistUnicode:ユリカ/花たん
Creator:Garden
Version:Easy
Source:初音ミク -Project DIVA- f
Tags:Karen flower drops cover utaite vocaloid hatsune miku doriko cut short version ロミオとシンデレラ romeo to and cinderella cordelia
BeatmapID:1418126
BeatmapSetID:670558

[Difficulty]
HPDrainRate:2
CircleSize:3
OverallDifficulty:2
ApproachRate:3
SliderMultiplier:0.8
SliderTickRate:1

[Events]
//Background and Video events
0,0,"neko.jpg",0,0
//Break Periods
//Storyboard Layer 0 (Background)
//Storyboard Layer 1 (Fail)
//Storyboard Layer 2 (Pass)
//Storyboard Layer 3 (Foreground)
//Storyboard Sound Samples

[TimingPoints]
787,344.827586206897,4,2,1,75,1,0
22338,-100,4,2,1,65,0,0
55959,-100,4,2,1,75,0,1
87683,-100,4,2,1,75,0,0

[Colours]
Combo1 : 255,214,87
Combo2 : 255,119,255
Combo3 : 255,162,117
Combo4 : 179,102,255

[HitObjects]
214,206,11821,6,0,P|252:213|310:196,1,80,4|0,0:0|1:0,0:0:0:0:
365,155,12511,2,0,L|357:22,2,120,2|4|0,0:0|0:0|1:0,0:0:0:0:
434,210,13890,2,0,L|429:295,1,80,0|0,3:0|1:0,0:0:0:0:
367,352,14580,6,0,P|306:362|244:339,1,120,2|2,0:0|0:0,0:0:0:0:
115,232,15787,2,0,P|184:225|237:179,1,120,4|0,0:0|1:0,0:0:0:0:
242,110,16649,2,0,L|133:86,1,80,4|4,0:0|1:2,0:0:0:0:
180,6,17338,6,0,L|280:28,1,80,4|0,0:1|1:0,0:0:0:0:
339,60,18028,2,0,P|399:67|475:33,2,120,2|4|0,0:0|0:0|1:0,0:0:0:0:
272,117,19407,2,0,P|260:160|271:209,1,80,0|0,3:0|1:0,0:0:0:0:
347,163,20097,6,0,L|491:148,1,120,2|2,0:0|0:0,0:0:0:0:
504,322,21304,2,0,L|329:335,1,160,4|0,0:0|1:0,0:0:0:0:
282,271,22338,6,0,L|137:281,1,120,4|4,0:3|0:0,0:0:0:0:
105,212,23200,1,0,1:0:0:0:
31,260,23545,2,0,P|7:312|22:373,2,120,0|2|0,0:0|0:0|1:0,0:0:0:0:
105,212,24924,2,0,L|105:119,1,80,2|2,0:3|1:0,0:0:0:0:
162,65,25614,5,4,0:0:0:0:
162,65,25959,2,0,L|281:71,1,120,0|2,1:0|0:3,0:0:0:0:
365,42,26821,2,0,P|431:36|485:79,1,120,2|0,0:0|1:0,0:0:0:0:
406,120,27683,2,0,P|393:162|395:205,1,80,2|2,0:3|1:0,0:0:0:0:
479,238,28373,5,4,0:0:0:0:
479,238,28718,2,0,L|473:371,1,120,0|2,1:0|0:3,0:0:0:0:
389,338,29580,2,0,L|258:343,1,120,2|0,0:0|1:0,0:0:0:0:
184,317,30442,2,0,P|176:281|182:230,1,80,2|2,0:0|1:0,0:0:0:0:
211,156,31131,5,0,1:0:0:0:
332,209,31649,2,0,L|421:203,1,80,8|4,0:3|0:3,0:0:0:0:
490,163,32338,2,0,P|504:97|475:31,1,120,4|0,0:0|1:0,0:0:0:0:
403,22,33200,2,0,L|301:29,1,80,0|8,1:0|1:3,0:0:0:0:
254,82,33890,5,4,0:0:0:0:
254,82,34235,2,0,L|101:74,1,120,0|2,1:0|0:3,0:0:0:0:
71,13,35097,2,0,P|46:65|78:145,1,120,2|0,0:0|1:0,0:0:0:0:
137,166,35959,2,0,L|131:259,1,80,2|0,0:0|1:0,0:0:0:0:
180,328,36649,5,4,0:0:0:0:
180,328,36993,2,0,L|311:317,1,120,0|2,1:0|0:3,0:0:0:0:
379,354,37855,2,0,P|445:363|496:331,1,120,2|0,0:0|1:0,0:0:0:0:
425,277,38718,2,0,L|412:181,1,80,2|0,0:0|1:0,0:0:0:0:
482,141,39407,5,4,0:0:0:0:
482,141,39752,2,0,P|496:86|481:18,1,120,0|2,1:0|0:3,0:0:0:0:
397,10,40614,2,0,L|267:21,1,120,2|0,0:0|1:0,0:0:0:0:
210,77,41476,2,0,P|204:123|218:176,1,80,0|4,1:0|1:2,0:0:0:0:
247,235,42166,5,0,1:0:0:0:
372,112,42855,1,4,0:3:0:0:
482,184,43373,2,0,L|478:305,1,120,4|0,0:0|1:0,0:0:0:0:
421,371,44235,2,0,L|323:367,1,80,2|2,0:3|0:0,0:0:0:0:
271,313,44924,6,0,P|196:296|102:339,1,160,6|2,0:0|0:3,0:0:0:0:
10,185,46304,2,0,P|106:188|172:142,1,160,2|2,0:0|0:3,0:0:0:0:
254,8,47683,2,0,L|266:92,1,80,4|0,0:0|1:0,0:0:0:0:
335,141,48373,2,0,P|393:126|465:139,2,120,2|4|0,0:3|0:0|1:0,0:0:0:0:
279,209,49752,2,0,L|167:208,1,80,0|0,1:0|1:0,0:0:0:0:
116,177,50442,6,0,L|103:16,1,160,4|2,0:0|0:3,0:0:0:0:
265,85,51821,2,0,L|456:69,1,160,2|2,0:0|0:3,0:0:0:0:
499,231,53200,1,0,1:0:0:0:
325,202,53890,1,0,1:0:0:0:
252,311,54407,2,0,P|195:320|119:288,1,120,4|4,0:0|0:3,0:0:0:0:
81,232,55269,1,0,1:0:0:0:
208,110,55959,6,0,L|199:262,1,120,4|2,0:0|0:0,0:0:0:0:
250,302,56821,1,2,0:3:0:0:
332,333,57166,2,0,P|402:334|458:289,1,120,4|0,0:0|1:0,0:0:0:0:
494,236,58028,2,0,L|484:147,1,80,2|2,0:0|1:2,0:0:0:0:
509,71,58718,6,0,P|444:76|399:132,1,120,4|2,0:0|0:0,0:0:0:0:
376,195,59580,1,2,0:3:0:0:
297,157,59924,2,0,L|157:154,1,120,4|0,0:0|1:0,0:0:0:0:
98,195,60787,2,0,B|85:233|85:233|92:285,1,80,2|2,1:0|1:0,0:0:0:0:
136,354,61476,5,4,0:0:0:0:
136,354,61821,2,0,L|244:340,1,80,0|2,1:0|0:3,0:0:0:0:
259,267,62511,1,0,1:0:0:0:
230,183,62855,2,0,P|296:188|341:234,2,120,2|2|0,0:3|0:0|1:0,0:0:0:0:
147,216,64235,6,0,L|27:214,1,120,4|0,0:0|3:0,0:0:0:0:
0,130,65097,1,0,3:0:0:0:
26,45,65442,2,0,L|166:48,1,120,4|0,0:0|1:0,0:0:0:0:
222,90,66304,2,0,P|266:92|316:70,1,80,0|2,1:0|3:2,0:0:0:0:
365,22,66993,6,0,P|386:73|353:151,1,120,4|2,0:0|0:0,0:0:0:0:
291,173,67855,1,2,0:3:0:0:
211,136,68200,2,0,L|87:128,1,120,4|0,0:0|1:0,0:0:0:0:
9,94,69062,2,0,P|2:141|24:192,1,80,2|0,0:3|1:0,0:0:0:0:
67,238,69752,6,0,P|34:292|58:373,1,120,4|2,0:0|0:0,0:0:0:0:
120,307,70614,1,2,0:3:0:0:
200,344,70959,2,0,L|325:333,1,120,4|0,0:0|1:0,0:0:0:0:
403,358,71821,2,0,B|445:354|445:354|478:327,1,80,2|2,1:0|1:0,0:0:0:0:
486,246,72511,5,4,0:0:0:0:
486,246,72855,2,0,L|477:144,1,80,0|2,1:0|0:3,0:0:0:0:
402,122,73545,1,0,1:0:0:0:
336,180,73890,2,0,L|350:318,2,120,2|2|0,0:3|0:0|1:0,0:0:0:0:
251,205,75269,6,0,P|185:210|129:179,1,120,4|2,0:0|0:0,0:0:0:0:
84,117,76131,1,2,0:0:0:0:
151,59,76476,2,0,P|220:50|287:91,1,120,4|0,0:0|1:0,0:0:0:0:
338,117,77338,2,0,L|430:104,1,80,0|0,1:0|1:0,0:0:0:0:
487,169,78028,5,4,1:0:0:0:
487,169,78373,2,0,B|501:248|501:248|474:309,1,120,4|2,0:0|0:3,0:0:0:0:
397,270,79235,2,0,B|318:255|318:255|264:273,1,120,4|0,0:0|1:0,0:0:0:0:
209,319,80097,2,0,L|113:308,1,80,0|0,1:0|1:0,0:0:0:0:
57,271,80787,5,4,0:0:0:0:
57,271,81131,2,0,B|77:195|77:195|66:141,1,120,0|2,1:0|0:3,0:0:0:0:
30,75,81993,2,0,B|107:48|107:48|165:59,1,120,4|0,0:0|1:0,0:0:0:0:
222,97,82855,2,0,B|270:98|313:60,1,80,4|0,0:0|1:0,0:0:0:0:
358,9,83545,6,0,P|338:77|386:175,1,160,4|0,0:0|1:0,0:0:0:0:
252,290,84924,2,0,P|271:221|224:124,1,160,4|2,0:0|1:2,0:0:0:0:
174,83,85959,1,2,0:0:0:0:
256,192,86304,12,4,87683,1:0:0:0:
256,192,89062,5,4,0:0:0:0:
