osu file format v14

[General]
AudioFilename: audio.mp3
AudioLeadIn: 0
PreviewTime: 55442
Countdown: 0
SampleSet: Soft
StackLeniency: 0.7
Mode: 0
LetterboxInBreaks: 0
WidescreenStoryboard: 0

[Editor]
Bookmarks: 11821,22855,33890,55959,72511
DistanceSpacing: 0.4
BeatDivisor: 4
GridSize: 32
TimelineZoom: 1

[Metadata]
Title:Cat Food
TitleUnicode:キャットフード
Artist:YURiCa/Hanatan
ArtistUnicode:ユリカ/花たん
Creator:Garden
Version:Insane
Source:初音ミク -Project DIVA- f
Tags:Karen flower drops cover utaite vocaloid hatsune miku doriko cut short version ロミオとシンデレラ romeo to and cinderella cordelia
BeatmapID:1418128
BeatmapSetID:670558

[Difficulty]
HPDrainRate:6
CircleSize:4
OverallDifficulty:7
ApproachRate:8.5
SliderMultiplier:1.4
SliderTickRate:1

[Events]
//Background and Video events
0,0,"neko.jpg",0,0
//Break Periods
//Storyboard Layer 0 (Background)
//Storyboard Layer 1 (Fail)
//Storyboard Layer 2 (Pass)
//Storyboard Layer 3 (Foreground)
//Storyboard Sound Samples

[TimingPoints]
787,344.827586206897,4,2,1,65,1,0
787,-133.333333333333,4,2,1,65,0,0
10959,-200,4,2,1,65,0,0
11476,-80,4,2,1,75,0,0
11735,-100,4,2,1,5,0,0
11821,-100,4,2,1,75,0,0
22252,-100,4,2,1,5,0,0
22338,-200,4,2,1,65,0,0
22769,-133.333333333333,4,2,1,5,0,0
22855,-100,4,2,1,65,0,0
25528,-100,4,2,1,5,0,0
25614,-100,4,2,1,65,0,0
28287,-100,4,2,1,5,0,0
28373,-100,4,2,1,65,0,0
31045,-100,4,2,1,5,0,0
31131,-100,4,2,1,65,0,0
42080,-100,4,2,1,5,0,0
42166,-100,4,2,1,65,0,0
55614,-133.333333333333,4,2,1,65,0,0
55873,-100,4,2,1,5,0,0
55959,-100,4,2,1,75,0,1
58631,-100,4,2,1,5,0,1
58718,-100,4,2,1,75,0,1
60787,-80,4,2,1,75,0,1
61476,-100,4,2,1,75,0,1
71821,-80,4,2,1,75,0,1
72511,-100,4,2,1,75,0,1
75183,-100,4,2,1,5,0,1
75269,-100,4,2,1,75,0,1
83545,-133.333333333333,4,2,1,75,0,1
86304,-100,4,2,1,75,0,1
87683,-100,4,2,1,75,0,0

[Colours]
Combo1 : 255,214,87
Combo2 : 255,119,255
Combo3 : 255,162,117
Combo4 : 179,102,255

[HitObjects]
415,245,787,5,4,0:0:0:0:
154,297,1131,1,2,0:0:0:0:
154,297,1304,1,0,0:0:0:0:
219,229,1476,1,2,0:0:0:0:
195,137,1649,1,2,0:0:0:0:
311,254,1993,2,0,L|423:245,1,105.000004005432,4|0,0:0|0:0,0:0:0:0:
508,209,2511,1,2,0:0:0:0:
428,146,2683,1,0,0:0:0:0:
508,209,2855,5,2,0:0:0:0:
219,229,3200,1,2,0:0:0:0:
396,81,3545,5,2,0:0:0:0:
318,136,3718,1,0,0:0:0:0:
307,42,3890,1,0,0:0:0:0:
396,81,4062,5,2,0:0:0:0:
318,136,4235,1,0,0:0:0:0:
228,106,4407,1,0,0:0:0:0:
157,169,4580,1,0,0:0:0:0:
69,134,4752,6,0,L|60:24,1,105.000004005432,2|0,0:0|0:0,0:0:0:0:
157,169,5269,2,0,L|152:241,1,52.5000020027161,2|0,0:0|0:0,0:0:0:0:
58,146,5614,2,0,L|47:27,1,105.000004005432,2|2,0:0|0:0,0:0:0:0:
111,298,6304,6,0,P|173:305|220:279,1,105.000004005432,4|2,0:0|0:0,0:0:0:0:
270,214,6821,1,0,0:0:0:0:
379,277,6993,1,2,0:0:0:0:
381,149,7166,1,2,0:0:0:0:
271,339,7511,2,0,L|147:327,1,105.000004005432,2|0,0:0|0:0,0:0:0:0:
379,277,8028,2,0,L|371:348,1,52.5000020027161,2|0,0:0|0:0,0:0:0:0:
472,308,8373,1,2,0:0:0:0:
472,308,8545,1,0,0:0:0:0:
288,245,8718,1,2,0:0:0:0:
431,122,9062,5,2,0:0:0:0:
452,215,9235,1,0,0:0:0:0:
472,308,9407,1,0,0:0:0:0:
381,281,9580,5,2,0:0:0:0:
452,215,9752,1,0,0:0:0:0:
288,245,9924,1,2,0:0:0:0:
431,122,10097,1,0,0:0:0:0:
472,308,10269,6,0,L|353:303,1,105.000004005432,4|2,0:0|0:0,0:0:0:0:
288,245,10787,1,2,0:0:0:0:
189,337,10959,6,2,B|201:306|201:306|233:334,1,70,2|4,0:0|0:3,0:0:0:0:
213,365,11390,5,4,0:3:0:0:
213,365,11476,2,0,B|134:376|157:343|73:360,1,131.25,0|0,1:0|0:0,0:0:0:0:
53,370,11821,6,0,P|101:305|90:243,1,140,4|0,0:0|1:0,0:0:0:0:
0,145,12338,1,0,0:0:0:0:
0,145,12511,2,0,L|4:228,1,70,2|2,0:0|0:0,0:0:0:0:
90,94,12855,1,0,1:0:0:0:
177,146,13028,2,0,P|249:154|319:107,1,140,4|2,0:0|0:0,0:0:0:0:
329,22,13545,1,0,1:0:0:0:
227,54,13718,1,2,0:0:0:0:
408,95,13890,5,0,3:0:0:0:
177,146,14235,1,0,1:0:0:0:
423,89,14580,6,0,P|411:130|412:174,1,70,2|0,0:0|0:0,0:0:0:0:
485,221,14924,1,0,1:0:0:0:
334,219,15097,2,0,P|337:258|353:301,1,70,2|0,0:0|0:0,0:0:0:0:
512,319,15442,2,0,L|431:311,1,70,2|0,0:0|1:0,0:0:0:0:
277,359,15787,2,0,P|212:368|144:323,1,140,4|2,0:0|0:0,0:0:0:0:
130,227,16304,1,0,1:0:0:0:
231,263,16476,1,0,0:0:0:0:
48,298,16649,5,4,0:0:0:0:
277,359,16993,1,4,1:2:0:0:
32,292,17338,6,0,L|20:128,1,140,4|0,0:1|1:0,0:0:0:0:
138,259,17855,1,0,0:0:0:0:
138,259,18028,2,0,L|232:250,1,70,2|2,0:0|0:0,0:0:0:0:
121,165,18373,1,0,1:0:0:0:
275,326,18545,2,0,P|362:325|412:278,1,140,4|2,0:0|0:0,0:0:0:0:
419,190,19062,1,0,1:0:0:0:
320,230,19235,1,2,0:0:0:0:
500,261,19407,5,0,3:0:0:0:
275,326,19752,1,0,1:0:0:0:
507,245,20097,6,0,P|515:211|514:171,1,70,2|0,0:0|0:0,0:0:0:0:
328,236,20442,1,0,1:0:0:0:
406,121,20614,2,0,P|416:154|418:199,1,70,2|0,0:0|0:0,0:0:0:0:
230,137,20959,2,0,L|319:127,1,70,2|0,0:0|1:0,0:0:0:0:
479,56,21304,2,0,P|411:25|340:46,1,140,4|2,0:0|0:0,0:0:0:0:
512,169,21821,1,2,1:2:0:0:
411,222,21993,2,0,B|395:174|395:174|409:104,1,105,0|0,1:0|0:0,0:0:0:0:
426,128,22338,6,0,B|443:172|443:172|430:217,1,87.5,4|0,0:3|0:0,0:0:0:0:
415,226,22855,5,4,0:0:0:0:
415,226,23028,1,2,0:0:0:0:
325,280,23200,2,0,L|248:273,1,70,0|2,1:0|0:0,0:0:0:0:
177,202,23545,1,0,0:0:0:0:
88,258,23718,1,2,0:3:0:0:
177,202,23890,1,0,1:0:0:0:
88,258,24062,2,0,L|76:106,1,140,2|2,0:0|0:3,0:0:0:0:
246,192,24580,2,0,L|177:202,1,70,0|0,1:0|0:0,0:0:0:0:
0,317,24924,1,2,0:3:0:0:
0,317,25097,1,2,0:3:0:0:
93,364,25269,2,0,L|215:350,1,105,2|0,1:0|0:0,0:0:0:0:
230,351,25614,5,4,0:0:0:0:
230,351,25787,1,2,0:0:0:0:
175,261,25959,2,0,P|170:223|177:186,1,70,0|2,1:0|0:0,0:0:0:0:
226,69,26304,1,2,0:0:0:0:
305,137,26476,1,2,0:3:0:0:
226,69,26649,1,0,1:0:0:0:
305,137,26821,2,0,L|461:127,1,140,2|2,0:0|0:3,0:0:0:0:
353,295,27338,2,0,L|350:226,1,70,0|0,1:0|0:0,0:0:0:0:
430,354,27683,1,2,0:3:0:0:
430,354,27855,1,2,0:3:0:0:
259,317,28028,2,0,L|136:324,1,105,2|0,1:0|0:0,0:0:0:0:
123,329,28373,5,4,0:0:0:0:
123,329,28545,1,2,0:0:0:0:
163,231,28718,2,0,P|166:194|157:153,1,70,0|0,1:0|0:0,0:0:0:0:
119,37,29062,1,2,0:0:0:0:
68,125,29235,1,2,0:3:0:0:
119,37,29407,1,0,1:0:0:0:
68,125,29580,2,0,P|143:129|205:88,1,140,2|2,0:0|0:3,0:0:0:0:
289,0,30097,2,0,L|300:79,1,70,0|0,1:0|0:0,0:0:0:0:
368,147,30442,1,2,0:0:0:0:
368,147,30614,1,2,0:3:0:0:
469,51,30787,2,0,L|460:174,1,105,2|0,1:0|0:0,0:0:0:0:
459,186,31131,5,0,1:0:0:0:
372,38,31304,1,0,1:0:0:0:
331,301,31649,5,8,0:3:0:0:
459,186,31993,5,4,0:3:0:0:
372,38,32338,6,0,B|299:23|309:77|215:50,1,140,4|2,0:0|0:0,0:0:0:0:
350,131,32855,2,0,L|361:213,1,70,0|2,1:0|0:0,0:0:0:0:
166,131,33200,1,0,1:0:0:0:
253,188,33373,1,2,0:0:0:0:
101,249,33545,1,8,1:3:0:0:
101,249,33890,6,0,P|153:252|224:270,1,105,4|0,0:0|0:0,0:0:0:0:
204,263,34235,2,0,P|211:305|226:345,1,70,0|0,1:0|0:0,0:0:0:0:
372,331,34580,1,2,0:0:0:0:
325,208,34752,2,0,P|311:240|299:295,1,70,2|0,0:3|1:0,0:0:0:0:
452,384,35097,2,0,P|465:312|422:250,1,140,2|0,0:0|0:0,0:0:0:0:
256,221,35614,2,0,P|290:215|339:203,1,70,0|0,1:0|0:0,0:0:0:0:
413,150,35959,1,2,0:0:0:0:
338,75,36131,1,2,0:3:0:0:
413,150,36304,2,0,P|460:152|499:159,1,70,0|0,1:0|0:0,0:0:0:0:
338,75,36649,6,0,P|280:81|222:91,1,105,4|0,0:0|0:0,0:0:0:0:
233,88,36993,2,0,P|240:49|244:11,1,70,0|0,1:0|0:0,0:0:0:0:
71,34,37338,1,2,0:0:0:0:
128,167,37511,2,0,P|134:131|138:83,1,70,2|0,0:3|1:0,0:0:0:0:
52,229,37855,2,0,P|125:206|204:225,1,140,2|0,0:0|0:0,0:0:0:0:
273,329,38373,2,0,P|276:299|282:260,1,70,0|0,1:0|0:0,0:0:0:0:
176,376,38718,1,2,0:0:0:0:
380,218,39062,1,0,1:0:0:0:
176,376,39407,6,0,L|59:372,1,105,4|0,0:0|0:0,0:0:0:0:
71,372,39752,2,0,P|60:340|53:290,1,70,0|0,1:0|0:0,0:0:0:0:
77,165,40097,1,2,0:0:0:0:
156,275,40269,2,0,P|163:234|166:194,1,70,2|0,0:3|1:0,0:0:0:0:
3,97,40614,2,0,P|-21:160|13:240,1,140,2|2,0:0|0:3,0:0:0:0:
165,205,41131,1,0,1:0:0:0:
77,165,41304,1,2,0:0:0:0:
245,150,41476,1,0,1:0:0:0:
159,103,41649,1,2,0:0:0:0:
336,123,41821,2,0,P|404:110|443:81,1,105,4|0,1:2|0:0,0:0:0:0:
445,67,42166,5,0,1:0:0:0:
364,214,42338,1,8,0:3:0:0:
512,137,42683,5,0,1:0:0:0:
470,267,42855,1,4,0:3:0:0:
439,183,43200,5,2,0:3:0:0:
439,183,43373,2,0,B|387:155|343:165|343:165|295:207,1,140,4|2,0:0|0:3,0:0:0:0:
237,307,43890,2,0,L|311:288,1,70,0|0,1:0|0:0,0:0:0:0:
138,365,44235,1,2,0:3:0:0:
138,365,44580,5,2,0:0:0:0:
136,347,44666,1,2,0:0:0:0:
134,329,44752,1,2,0:0:0:0:
132,311,44838,1,2,0:0:0:0:
130,293,44924,2,0,B|91:266|91:266|49:270|5:312,2,140,6|0|2,0:0|1:0|0:3,0:0:0:0:
63,176,45787,1,2,0:3:0:0:
63,176,45959,2,0,L|56:92,1,70,0|0,1:0|0:0,0:0:0:0:
169,200,46304,6,0,B|217:207|254:182|254:182|313:199,2,140,2|0|2,0:0|1:0|0:3,0:0:0:0:
266,288,47166,1,2,0:3:0:0:
266,288,47338,2,0,L|261:370,1,70,0|0,1:0|0:0,0:0:0:0:
460,280,47683,5,4,0:0:0:0:
361,239,47855,1,0,0:0:0:0:
460,280,48028,1,0,1:0:0:0:
361,239,48200,1,0,1:0:0:0:
510,183,48373,5,2,0:3:0:0:
510,183,48545,2,0,P|527:145|527:105,1,70,2|0,0:3|1:0,0:0:0:0:
355,117,48890,6,0,P|415:145|430:84,1,140,4|2,0:0|0:3,0:0:0:0:
281,0,49407,2,0,L|270:84,1,70,0|0,1:0|0:0,0:0:0:0:
308,217,49752,1,0,1:0:0:0:
355,117,49924,1,0,0:0:0:0:
396,268,50097,1,0,1:0:0:0:
396,268,50442,6,0,B|447:245|478:247|478:247|485:288|504:315,2,140,4|0|2,0:0|1:0|0:3,0:0:0:0:
257,332,51304,1,2,0:3:0:0:
257,332,51476,2,0,P|298:338|330:347,1,70,0|0,1:0|0:0,0:0:0:0:
148,344,51821,6,0,B|138:320|107:294|107:294|145:260|188:270,2,140,2|0|2,0:0|1:0|0:3,0:0:0:0:
277,241,52683,1,2,0:3:0:0:
277,241,52855,2,0,P|294:197|299:152,1,70,0|0,1:0|0:0,0:0:0:0:
167,29,53200,5,0,1:0:0:0:
198,171,53373,1,2,0:0:0:0:
56,234,53890,5,0,1:0:0:0:
213,163,54062,1,2,0:0:0:0:
228,157,54407,6,0,L|371:143,1,140,4|2,0:0|0:3,0:0:0:0:
470,165,54924,1,4,0:3:0:0:
437,64,55097,1,4,0:3:0:0:
404,251,55269,1,0,1:0:0:0:
404,251,55614,6,0,B|396:288|396:288|431:311,1,78.7500030040742,12|0,0:3|0:0,0:0:0:0:
442,272,55959,6,0,B|367:271|393:319|297:303,1,140,4|0,0:0|1:0,0:0:0:0:
310,150,56476,2,0,P|328:186|326:233,1,70,2|2,0:0|0:3,0:0:0:0:
221,285,56821,2,0,L|134:281,1,70,2|0,0:3|1:0,0:0:0:0:
38,187,57166,2,0,P|50:248|63:331,1,140,4|2,0:0|0:3,0:0:0:0:
144,187,57683,2,0,P|146:151|151:108,1,70,0|0,1:0|0:0,0:0:0:0:
189,25,58028,1,2,0:0:0:0:
51,91,58200,1,2,0:3:0:0:
253,109,58373,2,0,L|369:91,1,105,2|0,1:2|0:0,0:0:0:0:
384,79,58718,6,0,P|349:122|360:216,1,140,4|0,0:0|1:0,0:0:0:0:
512,164,59235,2,0,L|430:157,1,70,2|2,0:0|0:3,0:0:0:0:
276,255,59580,1,2,0:3:0:0:
276,255,59666,1,0,0:0:0:0:
276,255,59752,1,0,1:0:0:0:
408,334,59924,2,0,B|377:339|349:320|349:320|317:356|268:351,1,140,4|2,0:0|0:3,0:0:0:0:
501,376,60442,2,0,P|508:334|503:294,1,70,0|2,1:0|0:3,0:0:0:0:
390,152,60787,6,0,L|402:260,1,87.5,2|0,1:0|0:0,0:0:0:0:
512,48,61131,2,0,L|502:150,1,87.5,2|0,1:0|0:0,0:0:0:0:
318,45,61476,5,4,0:0:0:0:
318,45,61821,2,0,L|248:41,1,70,0|0,1:0|0:0,0:0:0:0:
152,2,62166,1,2,0:3:0:0:
211,132,62338,2,0,L|66:121,1,140,2|2,0:3|0:0,0:0:0:0:
248,41,62855,1,2,0:3:0:0:
299,193,63028,2,0,P|312:146|311:102,1,70,0|0,0:0|1:0,0:0:0:0:
206,238,63373,2,0,L|214:381,1,140,2|2,0:0|0:3,0:0:0:0:
390,243,63890,1,0,1:0:0:0:
298,290,64062,1,0,0:0:0:0:
477,296,64235,6,0,L|471:143,1,140,4|0,0:0|1:0,0:0:0:0:
390,37,64752,2,0,L|385:82,2,35,0|0|0,3:0|3:0|1:0,0:0:0:0:
307,150,65097,2,0,L|316:202,2,35,0|0|0,3:0|3:0|1:0,0:0:0:0:
371,269,65442,6,0,P|301:282|225:237,1,140,4|2,0:0|0:3,0:0:0:0:
196,127,65959,1,0,1:0:0:0:
312,184,66131,1,2,0:3:0:0:
118,194,66304,1,0,1:0:0:0:
154,48,66476,1,0,3:0:0:0:
154,48,66562,1,0,3:0:0:0:
154,48,66649,1,2,3:2:0:0:
204,134,66821,5,2,3:2:0:0:
204,134,66907,1,2,3:2:0:0:
204,134,66993,2,0,P|119:140|64:96,1,140,4|0,0:0|1:0,0:0:0:0:
272,53,67511,2,0,P|299:90|305:139,1,70,2|2,0:0|0:3,0:0:0:0:
138,260,67855,2,0,P|137:225|151:175,1,70,2|0,0:3|1:0,0:0:0:0:
272,203,68200,2,0,P|342:201|396:150,1,140,4|2,0:0|0:3,0:0:0:0:
512,83,68718,2,0,L|427:69,1,70,0|0,1:0|0:0,0:0:0:0:
309,116,69062,1,2,0:3:0:0:
360,272,69235,1,2,0:3:0:0:
488,177,69407,1,0,1:0:0:0:
488,177,69752,6,0,L|483:322,1,140,4|0,0:0|1:0,0:0:0:0:
291,282,70269,2,0,L|360:273,1,70,2|2,0:0|0:3,0:0:0:0:
464,85,70614,1,2,0:3:0:0:
464,85,70700,1,0,0:0:0:0:
464,85,70787,1,0,1:0:0:0:
488,177,70959,2,0,B|453:190|408:167|408:167|381:185|342:176,1,140,4|2,0:0|0:3,0:0:0:0:
337,12,71476,2,0,P|351:46|356:101,1,70,0|2,1:0|0:3,0:0:0:0:
167,85,71821,6,0,L|270:75,1,87.5,2|0,1:0|0:0,0:0:0:0:
46,180,72166,2,0,L|155:189,1,87.5,2|0,1:0|0:0,0:0:0:0:
78,14,72511,5,4,0:0:0:0:
78,14,72855,2,0,P|65:57|62:101,1,70,0|0,1:0|0:0,0:0:0:0:
254,76,73200,1,2,0:3:0:0:
177,222,73373,2,0,P|161:149|160:80,1,140,2|2,0:3|0:0,0:0:0:0:
272,185,73890,1,2,0:3:0:0:
80,272,74062,2,0,L|-5:266,1,70,0|0,0:0|1:0,0:0:0:0:
171,326,74407,2,0,B|218:325|252:296|252:296|292:301|297:341,1,140,2|2,0:0|0:3,0:0:0:0:
177,222,74924,2,0,B|163:194|178:148|178:148|164:165|142:173,1,105,0|0,1:0|0:0,0:0:0:0:
254,190,75269,6,0,P|322:190|379:134,1,140,4|0,0:0|1:0,0:0:0:0:
299,1,75787,2,0,L|311:90,1,70,2|0,0:0|1:0,0:0:0:0:
459,188,76131,2,0,L|467:104,1,70,2|0,0:0|1:0,0:0:0:0:
254,190,76476,2,0,B|265:296|265:296|254:276|232:262,1,140,4|2,0:0|0:3,0:0:0:0:
166,144,76993,1,0,1:0:0:0:
347,218,77166,1,2,0:3:0:0:
118,232,77338,2,0,L|21:223,1,70,0|0,1:0|1:0,0:0:0:0:
242,105,77683,1,0,1:0:0:0:
247,117,77769,1,0,1:0:0:0:
250,130,77855,1,0,1:0:0:0:
252,143,77942,1,0,1:0:0:0:
250,156,78028,1,4,1:0:0:0:
48,227,78373,6,0,P|87:222|137:210,1,70,4|0,0:0|0:0,0:0:0:0:
64,129,78718,1,2,0:3:0:0:
195,275,78890,2,0,P|229:267|269:254,1,70,2|0,0:3|1:0,0:0:0:0:
376,131,79235,2,0,B|355:209|355:209|368:238|361:270,1,140,4|2,0:0|0:3,0:0:0:0:
264,103,79752,2,0,P|254:60|241:23,1,70,0|2,1:0|0:3,0:0:0:0:
348,38,80097,1,0,1:0:0:0:
167,117,80269,1,2,0:3:0:0:
348,38,80442,2,0,L|440:47,1,70,0|0,1:0|0:0,0:0:0:0:
264,103,80787,5,4,0:0:0:0:
472,257,81131,1,0,1:0:0:0:
505,159,81304,1,0,0:0:0:0:
472,257,81476,1,2,0:0:0:0:
366,212,81649,2,0,P|331:201|285:208,1,70,2|0,0:3|1:0,0:0:0:0:
189,312,81993,2,0,B|233:289|233:289|279:317|322:304,1,140,4|2,0:0|0:3,0:0:0:0:
109,373,82511,2,0,P|94:346|92:296,1,70,0|0,1:0|0:0,0:0:0:0:
298,203,82855,1,4,0:0:0:0:
189,312,83028,1,2,0:0:0:0:
319,304,83200,1,0,1:0:0:0:
258,384,83373,1,2,0:0:0:0:
328,293,83545,6,0,L|433:286,1,105.000004005432,4|2,0:0|0:0,0:0:0:0:
414,193,84062,1,0,0:0:0:0:
319,304,84235,2,0,L|447:297,1,105.000004005432,0|2,1:0|0:0,0:0:0:0:
144,346,84924,5,4,0:0:0:0:
240,225,85097,2,0,B|238:265|238:265|233:277|233:277|237:285|237:285|234:337,1,105.000004005432,2|0,0:0|0:0,0:0:0:0:
148,192,85614,2,0,B|142:167|142:167|143:138,1,52.5000020027161,2|0,1:2|0:0,0:0:0:0:
328,177,85959,1,2,0:0:0:0:
240,225,86131,1,0,0:0:0:0:
406,241,86304,1,4,1:2:0:0:
256,192,86390,12,4,87683,1:0:0:0:
256,192,89062,5,4,0:0:0:0:
