osu file format v14

[General]
AudioFilename: audio.mp3
AudioLeadIn: 0
PreviewTime: 55442
Countdown: 0
SampleSet: Soft
StackLeniency: 0.7
Mode: 0
LetterboxInBreaks: 0
WidescreenStoryboard: 0

[Editor]
DistanceSpacing: 1.5
BeatDivisor: 4
GridSize: 32
TimelineZoom: 1.2

[Metadata]
Title:Cat Food
TitleUnicode:キャットフード
Artist:YURiCa/Hanatan
ArtistUnicode:ユリカ/花たん
Creator:Garden
Version:Hard
Source:初音ミク -Project DIVA- f
Tags:Karen flower drops cover utaite vocaloid hatsune miku doriko cut short version ロミオとシンデレラ romeo to and cinderella cordelia
BeatmapID:1418127
BeatmapSetID:670558

[Difficulty]
HPDrainRate:5
CircleSize:4
OverallDifficulty:6
ApproachRate:7
SliderMultiplier:1.2
SliderTickRate:1

[Events]
//Background and Video events
0,0,"neko.jpg",0,0
//Break Periods
//Storyboard Layer 0 (Background)
//Storyboard Layer 1 (Fail)
//Storyboard Layer 2 (Pass)
//Storyboard Layer 3 (Foreground)
//Storyboard Sound Samples

[TimingPoints]
787,344.827586206897,4,2,1,65,1,0
787,-133.333333333333,4,2,1,65,0,0
11476,-100,4,2,1,75,0,0
22338,-133.333333333333,4,2,1,65,0,0
22855,-100,4,2,1,65,0,0
25528,-100,4,2,1,5,0,0
25614,-100,4,2,1,65,0,0
28287,-100,4,2,1,5,0,0
28373,-100,4,2,1,65,0,0
36562,-100,4,2,1,5,0,0
36649,-100,4,2,1,65,0,0
38976,-100,4,2,1,5,0,0
39062,-100,4,2,1,65,0,0
39321,-100,4,2,1,5,0,0
39407,-100,4,2,1,65,0,0
55873,-100,4,2,1,5,0,0
55959,-100,4,2,1,75,0,1
58631,-100,4,2,1,5,0,1
58718,-100,4,2,1,75,0,1
83545,-133.333333333333,4,2,1,75,0,1
86304,-100,4,2,1,75,0,1
87683,-100,4,2,1,75,0,0

[Colours]
Combo1 : 255,214,87
Combo2 : 255,119,255
Combo3 : 255,162,117
Combo4 : 179,102,255

[HitObjects]
467,171,787,5,4,0:0:0:0:
467,171,1131,2,0,L|463:228,1,45.0000017166138,2|0,0:0|0:0,0:0:0:0:
405,272,1476,1,2,0:0:0:0:
336,239,1649,1,2,0:0:0:0:
336,239,1993,2,0,L|229:237,1,90.0000034332277,4|0,0:0|0:0,0:0:0:0:
164,248,2511,2,0,P|150:218|143:166,1,45.0000017166138,2|0,0:0|0:0,0:0:0:0:
67,194,2855,2,0,P|70:171|81:145,1,45.0000017166138,2|0,0:0|0:0,0:0:0:0:
126,85,3200,1,2,0:0:0:0:
126,85,3545,6,0,L|116:30,2,45.0000017166138,2|0|0,0:0|0:0|0:0,0:0:0:0:
203,109,4062,2,0,P|234:103|259:91,1,45.0000017166138,2|0,0:0|0:0,0:0:0:0:
310,48,4407,2,0,P|339:49|366:56,1,45.0000017166138,0|0,0:0|0:0,0:0:0:0:
420,100,4752,2,0,L|416:201,1,90.0000034332277,2|0,0:0|0:0,0:0:0:0:
468,252,5269,2,0,L|512:246,1,45.0000017166138,2|0,0:0|0:0,0:0:0:0:
409,308,5614,1,2,0:0:0:0:
334,163,5959,1,2,0:0:0:0:
409,308,6304,6,0,P|370:305|303:305,1,90.0000034332277,4|2,0:0|0:0,0:0:0:0:
251,258,6821,2,0,P|246:242|243:212,1,45.0000017166138,0|2,0:0|0:0,0:0:0:0:
311,169,7166,1,2,0:0:0:0:
311,169,7511,2,0,P|330:124|319:71,1,90.0000034332277,2|0,0:0|0:0,0:0:0:0:
259,35,8028,2,0,L|215:40,1,45.0000017166138,2|0,0:0|0:0,0:0:0:0:
149,89,8373,2,0,L|94:83,2,45.0000017166138,2|0|2,0:0|0:0|0:0,0:0:0:0:
10,173,9062,6,0,P|4:156|-2:128,2,45.0000017166138,2|0|0,0:0|0:0|0:0,0:0:0:0:
78,218,9580,2,0,L|129:212,1,45.0000017166138,2|0,0:0|0:0,0:0:0:0:
194,250,9924,2,0,P|195:284|191:320,1,45.0000017166138,2|0,0:0|0:0,0:0:0:0:
254,349,10269,2,0,P|311:350|356:320,1,90.0000034332277,4|2,0:0|0:0,0:0:0:0:
396,277,10787,1,2,0:0:0:0:
348,211,10959,1,2,0:0:0:0:
425,102,11304,5,4,0:3:0:0:
425,102,11476,2,0,P|430:132|424:167,1,60,0|0,1:0|0:0,0:0:0:0:
348,211,11821,6,0,B|318:207|318:207|264:225|264:225|222:219,1,120,4|0,0:0|1:0,0:0:0:0:
152,176,12338,1,0,0:0:0:0:
93,244,12511,2,0,L|86:317,1,60,2|2,0:0|0:0,0:0:0:0:
27,370,12855,1,0,1:0:0:0:
109,318,13028,2,0,P|171:300|231:314,1,120,4|2,0:0|0:0,0:0:0:0:
314,319,13545,2,0,L|330:249,1,60,0|2,1:0|0:0,0:0:0:0:
302,173,13890,1,0,3:0:0:0:
406,319,14235,1,0,1:0:0:0:
302,173,14580,6,0,B|370:155|349:201|445:181,1,120,2|0,0:0|1:0,0:0:0:0:
504,156,15097,2,0,P|507:192|501:228,2,60,2|0|2,0:0|0:0|0:0,0:0:0:0:
483,67,15614,1,0,1:0:0:0:
398,99,15787,2,0,B|343:112|349:68|281:86,1,120,4|2,0:0|0:0,0:0:0:0:
194,110,16304,2,0,P|187:79|176:47,1,60,0|0,1:0|0:0,0:0:0:0:
92,22,16649,1,4,0:0:0:0:
270,1,16993,1,4,1:2:0:0:
92,22,17338,6,0,B|81:57|81:57|106:99|84:152,1,120,4|0,0:1|1:0,0:0:0:0:
4,107,17855,1,0,0:0:0:0:
23,195,18028,2,0,P|53:218|75:223,1,60,2|2,0:0|0:0,0:0:0:0:
160,197,18373,1,0,1:0:0:0:
229,253,18545,2,0,L|223:381,1,120,4|2,0:0|0:0,0:0:0:0:
309,345,19062,2,0,L|398:337,1,60,0|2,1:0|0:0,0:0:0:0:
456,360,19407,1,0,3:0:0:0:
301,257,19752,1,0,1:0:0:0:
456,360,20097,6,0,B|452:329|452:329|464:277|464:277|458:227,1,120,2|0,0:0|1:0,0:0:0:0:
372,217,20614,2,0,L|379:284,2,60,2|0|2,0:0|0:0|0:0,0:0:0:0:
421,141,21131,1,0,1:0:0:0:
359,74,21304,2,0,B|325:61|325:61|291:85|224:79,1,120,4|2,0:0|0:0,0:0:0:0:
166,36,21821,1,2,1:2:0:0:
105,102,21993,1,0,1:0:0:0:
105,102,22338,6,0,B|113:135|113:135|105:144|105:144|111:154|111:154|111:202,1,90.0000034332277,4|0,0:3|0:0,0:0:0:0:
83,274,22855,5,4,0:0:0:0:
83,274,23028,1,2,0:0:0:0:
146,337,23200,2,0,L|217:326,1,60,0|2,1:0|0:0,0:0:0:0:
277,273,23545,1,0,0:0:0:0:
277,273,23718,2,0,L|353:278,1,60,2|0,0:3|1:0,0:0:0:0:
403,337,24062,2,0,P|426:281|390:201,1,120,2|2,0:0|0:3,0:0:0:0:
345,163,24580,2,0,L|261:155,1,60,0|0,1:0|0:0,0:0:0:0:
202,122,24924,1,2,0:3:0:0:
202,122,25269,2,0,B|198:165|198:165|207:221,1,90,2|0,1:0|0:0,0:0:0:0:
205,211,25614,6,0,L|119:206,1,60,4|2,0:0|0:0,0:0:0:0:
55,219,25959,2,0,P|66:252|68:282,1,60,0|2,1:0|0:0,0:0:0:0:
104,364,26304,1,2,0:0:0:0:
104,364,26476,2,0,P|143:366|183:371,1,60,2|0,0:3|1:0,0:0:0:0:
246,332,26821,2,0,P|299:334|345:282,1,120,2|2,0:0|0:3,0:0:0:0:
360,199,27338,2,0,L|349:125,1,60,0|0,1:0|0:0,0:0:0:0:
434,79,27683,1,2,0:3:0:0:
434,79,28028,2,0,B|447:119|447:119|448:176,1,90,2|0,1:0|0:0,0:0:0:0:
447,166,28373,6,0,P|440:214|442:245,1,60,4|2,0:0|0:0,0:0:0:0:
465,312,28718,2,0,P|428:306|390:305,1,60,0|0,1:0|0:0,0:0:0:0:
313,318,29062,1,2,0:0:0:0:
313,318,29235,2,0,P|317:343|322:387,1,60,2|0,0:3|1:0,0:0:0:0:
233,356,29580,2,0,B|195:346|195:346|157:368|99:353,1,120,2|2,0:0|0:3,0:0:0:0:
31,325,30097,2,0,L|23:248,1,60,0|0,1:0|0:0,0:0:0:0:
52,182,30442,1,2,0:0:0:0:
52,182,30614,1,2,0:3:0:0:
138,209,30787,2,0,L|204:202,1,60,2|0,1:0|0:0,0:0:0:0:
271,151,31131,5,0,1:0:0:0:
271,151,31304,1,0,1:0:0:0:
164,296,31649,1,8,0:3:0:0:
179,117,31993,1,4,0:3:0:0:
342,199,32338,2,0,B|406:176|398:218|482:184,1,120,4|2,0:0|0:0,0:0:0:0:
500,111,32855,2,0,P|470:104|430:106,1,60,0|2,1:0|0:0,0:0:0:0:
371,46,33200,2,0,P|340:54|311:66,1,60,0|2,1:0|0:0,0:0:0:0:
253,131,33545,1,8,1:3:0:0:
253,131,33890,6,0,P|195:134|140:101,1,120,4|0,0:0|1:0,0:0:0:0:
60,141,34407,1,0,0:0:0:0:
126,201,34580,2,0,P|132:232|131:270,1,60,2|2,0:0|0:3,0:0:0:0:
90,340,34924,1,0,1:0:0:0:
90,340,35097,2,0,P|146:350|201:317,1,120,2|0,0:0|0:0,0:0:0:0:
250,246,35614,2,0,P|285:236|332:243,1,60,0|0,1:0|0:0,0:0:0:0:
398,250,35959,1,2,0:0:0:0:
443,172,36131,1,2,0:3:0:0:
416,267,36304,2,0,P|409:314|408:374,1,90,0|0,1:0|0:0,0:0:0:0:
407,356,36649,6,0,B|378:349|378:349|321:361|321:361|270:351,1,120,4|0,0:0|1:0,0:0:0:0:
211,308,37166,1,0,0:0:0:0:
125,336,37338,2,0,L|114:269,1,60,2|2,0:0|0:3,0:0:0:0:
26,259,37683,1,0,1:0:0:0:
26,259,37855,2,0,P|88:244|120:189,1,120,2|0,0:0|0:0,0:0:0:0:
124,109,38373,2,0,P|86:113|55:133,1,60,0|0,1:0|0:0,0:0:0:0:
205,168,38718,2,0,P|221:123|209:70,1,90,2|0,0:0|0:0,0:0:0:0:
214,82,39062,2,0,P|252:128|284:135,1,90,0|0,1:0|0:0,0:0:0:0:
279,135,39407,6,0,P|336:109|415:132,2,120,4|0|2,0:0|1:0|0:0,0:0:0:0:
262,223,40269,2,0,L|269:291,1,60,2|0,0:3|1:0,0:0:0:0:
359,313,40614,2,0,L|346:188,1,120,2|2,0:0|0:3,0:0:0:0:
391,117,41131,2,0,P|369:86|342:68,1,60,0|2,1:0|0:0,0:0:0:0:
292,4,41476,2,0,P|258:8|214:31,1,60,0|2,1:0|0:0,0:0:0:0:
175,86,41821,1,4,1:2:0:0:
428,23,42166,5,0,1:0:0:0:
428,23,42338,1,8,0:3:0:0:
329,173,42683,1,0,1:0:0:0:
399,228,42855,2,0,P|414:170|397:114,1,120,4|2,0:3|0:3,0:0:0:0:
329,173,43373,2,0,B|287:181|287:181|192:163,1,120,4|2,0:0|0:3,0:0:0:0:
113,70,43890,2,0,P|122:99|128:129,1,60,0|0,1:0|0:0,0:0:0:0:
101,215,44235,1,2,0:3:0:0:
101,215,44580,2,0,L|96:261,3,30,2|2|2|2,0:0|0:0|0:0|0:0,0:0:0:0:
78,274,44924,6,0,P|143:266|198:288,1,120,6|0,0:0|1:0,0:0:0:0:
354,336,45614,1,2,0:3:0:0:
354,336,45787,1,2,0:3:0:0:
295,267,45959,1,0,1:0:0:0:
445,168,46304,6,0,L|436:309,1,120,2|0,0:0|1:0,0:0:0:0:
313,157,46993,1,2,0:3:0:0:
313,157,47166,1,2,0:3:0:0:
385,104,47338,1,0,1:0:0:0:
207,133,47683,6,0,L|196:211,1,60,4|0,0:0|0:0,0:0:0:0:
129,251,48028,2,0,L|139:324,1,60,0|0,1:0|1:0,0:0:0:0:
221,356,48373,1,2,0:3:0:0:
221,356,48545,2,0,L|296:339,1,60,2|0,0:3|1:0,0:0:0:0:
368,360,48890,2,0,P|429:343|456:284,1,120,4|2,0:0|0:3,0:0:0:0:
444,206,49407,2,0,L|368:222,1,60,0|0,1:0|0:0,0:0:0:0:
297,239,49752,1,0,1:0:0:0:
431,118,50097,1,0,1:0:0:0:
297,239,50442,6,0,L|304:113,1,120,4|0,0:0|1:0,0:0:0:0:
161,9,51131,1,2,0:3:0:0:
161,9,51304,1,2,0:3:0:0:
191,93,51476,1,0,1:0:0:0:
352,13,51821,6,0,P|425:13|479:58,1,120,2|0,0:0|1:0,0:0:0:0:
307,129,52511,1,2,0:3:0:0:
307,129,52683,1,2,0:3:0:0:
392,161,52855,2,0,P|395:126|392:101,1,60,0|0,1:0|0:0,0:0:0:0:
352,13,53200,5,0,1:0:0:0:
256,52,53373,1,2,0:0:0:0:
135,195,53890,5,0,1:0:0:0:
228,152,54062,1,2,0:0:0:0:
84,277,54407,6,0,P|41:219|46:160,1,120,4|2,0:0|0:3,0:0:0:0:
100,51,54924,2,0,L|107:111,1,60,4|4,0:3|0:3,0:0:0:0:
136,206,55269,1,0,1:0:0:0:
136,206,55614,2,0,B|162:198|162:198|194:216|245:210,1,90,12|0,0:3|0:0,0:0:0:0:
222,211,55959,6,0,P|220:161|224:87,1,120,4|0,0:0|1:0,0:0:0:0:
294,35,56476,2,0,P|306:62|311:97,1,60,2|2,0:0|0:3,0:0:0:0:
312,182,56821,2,0,L|380:172,1,60,2|0,0:3|1:0,0:0:0:0:
487,269,57166,2,0,P|430:249|373:262,1,120,4|2,0:0|0:3,0:0:0:0:
304,321,57683,1,0,1:0:0:0:
376,373,57855,1,0,0:0:0:0:
291,311,58028,2,0,L|209:302,1,60,2|2,0:0|0:3,0:0:0:0:
155,353,58373,2,0,P|110:367|43:371,1,90,2|0,1:2|0:0,0:0:0:0:
67,371,58718,6,0,L|56:241,1,120,4|0,0:0|1:0,0:0:0:0:
132,200,59235,2,0,P|141:165|137:125,1,60,2|2,0:0|0:3,0:0:0:0:
47,39,59580,2,0,P|48:75|56:101,1,60,2|0,0:3|1:0,0:0:0:0:
153,51,59924,2,0,B|217:36|213:89|296:60,1,120,4|2,0:0|0:3,0:0:0:0:
369,18,60442,2,0,L|359:77,1,60,0|2,1:0|0:3,0:0:0:0:
444,179,60787,2,0,L|438:120,1,60,2|0,1:0|0:0,0:0:0:0:
304,158,61131,2,0,B|285:230|327:219|303:296,1,120,2|4,1:0|0:0,0:0:0:0:
91,362,61821,6,0,P|139:340|208:337,1,120,0|2,1:0|0:3,0:0:0:0:
291,364,62338,2,0,P|330:363|368:347,1,60,2|0,0:3|1:0,0:0:0:0:
419,299,62683,1,2,0:0:0:0:
504,324,62855,2,0,L|511:260,1,60,2|0,0:3|0:0,0:0:0:0:
454,199,63200,1,0,1:0:0:0:
454,199,63373,2,0,L|448:69,1,120,2|2,0:0|0:3,0:0:0:0:
381,18,63890,1,0,1:0:0:0:
381,18,64062,1,0,0:0:0:0:
320,85,64235,6,0,L|182:78,1,120,4|0,0:0|1:0,0:0:0:0:
96,42,64752,2,0,P|105:70|112:100,1,60,0|0,3:0|1:0,0:0:0:0:
167,219,65097,2,0,P|170:190|178:161,1,60,0|0,3:0|1:0,0:0:0:0:
49,222,65442,6,0,B|73:280|73:280|71:360,1,120,4|2,0:0|0:3,0:0:0:0:
165,305,65959,2,0,B|196:297|196:297|224:300,1,60,0|2,1:0|0:3,0:0:0:0:
311,334,66304,1,0,1:0:0:0:
400,295,66476,1,0,3:0:0:0:
400,295,66562,1,0,3:0:0:0:
400,295,66649,2,0,L|406:257,3,30,2|2|2|2,3:2|3:2|3:2|3:2,0:0:0:0:
433,245,66993,6,0,B|453:203|453:203|436:116,1,120,4|0,0:0|1:0,0:0:0:0:
364,79,67511,2,0,L|285:94,1,60,2|2,0:0|0:3,0:0:0:0:
217,72,67855,2,0,P|198:104|187:130,1,60,2|0,0:3|1:0,0:0:0:0:
238,275,68200,2,0,P|273:228|267:170,1,120,4|2,0:0|0:3,0:0:0:0:
129,213,68718,1,0,1:0:0:0:
129,213,69062,2,0,L|202:200,1,60,2|2,0:3|0:3,0:0:0:0:
48,258,69407,1,0,1:0:0:0:
48,258,69752,6,0,B|33:223|33:223|44:123,1,120,4|0,0:0|1:0,0:0:0:0:
96,22,70269,2,0,P|109:55|110:81,1,60,2|2,0:0|0:3,0:0:0:0:
185,131,70614,2,0,P|220:130|254:117,1,60,2|0,0:3|1:0,0:0:0:0:
403,58,70959,2,0,P|350:33|292:44,1,120,4|2,0:0|0:3,0:0:0:0:
344,178,71476,2,0,L|340:119,1,60,0|2,1:0|0:3,0:0:0:0:
487,32,71821,2,0,L|476:117,1,60,2|0,1:0|0:0,0:0:0:0:
415,221,72166,2,0,B|354:218|354:218|294:259,1,120,2|4,1:0|0:0,0:0:0:0:
499,290,72855,6,0,P|520:234|510:176,1,120,0|2,1:0|0:3,0:0:0:0:
479,91,73373,2,0,L|413:101,1,60,2|0,0:3|1:0,0:0:0:0:
337,62,73718,1,2,0:0:0:0:
284,135,73890,2,0,L|202:128,1,60,2|0,0:3|0:0,0:0:0:0:
153,73,74235,1,0,1:0:0:0:
153,73,74407,2,0,P|134:142|161:204,1,120,2|2,0:0|0:3,0:0:0:0:
224,247,74924,1,0,1:0:0:0:
224,247,75269,6,0,L|218:328,1,60,4|0,0:0|0:0,0:0:0:0:
305,204,75614,1,0,1:0:0:0:
351,281,75787,2,0,L|362:348,1,60,2|0,0:0|1:0,0:0:0:0:
499,303,76131,2,0,P|469:298|441:291,1,60,2|0,0:0|1:0,0:0:0:0:
305,204,76476,2,0,B|351:205|351:205|438:170,1,120,4|2,0:0|0:3,0:0:0:0:
487,113,76993,1,0,1:0:0:0:
446,32,77166,1,2,0:3:0:0:
356,36,77338,2,0,P|324:41|275:55,1,60,0|0,1:0|1:0,0:0:0:0:
227,105,77683,1,0,1:0:0:0:
227,105,77769,1,0,1:0:0:0:
227,105,77855,2,0,L|233:150,2,30,0|0|4,1:0|1:0|1:0,0:0:0:0:
121,253,78373,6,0,P|112:225|116:179,1,60,4|0,0:0|0:0,0:0:0:0:
201,209,78718,1,2,0:3:0:0:
254,281,78890,2,0,L|338:271,1,60,2|0,0:3|1:0,0:0:0:0:
456,365,79235,2,0,P|398:378|344:356,1,120,4|2,0:0|0:3,0:0:0:0:
397,231,79752,2,0,P|404:263|402:291,1,60,0|2,1:0|0:3,0:0:0:0:
251,367,80097,2,0,L|107:360,1,120,0|0,1:0|1:0,0:0:0:0:
183,188,80787,5,4,0:0:0:0:
183,188,81131,2,0,P|190:223|186:268,1,60,0|0,1:0|0:0,0:0:0:0:
102,226,81476,1,2,0:0:0:0:
60,306,81649,2,0,L|-4:303,1,60,2|0,0:3|1:0,0:0:0:0:
154,336,81993,2,0,P|219:338|271:295,1,120,4|2,0:0|0:3,0:0:0:0:
274,161,82511,2,0,P|276:190|286:218,1,60,0|0,1:0|0:0,0:0:0:0:
373,260,82855,1,4,0:0:0:0:
373,260,83028,1,2,0:0:0:0:
444,204,83200,1,0,1:0:0:0:
444,204,83373,1,2,0:0:0:0:
512,267,83545,6,0,L|507:364,1,90.0000034332277,4|2,0:0|0:0,0:0:0:0:
421,329,84062,1,0,0:0:0:0:
341,371,84235,2,0,L|238:363,1,90.0000034332277,0|2,1:0|0:0,0:0:0:0:
75,323,84924,5,4,0:0:0:0:
155,286,85097,2,0,P|162:330|149:373,1,90.0000034332277,2|0,0:0|0:0,0:0:0:0:
35,242,85614,2,0,L|79:235,1,45.0000017166138,2|0,1:2|0:0,0:0:0:0:
139,167,85959,2,0,L|200:174,1,45.0000017166138,2|0,0:0|0:0,0:0:0:0:
255,225,86304,1,4,1:2:0:0:
256,192,86390,12,4,87683,1:0:0:0:
256,192,89062,5,4,0:0:0:0:
