osu file format v14

[General]
AudioFilename: audio.mp3
AudioLeadIn: 0
PreviewTime: -1
Countdown: 0
SampleSet: None
StackLeniency: 0.7
Mode: 0
LetterboxInBreaks: 0
WidescreenStoryboard: 1

[Editor]
Bookmarks: 2600,13266,23933,34600,45266,50600,55933,77266,87933,98599,109266,114599,119933,141266,151933,162600,183933,205266,215933
DistanceSpacing: 0.5
BeatDivisor: 4
GridSize: 8
TimelineZoom: 2.699999

[Metadata]
Title:FAKE MOON STROBE LIGHTS
TitleUnicode:FAKE MOON STROBE LIGHTS
Artist:YURiCa/HaNaTaN
ArtistUnicode:隣人/花たん
Creator:Zunv
Version:
Source:
Tags:
BeatmapID:1452356
BeatmapSetID:686184

[Difficulty]
HPDrainRate:7
CircleSize:4
OverallDifficulty:8
ApproachRate:9.4
SliderMultiplier:1.4
SliderTickRate:1

[Events]
//Background and Video events
0,0,"bg.jpg",0,0
//Break Periods
2,46632,48726
2,59132,60059
//Storyboard Layer 0 (Background)
//Storyboard Layer 1 (Fail)
//Storyboard Layer 2 (Pass)
//Storyboard Layer 3 (Foreground)
//Storyboard Sound Samples

[TimingPoints]
2600,333.333333333333,4,3,0,100,1,0
2600,-133.333333333333,4,3,0,100,0,0
11933,-66.6666666666667,4,3,0,100,0,0
13266,-133.333333333333,4,3,0,100,0,0
34599,-50,4,3,0,100,0,0
50599,-142.857142857143,4,3,0,100,0,0
60599,-50,4,3,0,100,0,0

[HitObjects]
48,146,2599,6,0,L|43:285,1,140
142,61,3099,2,0,L|138:186,1,105.000004005432
134,269,3599,1,0,0:0:0:0:
48,146,3766,1,0,0:0:0:0:
266,224,3933,2,0,L|194:221,1,52.5000020027161
372,173,4266,2,0,L|443:170,1,52.5000020027161
347,311,4599,2,0,L|349:239,1,52.5000020027161
350,88,4933,1,0,0:0:0:0:
454,91,5266,6,0,L|349:87,1,105.000004005432
211,69,5766,1,0,0:0:0:0:
284,203,5933,2,0,L|286:131,1,52.5000020027161
141,159,6266,2,0,L|212:161,1,52.5000020027161
208,293,6599,2,0,L|210:221,1,52.5000020027161
65,249,6932,2,0,L|136:251,1,52.5000020027161
132,383,7266,2,0,L|134:311,1,52.5000020027161
139,170,7599,1,0,0:0:0:0:
34,173,7932,6,0,L|138:169,1,105.000004005432
317,151,8433,1,0,0:0:0:0:
157,201,8599,2,0,L|209:199,1,52.5000020027161
299,120,8933,2,0,L|246:121,1,52.5000020027161
458,299,9266,2,0,L|456:246,1,52.5000020027161
315,193,9599,2,0,L|316:245,1,52.5000020027161
489,281,9933,2,0,L|487:228,1,52.5000020027161
284,211,10266,1,0,0:0:0:0:
284,211,10599,6,0,L|285:158,1,52.5000020027161
288,11,10933,1,0,0:0:0:0:
168,172,11099,1,0,0:0:0:0:
116,50,11266,2,0,L|168:51,1,52.5000020027161
70,140,11599,2,0,L|81:163,3,26.2500010013581
165,277,11933,6,0,L|168:171,1,105.000004005432
169,52,12266,1,0,0:0:0:0:
284,211,12433,1,0,0:0:0:0:
354,113,12599,2,0,L|407:111,2,52.5000020027161
169,173,12933,1,0,0:0:0:0:
284,15,13099,1,0,0:0:0:0:
380,205,13266,6,0,P|354:281|285:310,2,157.500006008148
284,211,14599,2,0,B|247:233|220:235|189:227|168:196|165:155|185:132|216:118|252:112|259:142|285:146|313:142|334:129|347:101,1,315.000012016297
50,287,15933,6,0,P|59:332|106:257,1,210.000008010865
204,129,17266,2,0,B|198:166|153:191|153:191|196:214|204:255,2,157.500006008148
374,285,18599,6,0,P|342:215|269:190,1,157.500006008148
70,180,19599,1,0,0:0:0:0:
263,95,19933,2,0,P|193:126|168:199,1,157.500006008148
162,374,20933,2,0,L|164:312,1,52.5000020027161
168,199,21266,6,0,B|167:244|167:244|193:184|238:159,1,157.500006008148
321,310,22266,1,0,0:0:0:0:
356,221,22599,6,0,P|310:230|250:208,1,105.000004005432
417,175,23099,2,0,P|433:224|404:281,1,105.000004005432
313,125,23599,2,0,L|315:98,3,26.2500010013581
278,346,23933,2,0,P|287:295|264:248,1,105.000004005432
265,249,24766,1,0,0:0:0:0:
155,151,25266,2,0,L|277:141,1,105.000004005432
433,119,25766,1,0,0:0:0:0:
235,43,26099,1,0,0:0:0:0:
265,249,26433,5,0,0:0:0:0:
378,60,26599,2,0,P|357:101|374:170,1,105.000004005432
132,197,27433,1,0,0:0:0:0:
480,224,27933,2,0,L|375:215,1,105.000004005432
261,177,28433,1,0,0:0:0:0:
340,347,28766,1,0,0:0:0:0:
153,330,29100,5,0,0:0:0:0:
320,241,29266,2,0,P|279:262|210:245,1,105.000004005432
132,197,29766,1,0,0:0:0:0:
265,148,29933,1,0,0:0:0:0:
145,308,30099,1,0,0:0:0:0:
265,255,30433,1,0,0:0:0:0:
212,188,30766,2,0,P|197:166|227:84,2,105.000004005432
248,125,31599,1,0,0:0:0:0:
303,262,31766,1,0,0:0:0:0:
413,110,31933,2,0,P|354:101|260:162,1,157.500006008148
186,240,32933,1,0,0:0:0:0:
305,246,33266,2,0,P|290:184|205:141,1,157.500006008148
114,201,33933,2,0,L|88:226,3,26.2500010013581
286,213,34266,2,0,L|270:129,1,78.7500030040742
247,91,34599,6,0,L|210:231,1,140
171,366,34933,1,0,0:0:0:0:
82,85,35099,2,0,L|118:225,1,140
257,304,35433,1,0,0:0:0:0:
416,134,35599,2,0,L|275:170,1,140
512,211,35933,2,0,L|371:247,1,140
225,288,36266,1,0,0:0:0:0:
50,232,36433,2,0,L|190:195,1,140
350,137,36766,1,0,0:0:0:0:
103,32,36933,1,0,0:0:0:0:
73,150,37099,2,0,L|39:230,1,70
121,332,37266,2,0,L|86:196,1,140
243,146,37599,1,0,0:0:0:0:
345,304,37766,2,0,L|209:269,1,140
406,166,38099,1,0,0:0:0:0:
222,153,38266,2,0,L|81:189,1,140
350,233,38599,2,0,L|209:269,1,140
76,298,38933,1,0,0:0:0:0:
77,118,39099,2,0,L|44:46,1,70
115,186,39266,2,0,L|111:257,1,70
166,81,39433,2,0,L|247:121,1,70
238,141,39599,1,0,0:0:0:0:
201,156,39683,1,0,0:0:0:0:
190,205,39766,1,0,0:0:0:0:
220,238,39849,1,0,0:0:0:0:
255,238,39933,2,0,B|350:217|350:217|266:201,1,140
13,199,40266,2,0,L|147:137,1,140
326,73,40599,1,0,0:0:0:0:
175,273,40766,1,0,0:0:0:0:
129,53,40933,2,0,L|179:224,1,140
251,334,41266,2,0,L|268:160,1,140
280,37,41599,1,0,0:0:0:0:
439,124,41766,2,0,L|291:135,1,140
81,172,42099,1,0,0:0:0:0:
365,244,42266,1,0,0:0:0:0:
173,206,42433,1,0,0:0:0:0:
173,206,42516,1,0,0:0:0:0:
176,208,42599,2,0,L|369:190,1,140
486,173,42933,1,0,0:0:0:0:
302,334,43099,2,0,L|320:141,1,140
512,144,43433,1,0,0:0:0:0:
194,266,43599,2,0,L|331:182,1,140
413,150,43933,2,0,L|432:81,1,70
313,192,44099,2,0,L|294:261,1,70
265,80,44266,2,0,L|247:-5,3,70
158,228,44599,5,0,0:0:0:0:
158,228,44683,5,0,0:0:0:0:
158,228,44766,2,0,L|161:308,1,70
231,172,44933,1,0,0:0:0:0:
256,154,45016,1,0,0:0:0:0:
287,148,45099,2,0,L|363:162,1,70
382,307,45266,2,0,P|346:282|318:180,1,140
415,73,45599,1,0,0:0:0:0:
244,243,45766,2,0,P|168:275|92:265,1,140
0,212,46099,1,0,0:0:0:0:
163,56,46266,2,0,P|181:138|141:193,1,140
100,122,49266,5,0,0:0:0:0:
86,156,49349,1,0,0:0:0:0:
96,195,49433,2,0,L|101:290,1,70
308,109,49599,2,0,L|312:178,3,70
308,215,49933,1,0,0:0:0:0:
327,251,50016,1,0,0:0:0:0:
371,262,50099,2,0,L|444:243,1,70
362,143,50266,1,0,0:0:0:0:
326,129,50349,1,0,0:0:0:0:
286,135,50433,1,0,0:0:0:0:
250,155,50516,1,0,0:0:0:0:
190,257,50599,2,0,P|148:217|146:195,1,73.4999977569581
154,58,50933,1,0,0:0:0:0:
58,143,51099,2,0,L|57:262,1,97.9999970092774
479,281,51766,1,0,0:0:0:0:
363,202,51933,2,0,P|335:167|363:111,1,97.9999970092774
476,26,52433,1,0,0:0:0:0:
109,301,52766,1,0,0:0:0:0:
167,149,52933,1,0,0:0:0:0:
358,293,53099,1,0,0:0:0:0:
83,218,53266,2,0,P|126:233|145:236,1,48.9999985046387
272,295,53599,1,0,0:0:0:0:
197,164,53766,1,0,0:0:0:0:
293,215,53933,2,0,L|322:182,1,24.4999992523194
365,124,54099,1,0,0:0:0:0:
158,269,54266,1,0,0:0:0:0:
403,261,54433,1,0,0:0:0:0:
206,120,54599,2,0,P|176:157|107:169,1,97.9999970092774
318,81,55099,2,0,P|358:63|408:89,1,97.9999970092774
490,232,55599,1,0,0:0:0:0:
207,96,55766,1,0,0:0:0:0:
261,331,55933,2,0,L|264:241,1,73.4999977569581
248,171,56266,2,0,L|197:209,1,48.9999985046387
39,302,56599,1,0,0:0:0:0:
270,80,56933,2,0,P|304:97|323:120,1,48.9999985046387
194,211,57266,2,0,L|130:109,1,97.9999970092774
89,37,57766,1,0,0:0:0:0:
194,211,57933,2,0,L|131:221,2,48.9999985046387
348,179,58433,1,0,0:0:0:0:
107,161,58599,2,0,P|83:186|84:251,1,97.9999970092774
147,131,60599,5,0,0:0:0:0:
156,160,60683,1,0,0:0:0:0:
162,200,60766,1,0,0:0:0:0:
146,246,60849,1,0,0:0:0:0:
116,269,60933,2,0,L|75:180,1,70
95,29,61099,2,0,L|63:113,1,70
0,328,61266,2,0,L|10:258,3,70
223,170,61599,1,0,0:0:0:0:
185,180,61683,1,0,0:0:0:0:
154,187,61766,2,0,L|84:205,1,70
143,0,61932,1,0,0:0:0:0:
157,30,62016,1,0,0:0:0:0:
168,56,62099,2,0,L|194:137,1,70
309,306,62266,2,0,L|324:218,3,70
167,345,62599,1,0,0:0:0:0:
127,356,62683,1,0,0:0:0:0:
94,356,62766,2,0,L|18:363,1,70
178,219,62933,1,0,0:0:0:0:
218,230,63017,1,0,0:0:0:0:
251,230,63100,2,0,L|327:237,1,70
185,36,63266,2,0,L|185:131,3,70
189,271,63599,1,0,0:0:0:0:
210,231,63683,1,0,0:0:0:0:
255,209,63766,1,0,0:0:0:0:
305,212,63849,1,0,0:0:0:0:
259,355,63933,2,0,L|275:274,3,70
