osu file format v14

[General]
AudioFilename: audio.mp3
AudioLeadIn: 0
PreviewTime: 65086
Countdown: 0
SampleSet: Soft
StackLeniency: 0.5
Mode: 0
LetterboxInBreaks: 0
WidescreenStoryboard: 0

[Editor]
Bookmarks: 7612,16455,34139,45507,55612,83400,83481,103612,113716,121295,133928,138979
DistanceSpacing: 1.1
BeatDivisor: 4
GridSize: 4
TimelineZoom: 1.8

[Metadata]
Title:Amatsu Kitsune
TitleUnicode:アマツキツネ
Artist:YURiCa
ArtistUnicode:ユリカ
Creator:Elayue
Version:GlaZe's Insane
Source:初音ミク Project mirai 2
Tags:video game japanese marasy まらしぃ Hanatan 花たん vocaloid utaite kagamine rin byakko sengaku celestial fox xahlt glaze kyuukai eimi fukada eimi_fukada zxcvbnmkl cut version
BeatmapID:2257328
BeatmapSetID:1073173

[Difficulty]
HPDrainRate:5.5
CircleSize:4.2
OverallDifficulty:8
ApproachRate:9
SliderMultiplier:1.4
SliderTickRate:1

[Events]
//Background and Video events
0,0,"bg.jpg",0,0
//Break Periods
2,113868,119984
//Storyboard Layer 0 (Background)
//Storyboard Layer 1 (Fail)
//Storyboard Layer 2 (Pass)
//Storyboard Layer 3 (Foreground)
//Storyboard Layer 4 (Overlay)
//Storyboard Sound Samples

[TimingPoints]
-16,315.789473684211,4,2,1,40,1,0
1247,-200,4,2,1,40,0,0
8194,-100,4,2,1,40,0,0
8826,-133.333333333333,4,2,1,55,0,0
11352,-133.333333333333,4,2,1,50,0,0
13878,-133.333333333333,4,2,1,55,0,0
16405,-111.111111111111,4,2,1,60,0,0
16641,-111.111111111111,4,2,1,60,0,0
16720,-111.111111111111,4,2,1,60,0,0
21694,-111.111111111111,4,2,1,60,0,0
21773,-111.111111111111,4,2,1,60,0,0
26747,-111.111111111111,4,2,1,5,0,0
26826,-111.111111111111,4,2,1,60,0,0
31799,-111.111111111111,4,2,1,5,0,0
31878,-111.111111111111,4,2,1,60,0,0
34089,-111.111111111111,4,2,1,50,0,0
36299,-142.857142857143,4,2,1,50,0,0
37878,-142.857142857143,4,2,1,55,0,0
40405,-125,4,2,1,50,0,0
41352,-142.857142857143,4,2,1,50,0,0
42931,-142.857142857143,4,2,1,55,0,0
45457,-125,4,2,1,60,0,0
55562,-166.666666666667,4,2,1,50,0,0
58089,-125,4,2,1,55,0,0
60615,-166.666666666667,4,2,1,50,0,0
63141,-166.666666666667,4,2,1,55,0,0
65036,-166.666666666667,4,2,1,60,0,0
65668,-100,4,2,1,70,0,1
75773,-153.846153846153,4,2,1,50,0,1
76010,-153.846153846153,4,2,1,5,0,1
76089,-100,4,2,1,70,0,1
83352,-90.9090909090909,4,2,1,65,0,0
83984,-100,4,2,1,65,0,0
93457,-100,4,2,1,50,0,0
93694,-100,4,2,1,5,0,0
93773,-100,4,2,1,60,0,0
94720,-100,4,2,1,55,0,0
94957,-100,4,2,1,5,0,0
95036,-100,4,2,1,65,0,0
95984,-100,4,2,1,60,0,0
96220,-100,4,2,1,5,0,0
96299,-100,4,2,1,65,0,0
97484,-100,4,2,1,5,0,0
97562,-100,4,2,1,65,0,0
103484,-100,4,2,1,65,0,0
103562,-142.857142857143,4,2,1,55,0,0
106089,-111.111111111111,4,2,1,55,0,0
108615,-142.857142857143,4,2,1,55,0,0
111141,-142.857142857143,4,2,1,50,0,0
113036,-142.857142857143,4,2,1,45,0,0
113352,-142.857142857143,4,2,1,50,0,0
113668,-142.857142857143,4,2,1,60,0,0
120931,-142.857142857143,4,2,1,5,0,0
121247,-142.857142857143,4,2,1,50,0,0
122510,-142.857142857143,4,2,1,60,0,0
123773,-90.9090909090909,4,2,1,50,0,1
124089,-90.9090909090909,4,2,1,70,0,1
133878,-90.9090909090909,4,2,1,70,0,0
134510,-100,4,2,1,75,0,0
136405,-125,4,2,1,75,0,0
137668,-125,4,2,1,80,0,0

[Colours]
Combo1 : 218,218,218
Combo2 : 255,149,149
Combo3 : 145,145,255
Combo4 : 255,138,255

[HitObjects]
0,384,615,5,2,0:0:0:0:
0,384,931,1,2,0:0:0:0:
102,314,1247,2,0,P|135:326|170:334,1,70,6|0,0:3|0:0,0:0:0:0:
299,257,1878,2,0,P|266:267|225:272,1,70,2|0,0:0|0:0,0:0:0:0:
96,196,2510,1,2,0:3:0:0:
96,196,3141,5,2,0:0:0:0:
96,196,3457,1,2,0:0:0:0:
216,285,3773,2,0,P|254:271|294:265,1,70,6|0,0:3|0:0,0:0:0:0:
187,361,4404,2,0,P|147:347|107:341,1,70,2|0,0:0|0:0,0:0:0:0:
36,384,5036,1,2,0:3:0:0:
36,384,5668,5,2,0:0:0:0:
36,384,5984,1,2,0:0:0:0:
96,221,6299,2,0,P|84:254|74:299,1,70,6|0,0:0|0:0,0:0:0:0:
130,361,6931,5,2,0:0:0:0:
130,361,7247,1,2,0:0:0:0:
252,335,7562,6,0,L|284:339,7,17.5,4|0|0|0|0|0|0|0,0:0|0:0|0:0|0:0|0:0|0:0|0:0|0:0,0:0:0:0:
314,373,8194,2,0,L|349:368,7,35,4|0|0|0|0|0|0|0,0:0|0:0|0:0|0:0|0:0|0:0|0:0|0:0,0:0:0:0:
398,344,8826,6,0,P|407:292|424:242,1,105.000004005432,6|10,0:0|0:0,0:0:0:0:
505,190,9299,1,10,0:0:0:0:
500,168,9615,1,10,0:0:0:0:
497,146,9931,1,10,0:0:0:0:
420,82,10247,5,10,0:3:0:0:
420,82,10326,1,0,0:0:0:0:
420,82,10405,2,0,P|395:90|369:94,1,52.5000020027161,8|10,0:0|0:3,0:0:0:0:
331,63,10641,1,8,0:3:0:0:
331,63,10720,2,0,P|306:54|280:50,1,52.5000020027161,10|0,0:0|0:0,0:0:0:0:
199,90,11036,1,10,0:0:0:0:
122,41,11194,1,0,0:0:0:0:
280,50,11352,1,4,0:0:0:0:
103,148,11826,5,8,0:3:0:0:
103,148,11905,1,8,0:3:0:0:
103,148,11984,1,8,0:0:0:0:
0,0,12457,5,8,0:3:0:0:
0,0,12536,1,8,0:3:0:0:
0,0,12615,2,0,B|31:39|6:101|6:101|-20:162|18:218,1,210.000008010865,6|10,0:0|0:1,0:0:0:0:
8,201,13562,1,0,0:0:0:0:
60,290,13720,1,8,0:0:0:0:
60,290,13799,1,8,0:0:0:0:
60,290,13878,6,0,L|54:360,1,52.5000020027161,6|10,0:0|0:3,0:0:0:0:
148,259,14194,1,10,0:0:0:0:
234,302,14352,1,10,0:0:0:0:
256,299,14668,1,10,0:0:0:0:
278,294,14984,1,10,0:0:0:0:
365,384,15299,5,10,0:3:0:0:
365,384,15378,1,8,0:3:0:0:
365,384,15457,1,8,0:0:0:0:
370,292,15615,2,0,L|371:225,1,52.5000020027161,10|8,0:3|0:0,0:0:0:0:
446,177,15931,1,10,0:3:0:0:
370,239,16088,1,10,0:3:0:0:
279,212,16246,1,8,0:0:0:0:
328,93,16405,6,0,P|317:46|303:1,1,94.499997116089,10|0,0:3|0:0,0:0:0:0:
333,0,16720,2,0,P|324:30|318:61,1,62.9999980773926,10|0,0:0|0:0,0:0:0:0:
369,159,17036,1,10,0:3:0:0:
392,163,17115,1,10,0:3:0:0:
416,163,17194,1,10,0:3:0:0:
440,158,17273,1,10,0:3:0:0:
461,148,17351,1,10,0:0:0:0:
512,65,17510,1,10,0:0:0:0:
461,148,17668,6,0,P|470:202|479:294,1,125.999996154785,10|10,0:3|0:0,0:0:0:0:
477,272,18299,5,10,0:3:0:0:
366,229,18457,1,10,0:3:0:0:
392,352,18615,1,10,0:0:0:0:
477,272,18773,1,10,0:3:0:0:
314,325,18931,6,0,P|252:309|190:301,1,125.999996154785,6|10,0:0|0:3,0:0:0:0:
76,359,19405,1,10,0:0:0:0:
98,356,19721,1,10,0:0:0:0:
120,351,20037,1,10,0:0:0:0:
0,367,20352,5,10,0:3:0:0:
0,367,20431,1,8,0:3:0:0:
0,366,20510,2,0,P|3:335|12:305,1,62.9999980773926,8|10,0:0|0:3,0:0:0:0:
45,279,20746,1,8,0:3:0:0:
45,279,20826,2,0,P|39:247|32:217,1,62.9999980773926,8|2,0:0|0:0,0:0:0:0:
0,128,21141,1,10,0:3:0:0:
32,217,21299,1,8,0:0:0:0:
77,84,21457,6,0,P|124:73|169:59,1,94.499997116089,10|0,0:3|0:0,0:0:0:0:
234,88,21773,2,0,P|204:79|173:73,1,62.9999980773926,10|0,0:0|0:0,0:0:0:0:
77,84,22089,1,10,0:3:0:0:
67,105,22167,1,10,0:3:0:0:
62,129,22246,1,10,0:3:0:0:
62,153,22325,1,10,0:3:0:0:
66,176,22404,1,10,0:0:0:0:
147,237,22562,1,10,0:0:0:0:
252,181,22720,6,0,P|312:163|374:152,1,125.999996154785,10|10,0:3|0:0,0:0:0:0:
374,152,23352,5,10,0:3:0:0:
355,137,23430,1,10,0:3:0:0:
333,127,23509,1,10,0:3:0:0:
309,122,23588,1,10,0:3:0:0:
287,118,23667,1,10,0:0:0:0:
226,41,23826,1,10,0:0:0:0:
172,152,23984,6,0,P|161:203|152:276,1,125.999996154785,6|10,0:0|0:3,0:0:0:0:
227,346,24457,1,10,0:0:0:0:
249,343,24773,1,10,0:0:0:0:
271,338,25089,1,10,0:0:0:0:
366,300,25405,5,10,0:3:0:0:
366,300,25484,1,8,0:3:0:0:
366,299,25563,2,0,P|363:268|354:238,1,62.9999980773926,8|10,0:0|0:3,0:0:0:0:
321,212,25799,1,0,0:0:0:0:
321,212,25878,2,0,P|327:180|334:150,1,62.9999980773926,8|10,0:0|0:3,0:0:0:0:
381,75,26194,1,10,0:0:0:0:
333,150,26352,1,8,0:0:0:0:
222,92,26510,6,0,P|176:105|130:116,1,94.499997116089,10|0,0:3|0:0,0:0:0:0:
61,114,26826,2,0,P|91:119|122:129,1,62.9999980773926,8|0,0:0|0:0,0:0:0:0:
222,92,27141,1,10,0:3:0:0:
226,69,27220,1,10,0:3:0:0:
226,45,27299,1,10,0:3:0:0:
221,21,27378,1,10,0:3:0:0:
211,0,27456,1,10,0:0:0:0:
304,57,27615,1,10,0:0:0:0:
139,53,27773,6,0,L|77:41,1,62.9999980773926,10|0,0:3|0:0,0:0:0:0:
0,155,28089,2,0,L|62:143,1,62.9999980773926,10|0,0:0|0:0,0:0:0:0:
140,228,28405,1,10,0:3:0:0:
61,143,28562,1,10,0:0:0:0:
139,53,28720,1,10,0:3:0:0:
61,143,28878,1,10,0:0:0:0:
206,113,29036,6,0,P|267:98|330:90,1,125.999996154785,6|10,0:0|0:3,0:0:0:0:
417,53,29510,1,10,0:0:0:0:
412,31,29826,1,10,0:0:0:0:
409,9,30142,1,10,0:0:0:0:
499,96,30457,5,10,0:0:0:0:
499,96,30536,1,8,0:3:0:0:
499,96,30615,2,0,P|489:126|486:157,1,62.9999980773926,8|10,0:0|0:3,0:0:0:0:
458,194,30851,1,0,0:0:0:0:
458,194,30931,2,0,P|465:224|470:255,1,62.9999980773926,8|10,0:0|0:3,0:0:0:0:
434,348,31246,1,10,0:0:0:0:
470,255,31404,1,8,0:0:0:0:
343,326,31562,6,0,P|296:336|251:350,1,94.499997116089,10|0,0:3|0:0,0:0:0:0:
250,321,31878,2,0,P|280:330|311:336,1,62.9999980773926,10|0,0:0|0:0,0:0:0:0:
414,343,32194,1,10,0:3:0:0:
418,320,32273,1,10,0:3:0:0:
418,296,32352,1,10,0:3:0:0:
413,272,32431,1,10,0:3:0:0:
403,251,32509,1,10,0:0:0:0:
335,181,32667,1,10,0:0:0:0:
417,84,32826,6,0,L|479:91,1,62.9999980773926,10|0,0:3|0:0,0:0:0:0:
350,2,33141,2,0,L|287:9,1,62.9999980773926,10|0,0:0|0:0,0:0:0:0:
218,72,33457,1,10,0:0:0:0:
195,73,33536,1,2,0:0:0:0:
171,73,33615,1,10,0:0:0:0:
147,68,33694,1,0,0:0:0:0:
125,58,33772,1,10,0:0:0:0:
52,0,33931,1,8,0:0:0:0:
5,79,34089,6,0,L|0:110,3,31.4999990386963,2|2|2|2,0:3|0:3|0:3|0:3,0:0:0:0:
22,139,34405,2,0,L|27:170,3,31.4999990386963,2|2|2|2,0:1|0:1|0:1|0:1,0:0:0:0:
9,189,34720,5,2,0:1:0:0:
8,199,34798,1,2,0:1:0:0:
7,210,34877,1,2,0:1:0:0:
7,221,34956,1,2,0:1:0:0:
6,232,35035,1,8,0:3:0:0:
6,243,35114,1,8,0:3:0:0:
5,254,35193,1,8,0:3:0:0:
5,265,35272,1,8,0:3:0:0:
5,278,35352,6,0,P|98:288|48:343,1,188.999994232178,6|6,0:0|0:0,0:0:0:0:
70,338,36299,1,2,0:0:0:0:
70,338,36931,1,2,0:0:0:0:
70,338,37405,1,8,0:3:0:0:
50,327,37484,1,8,0:3:0:0:
28,324,37562,1,8,0:0:0:0:
127,278,37720,1,0,0:0:0:0:
237,359,37878,6,0,P|289:345|344:341,1,97.9999970092774,2|8,0:0|0:0,0:0:0:0:
501,345,38510,5,2,0:0:0:0:
416,380,38668,1,0,0:0:0:0:
333,341,38826,2,0,L|340:286,1,48.9999985046387,8|0,0:0|0:0,0:0:0:0:
197,186,39141,6,0,P|245:194|289:213,1,97.9999970092774,2|8,0:0|0:0,0:0:0:0:
380,160,39615,2,0,P|335:179|286:186,1,97.9999970092774,0|0,0:0|0:0,0:0:0:0:
191,102,40089,1,8,0:0:0:0:
190,101,40405,6,0,B|171:64|126:51|126:51|109:97|116:135,1,168,4|4,0:0|0:0,0:0:0:0:
116,135,41352,1,2,0:0:0:0:
116,135,41984,1,2,0:0:0:0:
116,135,42457,1,10,0:3:0:0:
99,150,42536,1,8,0:3:0:0:
89,170,42614,1,10,0:0:0:0:
60,77,42773,1,2,0:0:0:0:
176,21,42931,6,0,P|223:10|272:5,1,97.9999970092774,10|8,0:3|0:0,0:0:0:0:
424,92,43562,5,10,0:3:0:0:
334,120,43720,1,8,0:3:0:0:
268,54,43878,2,0,L|272:-1,1,48.9999985046387,8|0,0:0|0:0,0:0:0:0:
182,115,44194,6,0,P|136:100|88:92,1,97.9999970092774,2|8,0:3|0:1,0:0:0:0:
33,168,44668,1,8,0:1:0:0:
33,168,44747,1,8,0:3:0:0:
33,168,44826,1,10,0:0:0:0:
88,92,44984,1,8,0:3:0:0:
98,221,45141,1,10,0:0:0:0:
17,58,45299,1,8,0:0:0:0:
148,153,45457,6,0,P|202:137|257:133,1,112,4|8,0:0|0:0,0:0:0:0:
343,175,45931,1,4,0:0:0:0:
431,132,46089,2,0,P|429:102|424:71,1,56,10|8,0:3|0:3,0:0:0:0:
342,174,46405,6,0,P|333:230|329:286,1,112,10|8,0:0|0:3,0:0:0:0:
407,357,46878,2,0,P|436:352|462:347,1,56,10|8,0:3|0:0,0:0:0:0:
329,285,47194,2,0,P|301:278|273:275,1,56,2|8,0:0|0:3,0:0:0:0:
191,331,47510,1,10,0:3:0:0:
191,331,47589,1,8,0:3:0:0:
191,331,47668,2,0,P|200:358|206:385,1,56,8|10,0:0|0:3,0:0:0:0:
96,291,47984,6,0,P|98:232|108:179,1,112,10|8,0:3|0:0,0:0:0:0:
4,327,48615,5,10,0:3:0:0:
96,291,48773,1,8,0:3:0:0:
187,326,48931,2,0,P|194:352|201:380,1,56,8|0,0:0|0:0,0:0:0:0:
204,229,49246,6,0,P|257:245|312:254,1,112,10|8,0:3|0:0,0:0:0:0:
340,342,49720,2,0,P|393:326|448:317,1,112,0|8,0:0|0:3,0:0:0:0:
512,384,50194,1,10,0:0:0:0:
441,232,50352,1,8,0:3:0:0:
441,232,50431,1,8,0:3:0:0:
441,232,50510,6,0,P|442:175|455:121,1,112,8|8,0:3|0:0,0:0:0:0:
424,30,50984,1,0,0:0:0:0:
307,114,51142,2,0,P|334:109|362:108,1,56,10|8,0:3|0:3,0:0:0:0:
223,109,51458,6,0,P|213:53|198:0,1,112,10|8,0:0|0:3,0:0:0:0:
113,37,51931,2,0,P|85:32|57:26,1,56,10|10,0:3|0:0,0:0:0:0:
213,53,52247,2,0,P|240:46|267:43,1,56,2|8,0:0|0:3,0:0:0:0:
158,128,52563,1,10,0:3:0:0:
158,128,52642,1,8,0:3:0:0:
158,128,52721,2,0,P|167:155|173:182,1,56,8|10,0:0|0:0,0:0:0:0:
251,275,53037,6,0,P|235:328|227:384,1,112,10|8,0:3|0:0,0:0:0:0:
418,338,53668,5,10,0:3:0:0:
321,340,53826,1,8,0:3:0:0:
251,275,53984,2,0,P|257:247|265:220,1,56,8|0,0:0|0:0,0:0:0:0:
157,367,54299,6,0,P|150:339|142:312,1,56,10|8,0:3|0:3,0:0:0:0:
53,266,54615,1,8,0:0:0:0:
40,267,54694,1,8,0:3:0:0:
28,269,54773,1,8,0:3:0:0:
15,270,54852,1,8,0:3:0:0:
3,272,54930,1,10,0:0:0:0:
142,312,55089,1,8,0:0:0:0:
105,143,55247,2,0,P|94:168|87:195,1,56,14|8,0:0|0:3,0:0:0:0:
142,312,55562,6,0,L|240:303,1,83.9999974365235,6|0,0:0|0:0,0:0:0:0:
316,264,56036,1,8,0:3:0:0:
257,191,56194,2,0,P|242:206|230:223,1,41.9999987182618,10|0,0:0|0:0,0:0:0:0:
343,168,56510,2,0,P|343:147|339:126,1,41.9999987182618,2|8,0:0|0:0,0:0:0:0:
316,264,56826,6,0,P|356:275|398:279,1,83.9999974365235,10|0,0:3|0:0,0:0:0:0:
487,229,57299,1,8,0:3:0:0:
398,279,57457,2,0,L|391:321,1,41.9999987182618,10|0,0:0|0:0,0:0:0:0:
487,229,57773,2,0,L|480:187,1,41.9999987182618,10|8,0:3|0:0,0:0:0:0:
402,76,58089,6,0,P|333:103|290:109,1,112,10|10,0:3|0:0,0:0:0:0:
209,74,58562,1,2,0:0:0:0:
126,121,58720,2,0,L|121:176,1,56,8|8,0:3|0:3,0:0:0:0:
201,282,59036,1,8,0:0:0:0:
72,290,59194,6,0,L|13:297,1,56,10|0,0:0|0:0,0:0:0:0:
0,319,59510,2,0,L|55:311,1,56,10|0,0:0|0:0,0:0:0:0:
72,290,59826,2,0,L|13:297,1,56,10|10,0:0|0:3,0:0:0:0:
181,329,60141,1,8,0:3:0:0:
181,329,60220,1,8,0:3:0:0:
181,329,60299,2,0,P|169:357|163:382,1,56,10|8,0:0|0:0,0:0:0:0:
347,277,60615,6,0,P|306:287|265:285,1,83.9999974365235,14|0,0:0|0:0,0:0:0:0:
190,224,61089,1,8,0:3:0:0:
257,150,61247,2,0,P|269:167|278:185,1,41.9999987182618,10|0,0:0|0:0,0:0:0:0:
190,223,61562,2,0,P|177:240|167:259,1,41.9999987182618,10|8,0:3|0:0,0:0:0:0:
265,285,61879,6,0,P|278:324|284:366,1,83.9999974365235,10|0,0:3|0:0,0:0:0:0:
188,384,62352,1,0,0:0:0:0:
284,366,62510,2,0,L|326:373,1,41.9999987182618,10|0,0:0|0:0,0:0:0:0:
457,305,62826,2,0,L|415:312,1,41.9999987182618,10|0,0:0|0:0,0:0:0:0:
289,228,63141,5,4,0:0:0:0:
344,54,63457,1,10,0:0:0:0:
344,54,63615,1,14,0:0:0:0:
289,228,63931,1,10,0:0:0:0:
512,136,64247,5,14,0:0:0:0:
327,139,64562,1,14,0:0:0:0:
327,139,64720,1,14,0:0:0:0:
512,136,65036,5,10,0:0:0:0:
412,179,65194,1,8,0:0:0:0:
402,201,65273,1,8,0:0:0:0:
395,225,65352,1,10,0:0:0:0:
387,248,65431,1,8,0:0:0:0:
382,273,65510,1,8,0:0:0:0:
378,298,65588,1,8,0:0:0:0:
373,322,65668,6,0,P|342:305|307:299,1,70,4|0,0:1|0:0,0:0:0:0:
165,379,65984,2,0,P|195:361|229:355,1,70,10|0,0:0|0:0,0:0:0:0:
245,175,66299,2,0,P|228:205|222:239,1,70,10|8,0:3|0:3,0:0:0:0:
331,363,66615,2,0,P|325:329|308:299,1,70,10|0,0:0|0:0,0:0:0:0:
512,295,66931,6,0,P|442:294|379:264,1,140,10|8,0:3|0:0,0:0:0:0:
325,185,67405,1,0,0:0:0:0:
360,40,67562,6,0,P|376:69|389:120,1,70,10|8,0:3|0:3,0:0:0:0:
229,66,67878,2,0,P|260:78|303:108,1,70,10|8,0:0|0:3,0:0:0:0:
90,141,68194,2,0,P|74:170|61:221,1,70,10|0,0:3|0:0,0:0:0:0:
145,71,68510,2,0,P|134:37|118:7,1,70,10|0,0:0|0:0,0:0:0:0:
90,141,68826,5,10,0:3:0:0:
90,141,68984,1,8,0:3:0:0:
225,105,69141,2,0,P|258:94|292:85,1,70,10|0,0:0|0:0,0:0:0:0:
90,141,69457,6,0,P|75:209|68:278,1,140,10|8,0:3|0:0,0:0:0:0:
91,370,69931,1,0,0:0:0:0:
224,281,70089,2,0,P|190:270|155:270,1,70,10|8,0:3|0:3,0:0:0:0:
267,384,70405,2,0,P|301:383|335:373,1,70,10|8,0:0|0:3,0:0:0:0:
451,262,70720,6,0,P|494:315|499:384,1,140,10|8,0:3|0:0,0:0:0:0:
407,353,71194,1,8,0:3:0:0:
421,199,71352,2,0,P|439:228|450:261,1,70,10|8,0:3|0:3,0:0:0:0:
289,141,71668,2,0,P|299:107|318:78,1,70,10|0,0:0|0:0,0:0:0:0:
450,261,71983,6,0,P|382:241|313:238,1,140,10|8,0:3|0:0,0:0:0:0:
223,267,72457,1,0,0:0:0:0:
128,383,72615,2,0,P|137:347|145:282,1,70,10|8,0:3|0:3,0:0:0:0:
291,255,72931,2,0,P|256:259|222:266,1,70,10|0,0:0|0:0,0:0:0:0:
75,168,73247,6,0,P|102:232|117:300,1,140,10|8,0:3|0:0,0:0:0:0:
0,132,73878,5,10,0:3:0:0:
0,132,74036,1,8,0:3:0:0:
148,85,74194,2,0,P|115:80|79:79,1,70,10|0,0:0|0:0,0:0:0:0:
207,8,74510,5,8,0:3:0:0:
148,85,74668,1,8,0:3:0:0:
254,187,74826,1,14,0:0:0:0:
241,92,74984,1,8,0:3:0:0:
109,207,75141,2,0,P|142:217|176:222,1,70,12|8,0:0|0:3,0:0:0:0:
270,350,75457,2,0,P|264:315|254:282,1,70,14|8,0:0|0:3,0:0:0:0:
359,143,75773,2,0,P|346:174|337:207,1,68.2499968757631,10|0,0:3|0:0,0:0:0:0:
376,128,76089,6,0,P|367:95|352:58,1,70,6|0,0:0|0:0,0:0:0:0:
457,156,76405,1,10,0:3:0:0:
457,156,76563,1,8,0:3:0:0:
337,207,76721,2,0,P|304:198|269:193,1,70,10|0,0:0|0:0,0:0:0:0:
150,72,77036,6,0,P|175:137|179:206,1,140,10|8,0:3|0:0,0:0:0:0:
137,291,77510,1,0,0:0:0:0:
0,250,77668,2,0,P|33:240|67:235,1,70,10|8,0:3|0:3,0:0:0:0:
152,371,77984,2,0,P|117:366|83:355,1,70,10|8,0:0|0:3,0:0:0:0:
241,257,78299,2,0,P|221:286|206:317,1,70,10|0,0:3|0:0,0:0:0:0:
370,299,78615,2,0,P|336:308|304:322,1,70,10|0,0:0|0:0,0:0:0:0:
438,360,78931,5,10,0:3:0:0:
438,360,79089,1,8,0:3:0:0:
402,222,79247,2,0,P|407:187|414:153,1,70,10|0,0:0|0:0,0:0:0:0:
250,39,79562,6,0,P|316:36|351:93,1,140,10|8,0:3|0:0,0:0:0:0:
478,127,80036,1,8,0:3:0:0:
478,127,80115,1,8,0:3:0:0:
478,127,80194,2,0,P|444:135|413:152,1,70,10|8,0:3|0:3,0:0:0:0:
296,205,80510,2,0,P|265:187|231:179,1,70,10|8,0:0|0:3,0:0:0:0:
65,45,80826,6,0,P|100:104|117:172,1,140,6|8,0:0|0:0,0:0:0:0:
36,312,81457,5,10,0:3:0:0:
36,312,81615,1,8,0:3:0:0:
126,187,81773,2,0,P|108:217|100:251,1,70,10|0,0:0|0:0,0:0:0:0:
255,218,82089,2,0,P|221:229|193:250,1,70,6|0,0:0|0:0,0:0:0:0:
336,343,82405,2,0,P|302:331|274:310,1,70,8|10,0:0|0:3,0:0:0:0:
255,218,82720,5,14,0:0:0:0:
357,356,82878,1,8,0:3:0:0:
386,355,82956,1,8,0:3:0:0:
413,342,83035,1,10,0:0:0:0:
430,318,83114,1,8,0:0:0:0:
435,287,83193,1,8,0:0:0:0:
425,259,83272,1,8,0:0:0:0:
407,243,83352,6,0,B|388:210|407:162|407:162|424:109|392:62,1,154.000004699707,10|8,0:3|0:0,0:0:0:0:
512,0,83984,5,10,0:3:0:0:
496,89,84141,1,10,0:3:0:0:
407,93,84299,1,10,0:0:0:0:
347,24,84457,2,0,P|279:24|239:79,1,140,10|0,0:3|0:0,0:0:0:0:
265,160,84931,1,8,0:0:0:0:
113,23,85089,6,0,P|149:82|159:151,1,140,10|8,0:3|0:3,0:0:0:0:
114,234,85562,1,10,0:0:0:0:
114,234,85720,1,10,0:3:0:0:
0,326,85878,6,0,P|37:316|88:314,1,70,10|0,0:3|0:0,0:0:0:0:
148,359,86194,1,10,0:0:0:0:
237,384,86352,2,0,P|304:374|347:320,1,140,2|10,0:0|0:3,0:0:0:0:
325,235,86826,1,10,0:0:0:0:
511,202,86984,2,0,P|456:181|352:164,1,140,10|0,0:3|0:0,0:0:0:0:
308,105,87457,6,0,P|317:89|328:76,3,35,10|0|10|0,0:0|0:0|0:3|0:0,0:0:0:0:
255,34,87773,2,0,P|246:18|235:4,3,35,10|0|10|0,0:3|0:0|0:3|0:0,0:0:0:0:
187,89,88089,1,10,0:0:0:0:
160,90,88167,1,0,0:0:0:0:
133,86,88246,1,10,0:3:0:0:
108,72,88325,1,0,0:0:0:0:
86,59,88405,6,0,P|48:60|12:69,1,70,10|0,0:3|0:0,0:0:0:0:
103,151,88720,1,10,0:0:0:0:
255,34,88878,2,0,P|209:86|193:153,1,140,2|8,0:3|0:3,0:0:0:0:
248,235,89352,1,10,0:0:0:0:
280,236,89430,1,10,0:3:0:0:
313,231,89509,1,10,0:3:0:0:
343,214,89588,1,10,0:3:0:0:
369,198,89668,6,0,P|413:199|457:210,1,70,10|10,0:3|0:3,0:0:0:0:
327,304,89983,1,10,0:0:0:0:
170,191,90141,2,0,P|215:243|231:310,1,140,10|8,0:3|0:3,0:0:0:0:
87,361,90615,2,0,P|114:341|173:327,1,70,10|10,0:0|0:3,0:0:0:0:
278,383,90931,5,14,0:1:0:0:
148,328,91089,1,10,0:3:0:0:
272,261,91247,1,10,0:3:0:0:
148,328,91405,2,0,P|135:259|113:192,2,140,6|6|6,0:0|0:0|0:0,0:0:0:0:
73,115,92352,5,10,0:3:0:0:
179,211,92510,2,0,P|144:207|113:191,1,70,10|10,0:0|0:3,0:0:0:0:
130,52,92826,1,10,0:3:0:0:
266,58,92984,1,10,0:3:0:0:
245,70,93062,1,8,0:3:0:0:
220,72,93141,1,10,0:0:0:0:
371,2,93299,1,10,0:0:0:0:
359,21,93377,1,8,0:0:0:0:
351,42,93458,6,0,P|343:95|340:148,1,105,14|0,0:0|0:0,0:0:0:0:
361,161,93773,2,0,P|354:125|344:92,1,70,10|0,0:0|0:0,0:0:0:0:
439,157,94089,1,10,0:3:0:0:
454,159,94168,1,10,0:3:0:0:
471,159,94247,1,10,0:3:0:0:
488,156,94326,1,10,0:3:0:0:
503,148,94404,1,10,0:0:0:0:
460,66,94562,1,10,0:3:0:0:
356,186,94720,6,0,P|369:237|378:290,1,105,10|0,0:3|0:0,0:0:0:0:
360,337,95036,2,0,P|387:314|416:294,1,70,10|0,0:0|0:0,0:0:0:0:
292,377,95352,1,10,0:3:0:0:
268,384,95430,1,10,0:3:0:0:
245,384,95509,1,10,0:3:0:0:
224,381,95588,1,10,0:3:0:0:
204,375,95667,1,10,0:0:0:0:
246,282,95826,1,10,0:3:0:0:
63,345,95984,6,0,P|108:313|158:302,1,105,10|0,0:3|0:0,0:0:0:0:
190,214,96299,2,0,P|175:245|164:279,1,70,10|0,0:0|0:0,0:0:0:0:
272,152,96616,1,10,0:3:0:0:
274,116,96694,1,10,0:3:0:0:
268,84,96773,1,10,0:3:0:0:
258,55,96852,1,10,0:3:0:0:
245,29,96931,1,10,0:0:0:0:
154,116,97090,1,10,0:3:0:0:
244,236,97247,6,0,B|267:247|300:231|300:231|336:217|371:237,1,105,10|0,0:3|0:0,0:0:0:0:
373,236,97562,1,10,0:0:0:0:
452,289,97720,1,8,0:3:0:0:
389,118,97878,5,10,0:3:0:0:
373,236,98036,1,10,0:3:0:0:
452,289,98194,1,10,0:0:0:0:
465,193,98352,1,10,0:3:0:0:
371,319,98510,2,0,P|387:350|395:383,1,70,10|0,0:3|0:0,0:0:0:0:
267,384,98826,6,0,P|285:371|323:351,3,35,10|10|10|10,0:0|0:3|0:3|0:3,0:0:0:0:
181,346,99141,2,0,P|162:333|124:313,3,35,10|8|10|8,0:0|0:3|0:3|0:3,0:0:0:0:
60,364,99457,2,0,P|46:373|32:384,3,35,10|8|10|8,0:0|0:3|0:3|0:3,0:0:0:0:
87,254,99773,2,0,P|81:217|66:161,1,70,10|8,0:3|0:3,0:0:0:0:
41,64,100089,6,0,P|31:49|22:35,3,35,10|10|10|8,0:0|0:3|0:3|0:3,0:0:0:0:
128,76,100405,2,0,P|144:69|160:62,3,35,10|8|10|8,0:0|0:3|0:3|0:3,0:0:0:0:
84,152,100720,2,0,P|78:168|73:185,3,35,10|8|10|8,0:0|0:3|0:3|0:3,0:0:0:0:
0,257,101036,5,14,0:0:0:0:
8,268,101114,1,8,0:3:0:0:
15,283,101194,2,0,P|22:305|28:335,1,35,8|8,0:3|0:3,0:0:0:0:
87,384,101351,1,8,0:3:0:0:
90,364,101430,1,8,0:3:0:0:
96,347,101510,6,0,P|104:331|114:316,5,35,10|8|8|8|8|8,0:0|0:3|0:3|0:3|0:3|0:3,0:0:0:0:
171,252,101984,5,10,0:0:0:0:
189,238,102062,1,8,0:3:0:0:
212,231,102141,1,8,0:3:0:0:
235,231,102220,1,8,0:3:0:0:
258,235,102299,1,8,0:3:0:0:
279,247,102378,1,8,0:3:0:0:
299,268,102457,6,0,P|289:282|281:298,5,35,10|8|8|8|8|10,0:0|0:3|0:3|0:3|0:3|0:3,0:0:0:0:
381,254,102931,5,12,0:1:0:0:
384,243,103009,1,8,0:3:0:0:
386,227,103088,1,8,0:0:0:0:
386,204,103167,1,8,0:0:0:0:
383,174,103246,1,8,0:0:0:0:
372,140,103325,1,8,0:0:0:0:
350,104,103404,1,8,0:0:0:0:
313,71,103484,1,8,0:0:0:0:
263,68,103562,6,0,P|310:73|353:51,1,97.9999970092774,6|2,0:0|0:0,0:0:0:0:
511,73,104036,1,8,0:3:0:0:
461,4,104194,2,0,P|446:19|428:43,1,48.9999985046387,10|0,0:0|0:0,0:0:0:0:
372,116,104510,2,0,P|381:138|386:162,1,48.9999985046387,2|8,0:0|0:3,0:0:0:0:
434,226,104826,6,0,P|419:272|416:321,1,97.9999970092774,10|0,0:3|0:0,0:0:0:0:
491,381,105299,1,2,0:0:0:0:
416,321,105457,2,0,L|363:324,1,48.9999985046387,10|0,0:0|0:0,0:0:0:0:
464,243,105773,2,0,L|517:246,1,48.9999985046387,10|8,0:3|0:0,0:0:0:0:
359,68,106089,6,0,P|383:126|392:188,1,125.999996154785,10|10,0:3|0:0,0:0:0:0:
345,273,106562,1,2,0:0:0:0:
204,227,106720,2,0,P|234:218|265:215,1,62.9999980773926,8|8,0:3|0:3,0:0:0:0:
144,305,107036,1,8,0:0:0:0:
89,146,107194,6,0,P|100:178|107:209,1,62.9999980773926,8|0,0:0|0:0,0:0:0:0:
167,61,107510,2,0,P|174:30|185:0,1,62.9999980773926,8|0,0:0|0:0,0:0:0:0:
97,126,107826,2,0,P|108:158|115:189,1,62.9999980773926,8|10,0:0|0:0,0:0:0:0:
0,34,108141,1,8,0:3:0:0:
0,34,108220,1,8,0:0:0:0:
0,34,108299,2,0,P|28:46|62:51,1,62.9999980773926,10|8,0:0|0:0,0:0:0:0:
179,112,108615,6,0,P|225:97|274:94,1,97.9999970092774,6|2,0:0|0:0,0:0:0:0:
416,151,109089,1,10,0:3:0:0:
364,75,109247,2,0,P|372:52|386:31,1,48.9999985046387,10|0,0:0|0:0,0:0:0:0:
308,156,109562,2,0,P|299:133|285:112,1,48.9999985046387,10|8,0:3|0:0,0:0:0:0:
371,237,109878,6,0,P|389:191|415:150,1,97.9999970092774,10|0,0:3|0:0,0:0:0:0:
506,116,110352,1,8,0:3:0:0:
415,150,110510,2,0,L|367:142,1,48.9999985046387,10|0,0:0|0:0,0:0:0:0:
237,93,110826,2,0,L|285:85,1,48.9999985046387,10|8,0:3|0:3,0:0:0:0:
106,0,111141,6,0,L|119:57,1,48.9999985046387,14|0,0:0|0:0,0:0:0:0:
31,187,111457,1,10,0:0:0:0:
130,67,111615,2,0,L|119:114,1,48.9999985046387,14|0,0:0|0:0,0:0:0:0:
215,231,111931,2,0,L|167:220,1,48.9999985046387,10|0,0:0|0:0,0:0:0:0:
106,384,112247,6,0,L|119:327,1,48.9999985046387,14|0,0:0|0:0,0:0:0:0:
31,187,112562,1,10,0:0:0:0:
130,317,112720,2,0,L|119:269,1,48.9999985046387,10|0,0:0|0:0,0:0:0:0:
208,369,113036,6,0,L|242:377,3,24.4999992523194,2|0|0|0,0:0|0:0|0:0|0:0,0:0:0:0:
271,353,113352,2,0,L|294:347,3,24.4999992523194,2|0|0|0,0:0|0:0|0:0|0:0,0:0:0:0:
368,368,113668,1,2,0:0:0:0:
375,368,121247,5,10,0:3:0:0:
451,325,121878,1,10,0:3:0:0:
375,368,122510,6,0,L|333:357,3,24.4999992523194,10|8|8|8,0:0|0:3|0:3|0:3,0:0:0:0:
278,328,122826,2,0,L|254:334,3,24.4999992523194,8|8|8|8,0:0|0:3|0:3|0:3,0:0:0:0:
188,380,123141,5,10,0:0:0:0:
162,378,123219,1,8,0:0:0:0:
138,369,123298,1,8,0:0:0:0:
118,353,123377,1,8,0:0:0:0:
104,331,123456,1,10,0:0:0:0:
98,307,123535,1,8,0:0:0:0:
99,281,123614,1,8,0:0:0:0:
108,257,123693,1,8,0:0:0:0:
124,237,123773,6,0,P|162:230|201:228,1,77.0000023498536,14|0,0:0|0:0,0:0:0:0:
25,123,124089,2,0,P|46:155|62:189,1,77.0000023498536,6|0,0:0|0:0,0:0:0:0:
33,281,124405,1,10,0:3:0:0:
62,190,124562,1,8,0:3:0:0:
192,307,124720,2,0,P|153:312|116:321,1,77.0000023498536,10|0,0:0|0:0,0:0:0:0:
274,224,125036,6,0,P|288:296|358:320,1,154.000004699707,10|8,0:3|0:0,0:0:0:0:
441,287,125509,1,8,0:3:0:0:
486,144,125668,2,0,P|499:180|505:217,1,77.0000023498536,10|8,0:3|0:3,0:0:0:0:
401,116,125984,2,0,P|408:76|422:41,1,77.0000023498536,10|8,0:0|0:3,0:0:0:0:
259,92,126299,2,0,P|290:107|328:137,1,77.0000023498536,10|0,0:3|0:0,0:0:0:0:
184,43,126615,2,0,P|212:23|256:2,1,77.0000023498536,10|0,0:0|0:0,0:0:0:0:
96,6,126930,5,10,0:3:0:0:
184,43,127088,1,8,0:3:0:0:
19,74,127247,2,0,P|13:35|1:0,1,77.0000023498536,10|0,0:0|0:0,0:0:0:0:
111,91,127562,6,0,P|82:162|71:238,1,154.000004699707,10|8,0:3|0:0,0:0:0:0:
0,357,128035,1,8,0:3:0:0:
0,357,128114,1,8,0:3:0:0:
0,357,128194,2,0,P|30:340|79:328,1,77.0000023498536,10|8,0:3|0:3,0:0:0:0:
191,281,128510,2,0,P|224:289|263:313,1,77.0000023498536,10|8,0:0|0:3,0:0:0:0:
407,327,128826,5,10,0:3:0:0:
325,365,128984,1,0,0:0:0:0:
275,229,129141,2,0,P|284:187|307:140,1,77.0000023498536,8|0,0:0|0:0,0:0:0:0:
378,97,129456,5,10,0:3:0:0:
297,155,129614,1,8,0:3:0:0:
447,127,129773,2,0,P|413:107|377:96,1,77.0000023498536,10|0,0:0|0:0,0:0:0:0:
211,89,130089,2,0,P|244:69|280:58,1,77.0000023498536,10|0,0:3|0:0,0:0:0:0:
156,167,130405,2,0,P|119:155|86:135,1,77.0000023498536,10|0,0:0|0:0,0:0:0:0:
48,49,130720,5,10,0:3:0:0:
204,45,130878,1,10,0:0:0:0:
87,136,131036,1,8,0:3:0:0:
128,0,131194,1,0,0:0:0:0:
180,148,131352,6,0,P|151:219|136:295,1,154.000004699707,6|8,0:0|0:3,0:0:0:0:
209,361,131825,1,10,0:0:0:0:
256,355,132141,1,8,0:0:0:0:
303,345,132457,1,8,0:0:0:0:
417,382,132773,5,8,0:3:0:0:
417,382,132852,1,8,0:3:0:0:
417,382,132931,1,8,0:0:0:0:
310,352,133089,5,8,0:3:0:0:
310,352,133168,1,8,0:3:0:0:
310,352,133247,1,10,0:0:0:0:
376,290,133405,5,8,0:3:0:0:
364,201,133562,1,10,0:0:0:0:
292,150,133720,1,8,0:3:0:0:
450,161,133877,1,12,0:0:0:0:
457,168,134352,5,8,0:3:0:0:
457,168,134431,1,8,0:3:0:0:
457,168,134510,2,0,P|467:130|485:88,1,70,10|0,0:0|0:0,0:0:0:0:
351,161,134826,2,0,P|364:194|374:228,1,70,10|8,0:3|0:0,0:0:0:0:
409,347,135141,6,0,P|345:319|275:321,1,140,4|10,0:0|0:0,0:0:0:0:
487,257,135773,2,0,P|436:305|370:327,1,140,10|10,0:0|0:0,0:0:0:0:
204,369,136247,1,8,0:0:0:0:
204,369,136326,1,8,0:0:0:0:
204,369,136405,6,0,B|141:285|46:323|46:323|107:256|105:187|35:141,1,392,14|0,0:0|0:0,0:0:0:0:
0,229,137668,5,14,0:0:0:0:
156,183,137826,1,14,0:0:0:0:
122,337,137984,1,14,0:0:0:0:
67,163,138141,1,14,0:0:0:0:
389,32,138931,5,14,0:0:0:0:
