osu file format v14

[General]
AudioFilename: audio.mp3
AudioLeadIn: 0
PreviewTime: 42729
Countdown: 1
SampleSet: Soft
StackLeniency: 0.7
Mode: 0
LetterboxInBreaks: 0
WidescreenStoryboard: 0

[Editor]
DistanceSpacing: 3
BeatDivisor: 4
GridSize: 32
TimelineZoom: 1.6

[Metadata]
Title:Ruri
TitleUnicode:るり
Artist:YURRY CANON feat.GUMI
ArtistUnicode:ユリイ・カノン feat. GUMI
Creator:Twiggykun
Version:Story
Source:
Tags:
BeatmapID:2074467
BeatmapSetID:991954

[Difficulty]
HPDrainRate:6
CircleSize:3.5
OverallDifficulty:8.8
ApproachRate:9.2
SliderMultiplier:1.4
SliderTickRate:1

[Events]
//Background and Video events
0,0,"xdZQa0Z.png",0,0
//Break Periods
2,32595,37054
//Storyboard Layer 0 (Background)
//Storyboard Layer 1 (Fail)
//Storyboard Layer 2 (Pass)
//Storyboard Layer 3 (Foreground)
//Storyboard Sound Samples

[TimingPoints]
396,333.333333333333,4,2,0,50,1,0
11062,-83.3333333333333,4,2,0,50,0,0
43062,-76.9230769230769,4,2,0,50,0,0
96395,-454.545454545455,4,2,0,50,0,0

[HitObjects]
60,29,396,6,0,P|79:77|93:184,1,140
37,342,1062,2,0,P|36:262|39:240,1,70
184,196,1395,2,0,P|185:276|182:298,1,70
290,85,1729,6,0,P|346:78|444:93,1,140
423,366,2395,2,0,P|403:313|396:214,1,140
234,265,3062,6,0,B|167:271|176:323|77:323,1,140
8,198,3729,2,0,P|75:208|101:227,1,70
201,81,4062,2,0,P|134:91|108:110,1,70
318,166,4395,6,0,P|347:102|334:21,1,140
175,235,5062,2,0,P|215:292|292:321,1,140,0|0,2:0|2:0,2:0:0:0:
66,248,5729,6,0,B|52:186|116:166|83:91,1,140
223,33,6395,2,0,P|217:75|225:106,1,70
422,110,6729,2,0,P|428:68|420:37,1,70
319,265,7062,6,0,P|402:253|485:267,1,140
255,349,7562,2,0,B|161:305|138:392|26:342,1,210
1,125,8395,6,0,B|73:97|76:137|143:113,1,140
264,55,8895,2,0,P|318:40|427:65,1,140
427,231,9395,2,0,P|408:186|413:147,1,70
343,351,9729,2,0,P|312:280|172:361,1,280
22,51,11062,6,0,P|91:31|134:37,1,83.9999974365235
145,221,11395,2,0,P|93:171|76:131,1,83.9999974365235
267,9,11729,1,0,0:0:0:0:
225,132,11895,1,0,0:0:0:0:
335,95,12062,1,0,0:0:0:0:
378,218,12228,1,0,0:0:0:0:
489,52,12395,6,0,P|469:117|468:154,1,83.9999974365235
421,326,12729,2,0,P|414:284|399:245,1,83.9999974365235
240,256,13062,2,0,P|220:321|219:358,1,83.9999974365235
280,120,13395,2,0,P|273:78|258:39,1,83.9999974365235
73,92,13729,6,0,P|112:107|153:113,1,83.9999974365235
80,236,14062,2,0,P|40:251|0:257,1,83.9999974365235
205,231,14396,1,0,0:0:0:0:
162,361,14562,1,0,0:0:0:0:
288,246,14729,1,0,0:0:0:0:
353,361,14895,1,0,0:0:0:0:
458,194,15062,6,0,P|457:258|449:300,1,83.9999974365235
296,106,15395,2,0,P|297:42|305:0,1,83.9999974365235
162,138,15729,2,0,P|106:169|65:183,1,83.9999974365235
255,231,16062,2,0,P|309:263|342:291,1,83.9999974365235
134,381,16395,6,0,P|133:339|137:297,1,83.9999974365235
3,195,16729,2,0,P|3:236|0:278,1,83.9999974365235
78,49,17062,1,0,0:0:0:0:
131,181,17229,1,0,0:0:0:0:
238,17,17395,1,0,0:0:0:0:
222,147,17562,1,0,0:0:0:0:
414,37,17729,6,0,P|407:126|426:216,1,167.999994873047
483,325,18229,1,0,0:0:0:0:
334,360,18395,2,0,P|349:297|353:247,1,83.9999974365235
262,125,18729,2,0,P|251:165|244:207,1,83.9999974365235
117,357,19062,6,0,P|124:268|105:178,1,167.999994873047
16,59,19562,1,0,0:0:0:0:
165,23,19729,2,0,P|216:19|281:35,1,83.9999974365235
266,222,20062,2,0,P|237:179|218:115,1,83.9999974365235
387,35,20395,6,0,P|364:81|318:129,1,83.9999974365235
137,154,20729,5,0,0:0:0:0:
315,345,20896,1,0,0:0:0:0:
268,156,21062,1,0,0:0:0:0:
49,349,21229,1,0,0:0:0:0:
80,60,21395,1,0,0:0:0:0:
218,306,21562,1,0,0:0:0:0:
371,61,21729,6,0,P|437:46|486:50,1,83.9999974365235
411,133,22062,2,0,P|475:153|516:180,1,83.9999974365235
410,216,22395,2,0,P|455:265|477:310,1,83.9999974365235
283,205,22729,2,0,P|256:266|248:334,1,125.999996154785
256,362,23062,6,0,P|172:367|143:379,1,83.9999974365235
0,309,23395,2,0,P|75:306|113:326,1,83.9999974365235
181,189,23729,2,0,P|97:194|68:206,1,83.9999974365235
18,55,24062,2,0,P|85:69|170:59,1,125.999996154785
174,54,24395,6,0,P|227:37|276:44,1,83.9999974365235
405,128,24729,2,0,P|352:111|303:118,1,83.9999974365235
191,214,25062,2,0,P|244:197|293:204,1,83.9999974365235
422,288,25396,2,0,P|369:271|320:278,1,83.9999974365235
208,360,25729,6,0,P|148:369|54:344,1,125.999996154785
56,346,26063,1,0,0:0:0:0:
88,276,26229,1,0,0:0:0:0:
90,183,26395,1,0,0:0:0:0:
44,81,26562,1,0,0:0:0:0:
284,212,26729,2,0,B|363:241|439:221,1,125.999996154785
444,154,27062,6,0,P|437:276|459:352,1,167.999994873047
317,222,27562,1,0,0:0:0:0:
246,357,27729,2,0,P|191:364|143:352,1,83.9999974365235
79,223,28062,2,0,P|134:216|182:228,1,83.9999974365235
165,76,28395,6,0,B|95:99|75:54|-3:83,1,167.999994873047
70,251,28895,1,0,0:0:0:0:
228,154,29062,2,0,P|288:159|324:173,1,83.9999974365235
329,357,29395,2,0,P|303:302|297:264,1,83.9999974365235
445,66,29729,6,0,P|469:163|461:234,1,167.999994873047
375,171,30229,1,0,0:0:0:0:
212,306,30395,2,0,P|220:229|192:123,1,167.999994873047
57,74,31062,6,0,B|147:87|145:34|219:50,1,167.999994873047
140,160,31562,1,0,0:0:0:0:
318,200,31729,2,0,P|382:181|415:151,1,83.9999974365235
404,146,31979,1,0,0:0:0:0:
404,146,32062,1,0,0:0:0:0:
289,371,32395,1,0,0:0:0:0:
478,60,37729,6,0,P|457:121|446:212,1,125.999996154785
453,218,38062,1,0,0:0:0:0:
297,188,38229,6,0,P|318:249|329:340,1,125.999996154785
322,346,38562,1,0,0:0:0:0:
166,190,38729,2,0,P|163:137|171:82,1,83.9999974365235
28,328,39062,2,0,P|119:312|156:320,1,125.999996154785
183,331,39395,1,0,0:0:0:0:
400,231,39562,2,0,P|339:214|277:221,1,125.999996154785
249,235,39895,1,0,0:0:0:0:
133,178,40062,6,0,P|104:119|101:66,1,83.9999974365235
177,44,40395,5,0,0:0:0:0:
109,331,40562,1,0,0:0:0:0:
274,44,40729,1,0,0:0:0:0:
338,336,40895,1,0,0:0:0:0:
141,31,41062,5,0,0:0:0:0:
82,342,41229,1,0,0:0:0:0:
302,27,41395,1,0,0:0:0:0:
370,345,41562,1,0,0:0:0:0:
24,240,41729,1,0,0:0:0:0:
476,143,42229,1,0,0:0:0:0:
13,66,43062,6,0,P|48:136|52:175,1,90.9999958343508
81,346,43395,2,0,P|93:302|118:264,1,90.9999958343508
242,138,43729,1,0,0:0:0:0:
345,343,43895,1,0,0:0:0:0:
415,115,44062,1,0,0:0:0:0:
223,253,44229,1,0,0:0:0:0:
179,14,44395,6,0,P|254:9|294:25,1,90.9999958343508
98,162,44729,2,0,P|23:167|-17:151,1,90.9999958343508
212,86,45062,1,0,0:0:0:0:
162,310,45229,1,0,0:0:0:0:
287,146,45395,1,0,0:0:0:0:
379,361,45562,1,0,0:0:0:0:
512,168,45729,6,0,P|514:234|505:276,1,90.9999958343508
275,360,46062,2,0,P|273:294|282:252,1,90.9999958343508
366,69,46395,1,0,0:0:0:0:
405,285,46562,1,0,0:0:0:0:
169,97,46729,1,0,0:0:0:0:
400,166,46895,1,0,0:0:0:0:
215,329,47062,6,0,P|146:337|94:327,1,90.9999958343508
48,101,47395,2,0,P|117:93|169:103,1,90.9999958343508
264,183,47729,1,0,0:0:0:0:
264,183,47812,1,0,0:0:0:0:
264,183,47895,1,0,0:0:0:0:
70,295,48062,2,0,P|79:230|73:174,1,90.9999958343508
241,61,48395,6,0,P|240:106|248:151,1,90.9999958343508
441,274,48729,2,0,P|441:228|433:183,1,90.9999958343508
351,73,49062,1,0,0:0:0:0:
282,312,49229,1,0,0:0:0:0:
123,89,49395,1,0,0:0:0:0:
358,191,49562,1,0,0:0:0:0:
136,339,49729,6,0,P|65:332|25:335,1,90.9999958343508
152,73,50062,2,0,P|197:66|242:66,1,90.9999958343508
97,256,50395,1,0,0:0:0:0:
0,29,50562,1,0,0:0:0:0:
240,166,50729,1,0,0:0:0:0:
1,313,50895,1,0,0:0:0:0:
268,158,51062,6,0,P|338:151|460:174,1,181.999991668702
508,285,51562,1,0,0:0:0:0:
344,364,51729,2,0,P|352:311|347:270,1,90.9999958343508
183,227,52062,2,0,P|175:280|180:321,1,90.9999958343508
23,66,52395,6,0,P|52:159|53:263,1,181.999991668702
28,353,52895,1,0,0:0:0:0:
283,200,53062,2,0,P|327:190|357:198,3,45.4999979171754
411,215,53395,1,0,0:0:0:0:
415,192,53478,1,0,0:0:0:0:
419,170,53561,1,0,0:0:0:0:
423,147,53645,1,0,0:0:0:0:
426,124,53729,6,0,P|411:61|385:26,1,90.9999958343508
199,135,54062,2,0,P|214:198|240:233,1,90.9999958343508
291,47,54395,1,0,0:0:0:0:
79,153,54562,1,0,0:0:0:0:
263,296,54729,1,0,0:0:0:0:
134,71,54895,1,0,0:0:0:0:
7,305,55062,6,0,P|62:335|117:330,1,90.9999958343508
342,226,55395,2,0,P|287:196|232:201,1,90.9999958343508
114,248,55729,1,0,0:0:0:0:
356,345,55895,1,0,0:0:0:0:
341,74,56062,1,0,0:0:0:0:
211,296,56229,1,0,0:0:0:0:
490,294,56395,6,0,P|488:203|478:177,1,90.9999958343508
202,171,56729,2,0,P|204:262|214:288,1,90.9999958343508
301,33,57062,1,0,0:0:0:0:
83,128,57229,1,0,0:0:0:0:
299,238,57395,1,0,0:0:0:0:
159,39,57562,1,0,0:0:0:0:
50,256,57729,6,0,P|48:315|73:376,1,90.9999958343508
270,228,58062,2,0,P|264:182|249:140,1,90.9999958343508
58,228,58395,1,0,0:0:0:0:
58,228,58479,1,0,0:0:0:0:
58,228,58562,1,0,0:0:0:0:
204,352,58729,2,0,P|267:357|332:338,1,90.9999958343508
478,223,59062,6,0,P|415:218|350:237,1,90.9999958343508
217,97,59395,2,0,P|280:102|345:83,1,90.9999958343508
417,37,59729,1,0,0:0:0:0:
326,259,59895,1,0,0:0:0:0:
189,76,60062,1,0,0:0:0:0:
423,142,60229,1,0,0:0:0:0:
237,317,60395,6,0,P|170:323|119:313,1,90.9999958343508
24,174,60729,2,0,P|91:168|142:178,1,90.9999958343508
233,230,61062,1,0,0:0:0:0:
49,56,61229,1,0,0:0:0:0:
3,312,61395,1,0,0:0:0:0:
187,117,61562,1,0,0:0:0:0:
264,365,61729,6,0,P|201:353|156:355,1,90.9999958343508
367,274,62062,2,0,P|430:262|475:264,1,90.9999958343508
280,84,62395,1,0,0:0:0:0:
200,268,62562,1,0,0:0:0:0:
195,27,62729,1,0,0:0:0:0:
404,163,62895,1,0,0:0:0:0:
118,90,63062,6,0,P|59:85|13:98,1,90.9999958343508
34,309,63395,2,0,P|93:314|139:301,1,90.9999958343508
275,170,63729,1,0,0:0:0:0:
75,31,63895,1,0,0:0:0:0:
38,267,64062,1,0,0:0:0:0:
34,289,64145,1,0,0:0:0:0:
30,311,64228,1,0,0:0:0:0:
26,334,64312,1,0,0:0:0:0:
21,357,64395,6,0,P|87:350|210:356,1,181.999991668702
335,262,64895,1,0,0:0:0:0:
335,262,65062,2,0,P|263:253|230:259,1,90.9999958343508
394,351,65395,2,0,P|466:342|499:348,1,90.9999958343508
477,66,65729,6,0,P|467:162|475:269,1,181.999991668702
344,77,66229,1,0,0:0:0:0:
344,77,66395,2,0,P|354:135|354:193,1,90.9999958343508
195,280,66729,2,0,P|185:222|185:164,1,90.9999958343508
223,32,67062,6,0,P|163:100|62:96,1,181.999991668702
3,258,67562,2,0,P|3:174|61:81,1,181.999991668702
188,321,68062,2,0,P|115:309|81:311,1,90.9999958343508
285,272,68395,6,0,B|380:265|369:327|465:319,1,181.999991668702
467,132,68895,1,0,0:0:0:0:
467,132,69062,2,0,P|444:186|447:235,1,90.9999958343508
342,32,69395,2,0,P|365:86|362:135,1,90.9999958343508
225,237,69729,5,0,0:0:0:0:
269,101,69895,1,0,0:0:0:0:
97,241,70062,1,0,0:0:0:0:
292,123,70229,1,0,0:0:0:0:
29,130,70395,1,0,0:0:0:0:
139,369,70729,6,0,P|213:349|243:349,1,90.9999958343508
358,353,71062,5,0,0:0:0:0:
261,257,71229,1,0,0:0:0:0:
442,285,71395,1,0,0:0:0:0:
233,248,71562,1,0,0:0:0:0:
474,165,71729,1,0,0:0:0:0:
286,12,72062,6,0,P|199:26|162:41,1,90.9999958343508
30,107,72395,5,0,0:0:0:0:
184,343,72562,1,0,0:0:0:0:
2,91,72729,1,0,0:0:0:0:
368,230,72895,1,0,0:0:0:0:
30,269,73062,5,0,0:0:0:0:
399,226,73229,1,0,0:0:0:0:
1,282,73395,1,0,0:0:0:0:
286,12,73562,1,0,0:0:0:0:
50,267,75062,6,0,P|37:330|43:381,1,90.9999958343508
163,208,75395,2,0,P|176:271|170:322,1,90.9999958343508
301,99,75729,2,0,P|288:162|294:213,1,90.9999958343508
465,218,76062,2,0,P|478:155|472:104,1,90.9999958343508
264,15,76395,6,0,L|159:39,1,90.9999958343508
154,211,76729,2,0,L|259:187,1,90.9999958343508
14,95,77062,1,0,0:0:0:0:
14,95,77145,1,0,0:0:0:0:
14,95,77229,1,0,0:0:0:0:
19,297,77395,1,0,0:0:0:0:
137,187,77562,1,0,0:0:0:0:
190,331,77729,6,0,P|263:322|318:327,1,90.9999958343508
384,219,78062,2,0,P|311:210|256:215,1,90.9999958343508
392,98,78395,2,0,P|465:89|520:94,1,90.9999958343508
404,243,78729,1,0,0:0:0:0:
279,31,78895,1,0,0:0:0:0:
156,232,79062,6,0,P|77:252|34:238,1,90.9999958343508
71,59,79395,2,0,P|150:39|193:53,1,90.9999958343508
296,195,79729,1,0,0:0:0:0:
296,195,79812,1,0,0:0:0:0:
296,195,79895,1,0,0:0:0:0:
41,308,80062,1,0,0:0:0:0:
44,285,80145,1,0,0:0:0:0:
48,263,80228,1,0,0:0:0:0:
51,240,80311,1,0,0:0:0:0:
54,219,80395,6,0,P|106:195|155:194,1,90.9999958343508
285,320,80729,2,0,P|233:344|184:345,1,90.9999958343508
222,94,81062,2,0,L|347:111,1,90.9999958343508
456,241,81395,2,0,L|331:258,1,90.9999958343508
438,54,81729,6,0,P|453:104|447:150,1,90.9999958343508
224,117,82062,2,0,P|274:102|320:108,1,90.9999958343508
276,316,82395,2,0,P|291:266|285:220,1,90.9999958343508
84,250,82729,2,0,P|134:265|180:259,1,90.9999958343508
88,50,83062,5,0,0:0:0:0:
28,349,83229,1,0,0:0:0:0:
186,52,83395,5,0,0:0:0:0:
237,360,83562,1,0,0:0:0:0:
289,52,83729,5,0,0:0:0:0:
426,340,83895,1,0,0:0:0:0:
447,21,84062,5,0,0:0:0:0:
319,314,84229,1,0,0:0:0:0:
152,49,84395,5,0,0:0:0:0:
451,183,84562,1,0,0:0:0:0:
40,228,84729,5,0,0:0:0:0:
409,95,84895,1,0,0:0:0:0:
49,109,85062,5,0,0:0:0:0:
415,283,85229,1,0,0:0:0:0:
37,349,85395,5,0,0:0:0:0:
59,343,85478,1,0,0:0:0:0:
81,338,85561,1,0,0:0:0:0:
103,333,85644,1,0,0:0:0:0:
126,330,85729,6,0,P|204:331|241:345,1,90.9999958343508
316,209,86062,2,0,P|238:210|201:224,1,90.9999958343508
359,104,86395,2,0,P|437:105|474:119,1,90.9999958343508
439,333,86729,2,0,P|361:332|324:318,1,90.9999958343508
138,187,87062,6,0,L|161:68,1,90.9999958343508
20,294,87395,2,0,L|-3:175,1,90.9999958343508
166,349,87729,1,0,0:0:0:0:
166,349,87812,1,0,0:0:0:0:
166,349,87895,1,0,0:0:0:0:
111,164,88062,1,0,0:0:0:0:
306,202,88229,1,0,0:0:0:0:
237,16,88395,6,0,P|169:13|132:23,1,90.9999958343508
85,179,88729,2,0,P|153:182|190:172,1,90.9999958343508
289,330,89062,2,0,P|221:327|184:337,1,90.9999958343508
301,172,89396,1,0,0:0:0:0:
418,354,89562,1,0,0:0:0:0:
508,152,89729,6,0,P|499:68|486:39,1,90.9999958343508
264,73,90062,2,0,P|273:157|286:186,1,90.9999958343508
409,249,90395,1,0,0:0:0:0:
409,249,90479,1,0,0:0:0:0:
409,249,90562,1,0,0:0:0:0:
160,198,90729,1,0,0:0:0:0:
137,195,90812,1,0,0:0:0:0:
114,192,90895,1,0,0:0:0:0:
92,190,90978,1,0,0:0:0:0:
70,186,91062,6,0,P|55:248|67:303,1,90.9999958343508
267,341,91395,2,0,P|280:297|279:252,1,90.9999958343508
222,59,91729,2,0,L|118:36,1,90.9999958343508
68,298,92062,2,0,L|172:275,1,90.9999958343508
294,185,92395,6,0,P|233:152|175:151,1,90.9999958343508
354,305,92729,2,0,P|413:268|442:218,1,90.9999958343508
228,294,93062,2,0,P|229:363|258:414,1,90.9999958343508
403,153,93395,2,0,P|402:84|373:33,1,90.9999958343508
60,52,93729,5,0,0:0:0:0:
142,331,93895,1,0,0:0:0:0:
233,28,94062,5,0,0:0:0:0:
232,322,94229,1,0,0:0:0:0:
412,34,94395,5,0,0:0:0:0:
323,367,94562,1,0,0:0:0:0:
73,78,94729,5,0,0:0:0:0:
78,101,94812,1,0,0:0:0:0:
83,123,94895,1,0,0:0:0:0:
88,145,94978,1,0,0:0:0:0:
94,167,95062,5,0,0:0:0:0:
129,322,95229,1,0,0:0:0:0:
305,34,95729,5,0,0:0:0:0:
414,351,95896,1,0,0:0:0:0:
41,293,96395,2,0,B|369:293|151:98|460:98,1,492.800015039063
