osu file format v14

[General]
AudioFilename: audio.mp3
AudioLeadIn: 0
PreviewTime: 42729
Countdown: 1
SampleSet: Soft
StackLeniency: 0.7
Mode: 0
LetterboxInBreaks: 0
WidescreenStoryboard: 1

[Editor]
DistanceSpacing: 3.2
BeatDivisor: 4
GridSize: 32
TimelineZoom: 1.6

[Metadata]
Title:Ruri
TitleUnicode:るり
Artist:YURRY CANON feat.GUMI
ArtistUnicode:ユリイ・カノン feat. GUMI
Creator:Twiggykun
Version:Insane
Source:
Tags:
BeatmapID:2078440
BeatmapSetID:991954

[Difficulty]
HPDrainRate:5
CircleSize:3
OverallDifficulty:8.8
ApproachRate:8.5
SliderMultiplier:1.4
SliderTickRate:1

[Events]
//Background and Video events
0,0,"xdZQa0Z.png",0,0
//Break Periods
2,32595,37054
//Storyboard Layer 0 (Background)
//Storyboard Layer 1 (Fail)
//Storyboard Layer 2 (Pass)
//Storyboard Layer 3 (Foreground)
//Storyboard Sound Samples

[TimingPoints]
396,333.333333333333,4,2,0,50,1,0
11062,-83.3333333333333,4,2,0,50,0,0
43062,-76.9230769230769,4,2,0,50,0,0
96395,-400,4,2,0,50,0,0

[HitObjects]
113,50,396,6,0,P|132:112|125:193,1,140
51,279,1062,2,0,P|49:337|60:363,1,70
204,342,1395,2,0,P|206:284|195:258,1,70
348,214,1729,6,0,P|335:269|355:363,1,140
478,124,2395,2,0,P|436:85|345:55,1,140
224,124,3062,6,0,B|159:158|144:89|59:138,1,140
45,314,3729,2,0,P|58:257|49:219,1,70
214,346,4062,2,0,P|201:289|210:251,1,70
367,201,4395,6,0,P|406:283|397:359,1,140
346,97,5062,2,0,P|397:22|467:-8,1,140
260,169,5729,6,0,B|192:194|190:140|100:176,1,140
26,21,6395,2,0,P|44:71|45:108,1,70
19,192,6729,2,0,P|1:242|0:279,1,70
204,359,7062,6,0,P|178:305|110:256,1,140
291,251,7562,2,0,B|393:237|385:349|507:303,1,210
436,65,8395,6,0,P|460:141|457:233,1,140
334,116,8895,2,0,P|263:89|177:99,1,140
80,133,9395,2,0,P|81:76|64:38,1,70
10,250,9729,6,0,B|177:298|138:186|307:226,1,280
446,31,11062,6,0,P|468:88|470:124,1,83.9999974365235
311,172,11395,2,0,P|289:115|287:79,1,83.9999974365235
431,273,11729,1,0,0:0:0:0:
436,122,11895,1,0,0:0:0:0:
304,311,12062,2,0,P|238:317|193:312,1,83.9999974365235
129,137,12395,6,0,P|167:191|185:232,1,83.9999974365235
66,376,12729,2,0,P|93:315|120:279,1,83.9999974365235
93,120,13062,2,0,P|131:174|149:215,1,83.9999974365235
36,361,13396,2,0,P|63:300|90:264,1,83.9999974365235
192,304,13729,6,0,B|294:335|276:271|368:299,1,167.999994873047
473,346,14229,1,0,0:0:0:0:
441,143,14395,2,0,P|454:193|451:245,1,83.9999974365235
316,94,14729,2,0,P|303:44|306:-8,1,83.9999974365235
183,129,15062,6,0,P|142:139|105:159,1,83.9999974365235
297,228,15395,2,0,P|346:241|390:270,1,83.9999974365235
165,115,15729,2,0,P|124:125|87:145,1,83.9999974365235
299,203,16062,2,0,P|348:216|392:245,1,83.9999974365235
280,336,16395,6,0,B|189:369|186:294|88:336,1,167.999994873047
20,255,16896,1,0,0:0:0:0:
82,155,17062,2,0,P|87:85|79:48,1,83.9999974365235
195,169,17395,1,0,0:0:0:0:
275,27,17562,1,0,0:0:0:0:
387,214,17729,6,0,P|394:132|421:45,1,167.999994873047
491,321,18229,2,0,P|415:311|291:321,1,167.999994873047
197,204,18729,2,0,P|281:215|293:224,1,83.9999974365235
149,329,19062,6,0,P|78:275|76:175,1,167.999994873047
40,27,19562,2,0,P|85:59|104:102,1,83.9999974365235
39,192,19895,1,0,0:0:0:0:
133,90,20062,1,0,0:0:0:0:
221,245,20229,1,0,0:0:0:0:
312,43,20395,6,0,P|303:92|299:138,1,83.9999974365235
382,216,20729,1,0,0:0:0:0:
287,18,20895,1,0,0:0:0:0:
188,250,21062,5,0,0:0:0:0:
342,119,21229,1,0,0:0:0:0:
385,329,21395,1,0,0:0:0:0:
150,254,21729,6,0,P|129:191|127:77,1,167.999994873047
248,25,22395,2,0,P|244:81|226:119,1,83.9999974365235
359,230,22729,2,0,P|338:160|363:86,1,125.999996154785
379,96,23062,6,0,P|444:122|497:215,1,167.999994873047
456,341,23562,1,0,0:0:0:0:
323,236,23729,2,0,P|252:230|204:239,1,83.9999974365235
95,345,24062,2,0,P|115:259|91:204,1,125.999996154785
81,202,24395,2,0,P|48:132|82:41,1,167.999994873047
246,101,25062,2,0,P|189:124|161:117,1,83.9999974365235
337,19,25395,2,0,P|365:59|359:151,1,125.999996154785
354,167,25729,6,0,P|343:227|369:279,1,83.9999974365235
420,355,26062,1,0,0:0:0:0:
483,177,26229,1,0,0:0:0:0:
216,291,26395,1,0,0:0:0:0:
302,100,26562,1,0,0:0:0:0:
405,327,26729,1,0,0:0:0:0:
94,281,27062,6,0,P|96:198|109:104,1,167.999994873047
268,39,27562,1,0,0:0:0:0:
268,39,27729,2,0,P|210:56|164:56,1,83.9999974365235
311,134,28062,2,0,P|369:151|415:151,1,83.9999974365235
501,100,28395,6,0,P|478:238|487:297,1,167.999994873047
403,352,28895,2,0,P|335:344|292:360,1,83.9999974365235
199,199,29229,1,0,0:0:0:0:
199,199,29395,2,0,P|252:230|275:257,1,83.9999974365235
72,339,29729,6,0,P|55:254|62:166,1,167.999994873047
178,51,30229,1,0,0:0:0:0:
178,51,30395,2,0,P|103:76|81:74,1,83.9999974365235
229,183,30729,2,0,P|304:208|326:206,1,83.9999974365235
488,105,31062,6,0,P|378:80|307:92,1,167.999994873047
374,292,31562,2,0,P|416:247|421:200,1,83.9999974365235
206,70,31895,1,0,0:0:0:0:
206,70,31978,1,0,0:0:0:0:
206,70,32062,1,0,0:0:0:0:
154,332,32395,1,0,0:0:0:0:
481,321,37729,6,0,B|407:281|395:355|310:321,1,167.999994873047
289,90,38229,2,0,P|341:156|353:246,1,167.999994873047
183,277,38729,2,0,P|242:251|280:247,1,83.9999974365235
100,153,39062,6,0,B|121:244|69:238|96:330,1,167.999994873047
19,108,39562,2,0,P|58:69|171:92,1,167.999994873047
299,102,40062,2,0,P|261:49|264:12,1,83.9999974365235
395,47,40395,5,0,0:0:0:0:
290,251,40562,1,0,0:0:0:0:
432,151,40729,1,0,0:0:0:0:
469,366,40895,1,0,0:0:0:0:
313,137,41062,5,0,0:0:0:0:
252,350,41229,1,0,0:0:0:0:
118,118,41395,1,0,0:0:0:0:
321,274,41562,1,0,0:0:0:0:
81,365,41729,5,0,0:0:0:0:
349,113,42229,1,0,0:0:0:0:
57,341,43062,6,0,P|39:280|40:235,1,90.9999958343508
279,152,43395,2,0,P|275:197|260:240,1,90.9999958343508
35,315,43729,2,0,P|35:251|48:208,1,90.9999958343508
300,177,44062,2,0,P|284:220|257:257,1,90.9999958343508
181,59,44395,6,0,P|268:51|358:105,1,181.999991668702
444,243,44895,1,0,0:0:0:0:
444,243,45062,2,0,P|433:186|440:148,1,90.9999958343508
332,369,45395,2,0,P|343:312|336:274,1,90.9999958343508
144,265,45729,6,0,P|187:303|224:315,1,90.9999958343508
313,79,46062,2,0,P|271:97|238:128,1,90.9999958343508
152,293,46395,2,0,P|204:318|243:320,1,90.9999958343508,0|0,2:0|2:0,2:0:0:0:
295,59,46728,2,0,P|261:88|238:127,1,90.9999958343508,0|0,2:0|2:0,2:0:0:0:
59,347,47062,6,0,P|56:278|13:164,1,181.999991668702
162,141,47562,1,0,0:0:0:0:
65,34,47729,1,0,0:0:0:0:
65,34,47812,1,0,0:0:0:0:
65,34,47895,1,0,0:0:0:0:
188,154,48062,2,0,P|248:172|292:170,1,90.9999958343508
393,41,48395,6,0,P|374:120|382:237,1,181.999991668702
413,345,48895,1,0,0:0:0:0:
413,345,49062,2,0,P|510:325|540:335,1,90.9999958343508
343,215,49395,2,0,P|246:195|216:205,1,90.9999958343508
153,349,49729,6,0,P|157:270|135:152,1,181.999991668702
17,73,50229,1,0,0:0:0:0:
17,73,50395,2,0,P|13:131|24:173,1,90.9999958343508
161,42,50729,2,0,P|214:35|254:40,1,90.9999958343508
360,228,51062,6,0,P|351:154|368:31,1,181.999991668702
434,298,51562,1,0,0:0:0:0:
434,298,51728,2,0,P|380:326|337:326,1,90.9999958343508
288,155,52062,2,0,P|342:127|385:127,1,90.9999958343508
183,321,52395,6,0,P|179:221|172:204,1,90.9999958343508
42,94,52729,2,0,P|46:194|53:211,1,90.9999958343508
214,28,53062,2,0,P|228:75|227:99,3,45.4999979171754
326,98,53395,2,0,P|312:145|313:169,3,45.4999979171754
429,207,53729,6,0,P|415:127|387:95,1,90.9999958343508
336,358,54062,2,0,P|412:385|453:377,1,90.9999958343508
402,194,54395,2,0,P|353:130|313:115,1,90.9999958343508
362,370,54728,2,0,P|442:359|475:332,1,90.9999958343508
291,279,55062,6,0,B|190:274|203:346|113:347,1,181.999991668702
9,226,55562,1,0,0:0:0:0:
9,226,55729,2,0,P|37:284|41:313,1,90.9999958343508
146,136,56062,2,0,P|118:194|114:223,1,90.9999958343508
64,53,56395,6,0,P|117:24|169:26,1,90.9999958343508
300,141,56729,2,0,P|247:170|195:168,1,90.9999958343508
63,21,57062,2,0,P|121:4|171:18,1,90.9999958343508
311,164,57396,2,0,P|253:181|203:167,1,90.9999958343508
448,23,57729,6,0,P|437:98|445:223,1,181.999991668702
303,248,58229,1,0,0:0:0:0:
408,353,58395,1,0,0:0:0:0:
408,353,58479,1,0,0:0:0:0:
408,353,58562,1,0,0:0:0:0:
278,227,58729,2,0,P|228:211|165:232,1,90.9999958343508
48,349,59062,6,0,P|156:349|235:315,1,181.999991668702
118,144,59562,1,0,0:0:0:0:
118,144,59729,2,0,P|87:196|92:249,1,90.9999958343508
237,104,60062,2,0,P|207:51|159:28,1,90.9999958343508
364,227,60395,6,0,P|353:132|379:43,1,181.999991668702
465,260,60895,1,0,0:0:0:0:
465,260,61062,2,0,P|437:311|402:331,1,90.9999958343508
274,214,61395,1,0,0:0:0:0:
223,369,61562,1,0,0:0:0:0:
118,100,61729,6,0,P|149:183|152:293,1,181.999991668702
6,341,62229,1,0,0:0:0:0:
6,341,62395,2,0,P|11:247|19:227,1,90.9999958343508
255,189,62729,2,0,P|262:233|258:278,1,90.9999958343508
101,38,63062,6,0,P|175:27|216:35,1,90.9999958343508
286,85,63395,2,0,B|379:120|383:40|468:60,1,181.999991668702
488,254,63895,1,0,0:0:0:0:
488,254,64062,2,0,P|436:234|410:234,3,45.4999979171754
382,282,64395,6,0,P|305:303|199:285,1,181.999991668702
77,159,64895,2,0,P|97:233|97:337,1,181.999991668702
17,61,65395,2,0,P|60:49|106:53,1,90.9999958343508
194,123,65729,6,0,P|250:141|390:135,1,181.999991668702
465,16,66229,2,0,P|466:81|481:128,1,90.9999958343508
512,226,66562,1,0,0:0:0:0:
512,226,66729,2,0,P|429:213|386:219,1,90.9999958343508
323,270,67062,6,0,B|233:273|260:339|142:329,1,181.999991668702
123,149,67562,2,0,P|160:198|167:248,1,90.9999958343508
52,60,67895,2,0,P|15:109|8:159,2,90.9999958343508
243,114,68395,6,0,B|345:125|332:55|449:66,1,181.999991668702
464,248,68895,2,0,P|437:194|398:159,1,90.9999958343508
302,228,69229,1,0,0:0:0:0:
302,228,69395,2,0,P|220:257|187:254,1,90.9999958343508
67,226,69729,5,0,0:0:0:0:
136,344,69895,1,0,0:0:0:0:
67,226,70062,1,0,0:0:0:0:
136,344,70229,1,0,0:0:0:0:
177,146,70395,1,0,0:0:0:0:
187,115,70729,1,0,0:0:0:0:
357,264,71062,5,0,0:0:0:0:
386,121,71229,1,0,0:0:0:0:
357,264,71395,1,0,0:0:0:0:
386,121,71562,1,0,0:0:0:0:
232,260,71729,1,0,0:0:0:0:
447,334,72062,2,0,P|458:281|457:208,1,90.9999958343508
340,88,72395,5,0,0:0:0:0:
316,318,72562,1,0,0:0:0:0:
172,88,72729,1,0,0:0:0:0:
196,318,72896,1,0,0:0:0:0:
346,55,73062,5,0,0:0:0:0:
314,347,73229,1,0,0:0:0:0:
166,55,73396,1,0,0:0:0:0:
201,349,73563,1,0,0:0:0:0:
364,159,75062,6,0,P|421:135|462:137,1,90.9999958343508
336,64,75395,2,0,P|279:40|238:42,1,90.9999958343508
206,198,75729,2,0,P|255:160|274:124,1,90.9999958343508
154,18,76062,2,0,P|161:79|183:113,1,90.9999958343508
95,262,76395,6,0,L|117:150,1,90.9999958343508
20,49,76729,2,0,L|37:138,1,90.9999958343508
69,276,77062,1,0,0:0:0:0:
69,276,77145,1,0,0:0:0:0:
69,276,77229,1,0,0:0:0:0:
122,139,77395,1,0,0:0:0:0:
195,335,77562,1,0,0:0:0:0:
261,197,77729,6,0,P|312:170|377:177,1,90.9999958343508
403,336,78062,2,0,P|354:305|327:245,1,90.9999958343508
452,143,78395,2,0,P|449:200|411:253,1,90.9999958343508
327,19,78729,1,0,0:0:0:0:
327,19,78895,1,0,0:0:0:0:
231,182,79062,6,0,P|174:203|117:193,1,90.9999958343508
54,106,79395,2,0,P|111:85|168:95,1,90.9999958343508
75,295,79729,1,0,0:0:0:0:
75,295,79812,1,0,0:0:0:0:
75,295,79895,1,0,0:0:0:0:
248,156,80062,2,0,P|258:177|266:199,1,45.4999979171754
275,350,80229,2,0,P|282:328|292:307,1,45.4999979171754
426,235,80395,6,0,P|451:286|460:329,1,90.9999958343508
383,91,80729,2,0,P|358:142|349:185,1,90.9999958343508
209,26,81062,2,0,P|234:77|243:120,1,90.9999958343508
87,85,81395,2,0,P|62:136|53:179,1,90.9999958343508
55,359,81729,6,0,L|12:257,1,90.9999958343508
168,190,82062,2,0,L|132:273,1,90.9999958343508
289,371,82395,2,0,L|246:269,1,90.9999958343508
417,191,82728,2,0,L|381:274,1,90.9999958343508
326,50,83062,5,0,0:0:0:0:
253,253,83228,1,0,0:0:0:0:
140,41,83395,5,0,0:0:0:0:
219,252,83562,1,0,0:0:0:0:
0,138,83729,5,0,0:0:0:0:
59,336,83896,1,0,0:0:0:0:
167,148,84062,5,0,0:0:0:0:
96,336,84229,1,0,0:0:0:0:
266,113,84395,5,0,0:0:0:0:
340,364,84561,1,0,0:0:0:0:
396,105,84729,5,0,0:0:0:0:
212,271,84895,1,0,0:0:0:0:
180,24,85062,5,0,0:0:0:0:
321,233,85229,1,0,0:0:0:0:
144,24,85395,2,0,P|133:43|123:69,3,45.4999979171754
112,98,85729,6,0,P|132:157|137:224,1,90.9999958343508
254,150,86062,2,0,P|234:209|229:276,1,90.9999958343508
392,127,86395,2,0,P|350:80|295:42,1,90.9999958343508
343,259,86729,2,0,P|404:246|464:217,1,90.9999958343508
222,143,87062,6,0,L|122:124,1,90.9999958343508
1,242,87395,2,0,L|101:223,1,90.9999958343508
216,296,87729,1,0,0:0:0:0:
216,296,87812,1,0,0:0:0:0:
216,296,87895,1,0,0:0:0:0:
116,369,88062,1,0,0:0:0:0:
124,221,88229,1,0,0:0:0:0:
292,346,88395,6,0,P|359:360|418:342,1,90.9999958343508
400,161,88729,2,0,P|354:212|340:272,1,90.9999958343508
507,348,89062,2,0,P|485:282|440:240,1,90.9999958343508
372,157,89395,1,0,0:0:0:0:
372,157,89562,1,0,0:0:0:0:
202,265,89729,6,0,P|264:251|305:260,1,90.9999958343508
183,139,90062,2,0,P|121:125|80:134,1,90.9999958343508
23,235,90395,1,0,0:0:0:0:
23,235,90479,1,0,0:0:0:0:
23,235,90562,1,0,0:0:0:0:
115,363,90729,2,0,P|107:315|109:294,1,45.4999979171754
214,235,90895,2,0,P|222:283|220:304,1,45.4999979171754
326,368,91062,6,0,P|330:322|343:279,1,90.9999958343508
466,160,91395,2,0,P|461:205|448:248,1,90.9999958343508
370,54,91729,2,0,P|411:35|455:25,1,90.9999958343508
326,190,92062,2,0,P|289:163|258:130,1,90.9999958343508
159,17,92395,6,0,L|131:128,1,90.9999958343508
28,178,92729,2,0,L|5:89,1,90.9999958343508
142,231,93062,2,0,L|164:319,1,90.9999958343508
20,384,93395,2,0,L|42:295,1,90.9999958343508
212,160,93729,5,0,0:0:0:0:
306,364,93895,1,0,0:0:0:0:
342,112,94062,5,0,0:0:0:0:
178,325,94229,1,0,0:0:0:0:
135,75,94395,5,0,0:0:0:0:
313,281,94562,1,0,0:0:0:0:
42,332,94729,2,0,P|52:280|51:268,3,45.4999979171754
49,257,95062,5,0,0:0:0:0:
49,257,95229,1,0,0:0:0:0:
463,127,95729,5,0,0:0:0:0:
463,127,95896,1,0,0:0:0:0:
36,40,96395,6,0,B|345:91|97:294|467:337,1,560
