osu file format v14

[General]
AudioFilename: audio.mp3
AudioLeadIn: 0
PreviewTime: 44423
Countdown: 0
SampleSet: Soft
StackLeniency: 0.7
Mode: 0
LetterboxInBreaks: 0
EpilepsyWarning: 1
WidescreenStoryboard: 0

[Editor]
Bookmarks: 6838,17747,23202,34111,45020,66838,77747,85929,99565,110474,121384,126838,132293,143202,154111,165020,166384,177293,182747
DistanceSpacing: 0.8
BeatDivisor: 4
GridSize: 4
TimelineZoom: 2.1

[Metadata]
Title:Suicide Parade
TitleUnicode:スーサイドパレヱド
Artist:YURRY CANON
ArtistUnicode:ユリイ・カノン
Creator:kwk
Version:neonat's Extra
Source:
Tags:vocaloid megpoid gumi メグッポイド グミ neonat asaiga ailv aliv anvil doormat kardia
BeatmapID:1807831
BeatmapSetID:854503

[Difficulty]
HPDrainRate:6
CircleSize:4
OverallDifficulty:8.4
ApproachRate:9.3
SliderMultiplier:2.09999990463257
SliderTickRate:1

[Events]
//Background and Video events
0,0,"wau.jpg",0,0
Video,0,"video.mp4"
//Break Periods
2,67023,77178
//Storyboard Layer 0 (Background)
//Storyboard Layer 1 (Fail)
//Storyboard Layer 2 (Pass)
//Storyboard Layer 3 (Foreground)
//Storyboard Sound Samples

[TimingPoints]
1369,340.909090909091,4,2,1,70,1,0
6823,-90.9090909090909,4,2,1,70,0,0
17732,-111.111111111111,4,2,1,70,0,0
22846,-200,4,2,1,70,0,0
23187,-100,4,2,1,60,0,0
32732,-100,4,2,3,60,0,0
34096,-100,4,2,1,60,0,0
44664,-200,4,2,2,70,0,0
45005,-76.9230769230769,4,2,1,100,0,1
47391,-76.9230769230769,4,2,2,100,0,1
47732,-76.9230769230769,4,2,1,100,0,1
52846,-76.9230769230769,4,2,2,100,0,1
53187,-76.9230769230769,4,2,1,100,0,1
55914,-76.9230769230769,4,2,2,100,0,1
56255,-76.9230769230769,4,2,1,100,0,1
58300,-76.9230769230769,4,2,2,100,0,1
58641,-76.9230769230769,4,2,1,100,0,1
61369,-76.9230769230769,4,2,2,100,0,1
61709,-76.9230769230769,4,2,1,100,0,1
63755,-76.9230769230769,4,2,2,100,0,1
64096,-76.9230769230769,4,2,1,100,0,1
66482,-200,4,2,1,100,0,1
66823,-111.111111111111,4,2,1,70,0,0
77732,-125,4,2,1,70,0,0
85914,-100,4,2,1,100,0,0
88300,-125,4,2,1,100,0,0
88641,-100,4,2,1,100,0,0
98187,-100,4,2,2,100,0,0
98869,-100,4,2,1,100,0,0
99550,-100,4,2,1,70,0,0
109096,-100,4,2,3,70,0,0
110459,-100,4,2,1,70,0,0
121369,-133.333333333333,4,2,2,70,0,0
126823,-100,4,2,1,70,0,0
128016,-100,4,2,2,70,0,0
128357,-100,4,2,1,70,0,0
132278,-76.9230769230769,4,2,1,100,0,1
134664,-76.9230769230769,4,2,2,100,0,1
135005,-76.9230769230769,4,2,1,100,0,1
140119,-76.9230769230769,4,2,2,100,0,1
140459,-76.9230769230769,4,2,1,100,0,1
142846,-76.9230769230769,4,2,2,100,0,1
143187,-71.4285714285714,4,2,1,100,0,1
145573,-71.4285714285714,4,2,2,100,0,1
145914,-71.4285714285714,4,2,1,100,0,1
151028,-71.4285714285714,4,2,2,100,0,1
151369,-71.4285714285714,4,2,1,100,0,1
154096,-66.6666666666667,4,2,2,100,0,1
154437,-66.6666666666667,4,2,1,100,0,1
156482,-66.6666666666667,4,2,2,100,0,1
156823,-66.6666666666667,4,2,1,100,0,1
159550,-66.6666666666667,4,2,2,100,0,1
159891,-66.6666666666667,4,2,1,100,0,1
161937,-66.6666666666667,4,2,2,100,0,1
162278,-66.6666666666667,4,2,1,100,0,1
166369,-90.9090909090909,4,2,1,70,0,0
177278,-111.111111111111,4,2,1,70,0,0

[Colours]
Combo1 : 255,255,166
Combo2 : 255,128,128
Combo3 : 0,255,255
Combo4 : 0,255,128

[HitObjects]
301,60,1369,5,8,0:0:0:0:
301,60,1539,2,0,P|316:120|301:186,1,104.999995231629,8|0,0:0|0:0,0:0:0:0:
212,24,1880,1,8,0:0:0:0:
400,104,2050,1,0,0:0:0:0:
400,104,2136,1,0,0:0:0:0:
400,104,2221,1,0,0:0:0:0:
216,132,2391,1,0,0:0:0:0:
316,16,2562,1,0,0:0:0:0:
156,200,2732,5,8,0:0:0:0:
156,200,2903,2,0,P|124:144|136:88,1,104.999995231629,8|0,0:0|0:0,0:0:0:0:
244,240,3244,1,8,0:0:0:0:
60,192,3414,1,0,0:0:0:0:
60,192,3499,1,0,0:0:0:0:
60,192,3584,1,0,0:0:0:0:
236,60,3755,1,0,0:0:0:0:
236,60,3840,1,0,0:0:0:0:
236,60,3925,1,0,0:0:0:0:
464,156,4096,5,8,0:0:0:0:
464,156,4266,2,0,L|476:272,1,104.999995231629,8|0,0:0|0:0,0:0:0:0:
404,88,4607,1,8,0:0:0:0:
344,280,4778,1,0,0:0:0:0:
344,280,4863,1,0,0:0:0:0:
344,280,4948,1,0,0:0:0:0:
288,136,5119,1,0,0:0:0:0:
464,156,5289,1,0,0:0:0:0:
216,228,5459,5,8,0:0:0:0:
216,228,5630,2,0,L|184:96,1,104.999995231629,8|0,0:0|0:0,0:0:0:0:
244,332,5971,1,8,0:0:0:0:
320,125,6823,6,0,L|295:238,1,115.499998279572,4|0,0:0|0:0,0:0:0:0:
116,244,7079,1,0,0:0:0:0:
116,244,7164,2,0,P|72:200|68:124,1,115.499998279572,8|0,0:0|0:0,0:0:0:0:
236,28,7505,1,4,0:3:0:0:
236,28,7590,1,0,0:0:0:0:
236,28,7675,1,4,0:3:0:0:
356,120,7846,1,8,0:0:0:0:
144,80,8016,6,0,L|16:72,1,115.499998279572,4|0,0:3|0:0,0:0:0:0:
316,44,8357,1,4,0:3:0:0:
344,36,8442,1,0,0:0:0:0:
372,36,8528,2,0,P|432:60|456:128,1,115.499998279572,8|4,0:0|0:3,0:0:0:0:
144,80,8869,2,0,L|68:76,2,57.7499991397858,0|0|4,0:0|0:0|0:3,0:0:0:0:
364,136,9209,1,8,0:0:0:0:
200,164,9380,1,0,0:0:0:0:
348,240,9550,6,0,P|368:304|344:368,1,115.499998279572,4|0,0:0|0:0,0:0:0:0:
176,348,9806,1,0,0:0:0:0:
176,348,9891,2,0,P|164:292|184:238,1,115.499998279572,8|0,0:0|0:0,0:0:0:0:
400,156,10232,1,4,0:3:0:0:
400,156,10317,1,0,0:0:0:0:
400,156,10403,1,4,0:3:0:0:
268,300,10573,1,8,0:0:0:0:
324,92,10744,6,0,P|260:76|200:92,1,115.499998279572,4|0,0:3|0:0,0:0:0:0:
72,260,11084,1,4,0:3:0:0:
100,280,11170,1,0,0:0:0:0:
132,292,11255,2,0,L|268:292,1,115.499998279572,8|4,0:0|0:3,0:0:0:0:
448,140,11596,1,4,0:3:0:0:
108,44,11851,1,4,0:3:0:0:
300,348,12107,1,4,0:3:0:0:
176,248,12278,6,0,L|152:136,1,115.499998279572,4|0,0:0|0:0,0:0:0:0:
320,40,12533,1,0,0:0:0:0:
320,40,12619,2,0,L|296:152,1,115.499998279572,8|0,0:0|0:0,0:0:0:0:
104,72,12959,1,4,0:3:0:0:
104,72,13045,1,0,0:0:0:0:
104,72,13130,1,4,0:3:0:0:
240,200,13300,1,8,0:0:0:0:
32,128,13471,6,0,L|48:280,1,115.499998279572,4|0,0:3|0:0,0:0:0:0:
216,60,13812,1,4,0:3:0:0:
252,56,13897,1,0,0:0:0:0:
288,60,13982,2,0,P|360:72|416:52,1,115.499998279572,8|4,0:0|0:3,0:0:0:0:
136,24,14323,2,0,L|124:92,2,57.7499991397858,0|0|4,0:0|0:0|0:3,0:0:0:0:
288,144,14664,1,8,0:0:0:0:
136,188,14834,1,0,0:0:0:0:
280,252,15005,6,0,P|344:264|404:244,1,115.499998279572,4|0,0:0|0:0,0:0:0:0:
460,88,15261,1,0,0:0:0:0:
460,88,15346,2,0,P|396:76|336:96,1,115.499998279572,8|0,0:0|0:0,0:0:0:0:
204,272,15687,1,4,0:3:0:0:
204,272,15772,1,0,0:0:0:0:
204,272,15857,1,4,0:3:0:0:
404,176,16028,1,8,0:0:0:0:
96,128,16198,6,0,P|104:196|152:256,1,115.499998279572,4|0,0:3|0:0,0:0:0:0:
396,276,16539,1,4,0:3:0:0:
428,268,16624,1,0,0:0:0:0:
460,252,16709,2,0,P|496:192|476:116,1,115.499998279572,8|4,0:0|0:3,0:0:0:0:
200,72,17050,1,4,0:3:0:0:
200,72,17136,1,4,0:3:0:0:
200,72,17221,1,4,0:3:0:0:
280,324,17391,1,8,0:3:0:0:
280,324,17476,1,8,0:3:0:0:
280,324,17562,1,8,0:3:0:0:
24,136,17732,6,0,P|96:148|184:152,1,141.749989236832,4|0,0:3|0:0,0:0:0:0:
164,152,18073,2,0,P|152:228|160:252,1,94.4999928245547,4|2,0:3|0:0,0:0:0:0:
452,192,18414,2,0,P|464:116|456:92,1,94.4999928245547,4|2,0:3|0:0,0:0:0:0:
380,52,18670,2,0,L|260:60,1,94.4999928245547
196,24,18925,1,2,0:0:0:0:
364,200,19096,6,0,P|376:268|360:320,1,94.4999928245547,4|2,0:3|0:0,0:0:0:0:
192,240,19351,1,0,0:0:0:0:
192,240,19437,2,0,P|238:252|296:252,1,94.4999928245547,4|2,0:3|0:0,0:0:0:0:
428,136,19778,1,4,0:3:0:0:
212,44,19948,1,2,0:0:0:0:
104,256,20119,1,4,0:3:0:0:
264,120,20289,1,2,0:0:0:0:
136,336,20459,6,0,P|216:348|296:336,1,141.749989236832,4|0,0:3|0:0,0:0:0:0:
276,341,20800,2,0,P|268:284|292:236,1,94.4999928245547,4|2,0:3|0:0,0:0:0:0:
476,140,21141,2,0,P|480:84|440:32,1,94.4999928245547,4|2,0:3|0:0,0:0:0:0:
368,84,21397,2,0,L|260:92,1,94.4999928245547,0|0,0:0|0:0,0:0:0:0:
184,36,21653,1,2,0:0:0:0:
56,240,21823,6,0,L|164:232,1,94.4999928245547,4|2,0:3|0:0,0:0:0:0:
330,165,22079,1,0,0:0:0:0:
324,168,22164,2,0,P|337:227|372:261,1,94.4999928245547,4|2,0:3|0:0,0:0:0:0:
456,72,22505,1,4,0:3:0:0:
208,92,22675,1,2,0:0:0:0:
468,292,22846,6,0,P|452:336|408:356,1,78.7499964237214,4|0,0:3|0:0,0:0:0:0:
416,352,23187,6,0,L|301:351,1,104.999995231629,4|0,0:0|0:0,0:0:0:0:
60,288,23528,2,0,L|175:289,1,104.999995231629,8|0,0:0|0:0,0:0:0:0:
344,216,23869,1,0,0:3:0:0:
220,360,24039,1,0,0:0:0:0:
156,184,24209,1,8,0:0:0:0:
380,300,24380,6,0,P|424:252|360:124,1,209.999990463257
144,64,24891,2,0,P|200:88|264:64,1,104.999995231629,8|0,0:0|0:0,0:0:0:0:
420,12,25232,1,4,0:3:0:0:
144,64,25403,1,0,0:0:0:0:
304,160,25573,1,8,0:0:0:0:
284,16,25744,1,0,0:0:0:0:
56,104,25914,6,0,P|32:156|32:224,1,104.999995231629,4|8,0:0|0:0,0:0:0:0:
306,163,26170,1,8,0:0:0:0:
304,160,26255,2,0,P|270:113|212:79,1,104.999995231629,8|0,0:0|0:0,0:0:0:0:
140,312,26511,1,0,0:0:0:0:
140,312,26596,2,0,P|197:306|255:272,1,104.999995231629,0|8,0:3|0:0,0:0:0:0:
56,104,26851,1,8,0:0:0:0:
56,104,26937,2,0,P|32:156|32:224,1,104.999995231629,8|0,0:0|0:0,0:0:0:0:
196,208,27192,6,0,P|172:152|156:220,1,157.499992847443,0|0,0:0|0:0,0:0:0:0:
192,72,27619,1,0,0:3:0:0:
168,296,27789,1,0,0:0:0:0:
272,36,27959,2,4,L|344:12,3,52.4999976158143,4|4|4|4,0:3|0:3|0:3|0:3,0:3:0:0:
364,20,28300,1,8,0:3:0:0:
403,30,28385,1,8,0:3:0:0:
431,61,28470,1,8,0:3:0:0:
438,102,28555,1,8,0:3:0:0:
428,144,28641,6,0,B|376:152|376:152|296:148,1,104.999995231629,4|0,0:0|0:0,0:0:0:0:
72,88,28982,2,0,B|124:80|124:80|204:84,1,104.999995231629,8|0,0:0|0:0,0:0:0:0:
300,224,29323,1,4,0:3:0:0:
248,40,29494,1,0,0:0:0:0:
124,180,29664,1,8,0:0:0:0:
344,84,29834,6,0,L|468:88,2,104.999995231629,0|0|0,0:0|0:3|0:0,0:0:0:0:
132,32,30346,2,0,P|88:68|72:136,1,104.999995231629,8|0,0:0|0:0,0:0:0:0:
248,180,30687,1,0,0:3:0:0:
64,228,30857,1,0,0:0:0:0:
204,88,31028,1,8,0:0:0:0:
184,276,31198,1,0,0:0:0:0:
12,104,31369,6,0,P|31:55|72:23,1,104.999995231629,4|0,0:0|0:0,0:0:0:0:
168,228,31624,1,0,0:0:0:0:
168,228,31709,2,0,P|116:235|68:215,1,104.999995231629,4|0,0:3|0:0,0:0:0:0:
200,24,31965,1,0,0:0:0:0:
200,24,32050,2,0,P|232:64|239:116,1,104.999995231629,4|0,0:3|0:0,0:0:0:0:
12,104,32306,1,0,0:0:0:0:
12,104,32391,2,0,P|31:55|72:23,1,104.999995231629,4|0,0:3|0:0,0:0:0:0:
200,24,32647,1,0,0:0:0:0:
200,24,32732,6,0,L|268:32,3,52.4999976158143,12|8|8|8,0:3|0:3|0:3|0:3,0:0:0:0:
392,100,33073,2,0,L|324:108,3,52.4999976158143,12|8|8|8,0:3|0:3|0:3|0:3,0:0:0:0:
212,200,33414,1,4,0:3:0:0:
252,30,33584,1,4,0:3:0:0:
372,180,33755,2,0,B|420:216|464:184|464:184|444:244,1,157.499992847443,4|0,0:3|0:0,0:0:0:0:
328,328,34096,5,4,0:0:0:0:
296,332,34181,1,0,0:0:0:0:
264,336,34266,1,4,0:3:0:0:
232,340,34351,1,0,0:0:0:0:
200,344,34437,1,4,0:3:0:0:
40,260,34607,1,0,0:0:0:0:
208,188,34778,1,8,0:0:0:0:
70,352,34948,2,0,P|38:308|42:252,1,104.999995231629,4|0,0:3|0:3,0:0:0:0:
304,208,35289,6,0,B|408:216|408:216|448:160|400:104,1,209.999990463257,8|4,0:0|0:3,0:0:0:0:
229,89,35715,1,4,0:3:0:0:
229,89,35800,2,0,P|205:145|209:193,1,104.999995231629,4|0,0:3|0:0,0:0:0:0:
432,40,36141,1,8,0:0:0:0:
192,16,36312,1,4,0:3:0:0:
160,20,36397,1,4,0:3:0:0:
128,24,36482,2,0,L|4:36,1,104.999995231629,8|0,0:0|0:0,0:0:0:0:
124,232,36823,5,4,0:0:0:0:
148,252,36908,1,0,0:0:0:0:
180,256,36994,1,4,0:3:0:0:
212,248,37079,1,0,0:0:0:0:
228,220,37164,1,4,0:3:0:0:
216,40,37334,1,0,0:0:0:0:
77,173,37505,1,8,0:0:0:0:
360,124,37675,2,0,P|288:112|232:124,1,104.999995231629,4|0,0:3|0:3,0:0:0:0:
54,278,38016,6,0,B|150:318|150:318|222:318|210:214,1,209.999990463257,8|4,0:0|0:3,0:0:0:0:
116,60,38442,1,4,0:3:0:0:
116,60,38528,2,0,P|100:132|116:168,1,104.999995231629,4|0,0:3|0:0,0:0:0:0:
328,92,38869,1,4,0:3:0:0:
360,92,38954,1,0,0:0:0:0:
392,96,39039,1,4,0:3:0:0:
420,108,39124,1,0,0:0:0:0:
444,128,39209,2,0,B|444:188|444:188|464:236,1,104.999995231629,8|0,0:0|0:0,0:0:0:0:
406,14,39550,5,4,0:0:0:0:
375,5,39636,1,0,0:0:0:0:
343,1,39721,1,4,0:3:0:0:
311,2,39806,1,0,0:0:0:0:
280,8,39891,1,4,0:3:0:0:
135,130,40062,1,0,0:0:0:0:
315,86,40232,1,8,0:0:0:0:
112,32,40403,2,0,P|110:86|147:140,1,104.999995231629,4|0,0:3|0:3,0:0:0:0:
346,264,40744,6,0,B|328:208|272:161|272:161|284:211|268:254,1,209.999990463257,8|4,0:0|0:3,0:0:0:0:
68,260,41170,1,4,0:3:0:0:
68,260,41255,2,0,P|22:200|26:149,1,104.999995231629,4|0,0:3|0:0,0:0:0:0:
155,82,41596,2,0,P|148:133|117:175,1,104.999995231629,8|4,0:0|0:3,0:0:0:0:
262,37,41937,1,4,0:3:0:0:
262,37,42022,1,4,0:3:0:0:
262,37,42107,1,8,0:0:0:0:
317,259,42278,5,4,0:3:0:0:
387,50,42448,1,8,0:0:0:0:
386,300,42619,1,4,0:3:0:0:
259,95,42789,1,8,0:0:0:0:
315,339,42959,1,4,0:3:0:0:
336,107,43130,1,8,0:0:0:0:
134,239,43300,1,4,0:3:0:0:
386,300,43471,1,8,0:0:0:0:
216,30,43641,5,8,0:0:0:0:
239,339,43812,1,8,0:0:0:0:
385,70,43982,1,8,0:0:0:0:
65,192,44153,1,8,0:0:0:0:
386,300,44323,1,8,0:0:0:0:
386,300,44664,6,0,P|315:300|297:289,1,78.7499964237214,0|0,0:3|0:0,0:0:0:0:
280,268,45005,6,0,B|253:169|253:169|292:62,1,204.749981328965,4|0,0:0|0:0,0:0:0:0:
325,91,45346,2,0,L|175:101,1,136.499987552644,4|8,0:3|0:0,0:0:0:0:
52,39,45601,1,0,0:0:0:0:
52,39,45687,2,0,P|30:105|54:175,1,136.499987552644,4|8,0:3|0:0,0:0:0:0:
176,240,46028,1,4,0:3:0:0:
365,20,46198,6,0,P|427:88|398:198,1,204.749981328965,8|0,0:0|0:0,0:0:0:0:
330,225,46539,1,8,0:0:0:0:
160,128,46709,2,0,L|298:126,1,136.499987552644,4|8,0:3|0:0,0:0:0:0:
448,304,47050,2,0,B|392:333|342:314|342:314|377:279,1,136.499987552644,4|8,0:3|0:0,0:0:0:0:
441,14,47391,2,0,B|499:99|448:155|448:155|412:70,1,204.749981328965,4|0,0:3|0:0,0:0:0:0:
392,88,47732,6,0,P|363:134|386:223,1,136.499987552644,4|8,0:3|0:0,0:0:0:0:
307,47,47988,1,0,0:0:0:0:
307,47,48073,2,0,P|235:29|156:51,1,136.499987552644,4|8,0:3|0:0,0:0:0:0:
86,106,48329,1,0,0:0:0:0:
60,146,48414,1,4,0:3:0:0:
55,193,48499,1,0,0:0:0:0:
61,240,48584,2,0,L|205:293,1,136.499987552644,8|4,0:0|0:3,0:0:0:0:
489,66,48925,6,0,L|345:119,1,136.499987552644,8|4,0:0|0:3,0:0:0:0:
137,186,49266,1,8,0:0:0:0:
361,248,49437,1,4,0:3:0:0:
201,60,49607,1,8,0:0:0:0:
257,306,49778,1,4,0:3:0:0:
311,60,49948,1,8,0:0:0:0:
311,60,50119,1,8,0:0:0:0:
257,306,50289,1,4,0:3:0:0:
42,209,50459,6,0,B|13:97|13:97|71:-1,1,204.749981328965,4|0,0:0|0:0,0:0:0:0:
98,29,50800,2,0,P|156:47|234:22,1,136.499987552644,4|8,0:3|0:0,0:0:0:0:
446,51,51056,1,0,0:0:0:0:
446,51,51141,2,0,P|373:41|309:66,1,136.499987552644,4|8,0:3|0:0,0:0:0:0:
226,180,51482,1,4,0:3:0:0:
421,341,51653,6,0,P|446:258|369:304,1,204.749981328965,8|0,0:0|0:0,0:0:0:0:
333,366,51994,1,8,0:0:0:0:
226,180,52164,1,4,0:3:0:0:
421,341,52334,1,8,0:0:0:0:
147,208,52505,2,0,P|133:272|175:322,1,136.499987552644,4|8,0:3|0:0,0:0:0:0:
456,64,52846,2,0,B|396:136|320:56|320:56|384:52,1,204.749981328965,4|0,0:3|0:0,0:0:0:0:
388,20,53187,6,0,L|240:28,1,136.499987552644,4|8,0:0|0:0,0:0:0:0:
16,244,53528,2,0,L|164:252,1,136.499987552644,4|8,0:3|0:0,0:0:0:0:
176,28,53869,1,4,0:3:0:0:
308,264,54039,1,8,0:0:0:0:
104,128,54209,1,4,0:3:0:0:
352,184,54380,1,8,0:0:0:0:
76,288,54550,5,8,0:0:0:0:
71,319,54635,1,8,0:0:0:0:
100,332,54720,1,8,0:0:0:0:
121,308,54805,1,8,0:0:0:0:
105,282,54890,1,8,0:0:0:0:
404,100,55062,5,8,0:0:0:0:
434,95,55147,1,8,0:0:0:0:
438,63,55232,1,8,0:0:0:0:
409,50,55317,1,8,0:0:0:0:
388,74,55402,1,8,0:0:0:0:
48,24,55573,5,8,0:0:0:0:
28,68,55658,1,8,0:0:0:0:
20,116,55744,1,8,0:0:0:0:
24,164,55829,1,8,0:0:0:0:
48,204,55914,6,0,B|144:232|144:232|280:192,1,204.749981328965,4|0,0:0|0:0,0:0:0:0:
276,176,56255,2,0,P|276:264|316:308,1,136.499987552644,4|8,0:3|0:0,0:0:0:0:
440,152,56511,1,0,0:0:0:0:
440,152,56596,2,0,P|367:102|308:111,1,136.499987552644,4|8,0:3|0:0,0:0:0:0:
180,152,56937,1,4,0:3:0:0:
433,285,57107,6,0,P|392:353|304:282,1,204.749981328965,8|0,0:0|0:0,0:0:0:0:
369,232,57448,1,8,0:0:0:0:
248,48,57619,2,0,P|224:132|252:184,1,136.499987552644,4|8,0:3|0:0,0:0:0:0:
476,116,57959,2,0,L|340:116,1,136.499987552644,4|8,0:3|0:0,0:0:0:0:
64,264,58300,2,0,B|144:272|200:240|200:240|140:212,1,204.749981328965,4|0,0:3|0:0,0:0:0:0:
108,192,58641,6,0,P|72:152|96:56,1,136.499987552644,4|8,0:3|0:0,0:0:0:0:
288,32,58897,1,0,0:0:0:0:
288,32,58982,2,0,P|324:72|300:168,1,136.499987552644,4|8,0:3|0:0,0:0:0:0:
236,240,59238,1,0,0:0:0:0:
204,268,59323,1,4,0:3:0:0:
192,308,59408,1,0,0:0:0:0:
200,348,59494,2,0,L|352:328,1,136.499987552644,8|4,0:0|0:3,0:0:0:0:
312,36,59834,6,0,L|160:56,1,136.499987552644,8|4,0:0|0:3,0:0:0:0:
68,236,60175,1,8,0:0:0:0:
240,8,60346,1,4,0:3:0:0:
148,280,60516,1,8,0:0:0:0:
312,36,60687,1,4,0:3:0:0:
456,332,60857,1,8,0:0:0:0:
456,332,61028,1,8,0:0:0:0:
216,232,61198,1,4,0:3:0:0:
440,116,61369,6,0,P|472:76|388:96,1,204.749981328965,4|0,0:0|0:0,0:0:0:0:
360,112,61709,2,0,B|292:116|292:116|232:68,1,136.499987552644,4|8,0:3|0:0,0:0:0:0:
56,32,61965,1,0,0:0:0:0:
56,32,62050,2,0,P|40:104|56:164,1,136.499987552644,4|8,0:3|0:0,0:0:0:0:
148,256,62391,1,4,0:3:0:0:
464,192,62562,6,0,P|400:160|288:236,1,204.749981328965,8|0,0:0|0:0,0:0:0:0:
272,308,62903,1,8,0:0:0:0:
212,104,63073,1,4,0:3:0:0:
184,344,63244,1,8,0:0:0:0:
336,96,63414,2,0,B|376:16|376:16|312:24,1,136.499987552644,4|8,0:3|0:0,0:0:0:0:
60,168,63755,2,0,B|108:172|160:232|160:232|148:120,1,204.749981328965,4|0,0:3|0:0,0:0:0:0:
128,112,64096,6,0,P|116:80|208:48,1,136.499987552644,4|8,0:0|0:0,0:0:0:0:
384,152,64351,1,0,0:0:0:0:
384,152,64437,2,0,P|308:172|256:136,1,136.499987552644,4|8,0:3|0:0,0:0:0:0:
484,64,64778,1,4,0:3:0:0:
240,220,64948,1,8,0:0:0:0:
320,16,65119,1,4,0:3:0:0:
384,284,65289,1,8,0:0:0:0:
24,36,65459,5,8,0:0:0:0:
20,92,65545,1,8,0:0:0:0:
16,148,65630,1,8,0:0:0:0:
12,204,65715,1,8,0:0:0:0:
472,348,65971,5,8,0:0:0:0:
476,292,66057,1,8,0:0:0:0:
480,236,66142,1,8,0:0:0:0:
484,180,66227,1,8,0:0:0:0:
20,328,66482,6,0,P|68:336|112:320,1,78.7499964237214,8|0,0:0|0:3,0:0:0:0:
96,328,66823,1,4,0:0:0:0:
44,344,77732,6,0,B|108:312|136:356|212:324,1,167.999992370606,4|4,0:3|0:3,0:0:0:0:
311,266,78244,1,4,0:3:0:0:
190,128,78414,2,0,P|211:194|246:215,1,83.9999961853028,8|0,0:0|0:0,0:0:0:0:
424,234,78755,1,0,0:3:0:0:
311,266,78925,1,4,0:3:0:0:
421,146,79096,6,0,P|428:78|413:41,1,83.9999961853028,4|0,0:3|0:0,0:0:0:0:
319,9,79437,1,0,0:3:0:0:
207,45,79607,1,4,0:3:0:0:
207,45,79692,1,4,0:3:0:0:
207,45,79778,2,0,L|208:151,1,83.9999961853028,8|4,0:0|0:3,0:0:0:0:
95,9,80119,1,8,0:0:0:0:
321,245,80459,6,0,B|338:217|334:182,2,55.9999974568685
181,157,80800,5,4,0:3:0:0:
241,106,80914,1,0,0:0:0:0:
320,111,81028,1,0,0:0:0:0:
467,182,81141,5,8,0:0:0:0:
502,111,81255,1,0,0:0:0:0:
470,39,81369,1,0,0:0:0:0:
320,111,81482,5,0,0:0:0:0:
261,163,81596,1,0,0:0:0:0:
181,157,81709,1,0,0:0:0:0:
148,85,81823,5,4,0:3:0:0:
148,85,81937,2,0,P|95:68|36:86,1,111.999994913737,0|0,0:0|0:0,0:0:0:0:
279,24,82334,1,0,0:0:0:0:
279,24,82420,1,4,0:3:0:0:
279,24,82505,2,0,P|341:35|384:18,1,83.9999961853028,8|4,0:0|0:3,0:0:0:0:
477,18,82846,1,8,0:0:0:0:
345,188,83016,1,8,0:0:0:0:
144,39,83187,6,0,P|99:76|117:194,1,167.999992370606,4|0,0:3|0:0,0:0:0:0:
186,261,83698,1,4,0:3:0:0:
368,39,83869,2,0,P|413:76|395:194,1,167.999992370606,8|4,0:0|0:3,0:0:0:0:
325,261,84380,1,4,0:3:0:0:
228,194,84550,6,0,P|201:135|226:63,1,125.999994277954,4|0,0:3|0:0,0:0:0:0:
214,77,84891,2,0,L|94:65,1,83.9999961853028,4|0,0:3|0:0,0:0:0:0:
27,125,85232,1,8,0:0:0:0:
281,124,85403,1,8,0:0:0:0:
322,124,85488,1,8,0:0:0:0:
363,126,85573,1,8,0:0:0:0:
363,126,85914,6,0,L|381:241,1,104.999995231629,4|8,0:0|0:0,0:0:0:0:
10,228,86255,2,0,L|26:124,1,104.999995231629,4|8,0:3|0:0,0:0:0:0:
354,311,86596,2,0,L|245:293,1,104.999995231629,4|8,0:3|0:0,0:0:0:0:
5,30,86937,2,0,L|114:48,1,104.999995231629,4|8,0:3|0:0,0:0:0:0:
317,206,87278,5,4,0:3:0:0:
352,214,87363,1,0,0:0:0:0:
387,204,87448,1,8,0:0:0:0:
410,175,87533,1,0,0:0:0:0:
412,138,87619,5,4,0:3:0:0:
371,113,87704,1,0,0:0:0:0:
328,93,87789,1,8,0:0:0:0:
284,73,87874,1,0,0:0:0:0:
241,53,87959,5,4,0:3:0:0:
196,79,88044,1,0,0:0:0:0:
175,126,88129,1,8,0:0:0:0:
187,176,88214,1,0,0:0:0:0:
226,210,88300,6,0,P|245:262|218:346,1,125.999994277954,4|0,0:3|0:0,0:0:0:0:
108,354,88641,5,4,0:3:0:0:
336,249,88812,1,8,0:0:0:0:
382,245,88897,1,0,0:0:0:0:
428,240,88982,1,4,0:3:0:0:
193,146,89153,1,8,0:0:0:0:
149,132,89238,1,0,0:0:0:0:
110,156,89323,1,4,0:3:0:0:
103,201,89408,1,0,0:0:0:0:
134,236,89493,1,8,0:0:0:0:
179,235,89579,1,0,0:0:0:0:
208,197,89664,1,4,0:3:0:0:
392,18,89834,6,0,B|423:94|404:175|404:175|373:108,1,209.999990463257,8|0,0:0|0:0,0:0:0:0:
354,90,90261,1,0,0:0:0:0:
308,76,90346,1,8,0:0:0:0:
77,189,90516,1,4,0:3:0:0:
100,230,90601,1,0,0:0:0:0:
144,247,90687,1,8,0:0:0:0:
446,189,90857,1,4,0:3:0:0:
479,221,90942,1,0,0:0:0:0:
491,267,91028,1,8,0:0:0:0:
484,313,91113,1,0,0:0:0:0:
456,351,91198,1,4,0:3:0:0:
208,179,91369,5,8,0:0:0:0:
400,63,91539,1,4,0:3:0:0:
447,59,91624,1,0,0:0:0:0:
493,55,91709,1,8,0:0:0:0:
139,115,91880,1,4,0:3:0:0:
118,156,91965,1,0,0:0:0:0:
119,203,92050,1,8,0:0:0:0:
142,244,92135,1,0,0:0:0:0:
182,268,92220,1,4,0:3:0:0:
229,271,92306,1,0,0:0:0:0:
271,251,92391,1,8,0:0:0:0:
218,32,92562,6,0,B|127:65|63:22|63:22|131:22,1,209.999990463257,4|4,0:3|0:3,0:0:0:0:
132,64,92988,1,0,0:0:0:0:
118,109,93073,1,8,0:0:0:0:
354,198,93244,1,4,0:3:0:0:
383,161,93329,1,0,0:0:0:0:
393,115,93414,1,8,0:0:0:0:
133,211,93584,2,0,B|111:291|179:343|179:343|179:268,1,209.999990463257,4|4,0:3|0:3,0:0:0:0:
301,37,94096,5,8,0:0:0:0:
301,37,94266,1,8,0:0:0:0:
412,210,94437,1,8,0:0:0:0:
396,164,94522,1,8,0:0:0:0:
380,120,94607,1,8,0:0:0:0:
200,144,94778,1,8,0:0:0:0:
272,344,94948,1,8,0:0:0:0:
280,296,95033,1,8,0:0:0:0:
288,248,95119,1,8,0:0:0:0:
196,48,95289,6,0,P|144:72|144:220,1,209.999990463257,4|8,0:0|0:0,0:0:0:0:
280,296,95715,1,0,0:0:0:0:
280,296,95800,2,0,B|328:293|328:293|383:262,1,104.999995231629,4|8,0:3|0:0,0:0:0:0:
468,40,96141,2,0,L|363:47,1,104.999995231629,4|8,0:3|0:0,0:0:0:0:
244,152,96482,2,0,L|348:144,1,104.999995231629,4|8,0:3|0:0,0:0:0:0:
102,44,96823,5,4,0:3:0:0:
74,58,96908,1,0,0:0:0:0:
55,84,96994,1,8,0:0:0:0:
48,114,97079,1,0,0:0:0:0:
64,152,97164,5,4,0:3:0:0:
49,191,97249,1,0,0:0:0:0:
56,232,97334,1,8,0:0:0:0:
84,263,97420,1,0,0:0:0:0:
135,270,97505,5,4,0:3:0:0:
161,315,97590,1,0,0:0:0:0:
209,333,97675,1,8,0:0:0:0:
261,331,97761,1,0,0:0:0:0:
297,279,97846,5,4,0:3:0:0:
357,260,97931,1,0,0:0:0:0:
385,203,98016,1,8,0:0:0:0:
370,141,98101,1,0,0:0:0:0:
277,89,98187,6,8,L|220:96,3,52.4999976158143,8|8|8|8,0:3|0:3|0:0|0:3,0:0:0:0:
114,46,98528,1,8,0:3:0:0:
92,88,98613,1,8,0:3:0:0:
107,132,98698,1,8,0:0:0:0:
87,175,98783,1,8,0:3:0:0:
104,219,98869,5,4,0:3:0:0:
110,228,99039,1,8,0:0:0:0:
116,237,99209,1,4,0:3:0:0:
122,246,99380,1,8,0:0:0:0:
245,113,99550,6,0,P|297:98|359:121,1,104.999995231629,12|0,0:0|0:0,0:0:0:0:
307,264,99891,1,4,0:3:0:0:
176,174,100062,1,0,0:0:0:0:
157,136,100147,1,0,0:0:0:0:
155,94,100232,1,8,0:0:0:0:
338,187,100403,2,0,B|336:243|336:243|325:295,1,104.999995231629,4|0,0:3|0:0,0:0:0:0:
390,78,100744,6,0,B|377:160|377:160|385:229|385:229|431:168,1,209.999990463257,12|0,0:0|0:0,0:0:0:0:
288,61,101255,1,4,0:3:0:0:
178,173,101425,1,0,0:0:0:0:
178,173,101511,1,0,0:0:0:0:
178,173,101596,1,8,0:0:0:0:
332,63,101766,1,4,0:3:0:0:
125,169,101937,2,0,L|7:160,1,104.999995231629,8|4,0:0|0:3,0:0:0:0:
263,135,102278,6,0,L|276:251,1,104.999995231629,4|0,0:3|0:0,0:0:0:0:
371,63,102533,1,0,0:0:0:0:
371,63,102619,2,0,L|359:167,1,104.999995231629,4|0,0:3|0:0,0:0:0:0:
182,63,102874,1,0,0:0:0:0:
182,63,102959,2,0,L|195:179,1,104.999995231629,4|0,0:3|0:0,0:0:0:0:
363,172,103215,1,0,0:0:0:0:
363,172,103301,2,0,L|351:276,1,104.999995231629,4|4,0:3|0:3,0:0:0:0:
271,315,103556,1,0,0:0:0:0:
88,61,103812,5,4,0:3:0:0:
88,61,103897,1,0,0:0:0:0:
88,61,103982,1,4,0:3:0:0:
326,32,104153,1,4,0:3:0:0:
54,168,104323,1,8,0:0:0:0:
43,208,104408,1,8,0:0:0:0:
46,250,104494,1,8,0:0:0:0:
62,288,104579,1,8,0:0:0:0:
93,316,104664,2,0,L|224:299,1,104.999995231629,8|8,0:0|0:0,0:0:0:0:
323,67,105005,6,0,P|301:129|317:187,1,104.999995231629,4|0,0:3|0:0,0:0:0:0:
412,21,105346,1,4,0:3:0:0:
228,140,105516,1,0,0:0:0:0:
407,135,105687,2,0,P|411:186|391:234,1,104.999995231629,4|0,0:3|0:0,0:0:0:0:
278,286,106028,1,4,0:3:0:0:
111,157,106198,6,0,P|102:93|117:35,2,104.999995231629,0|4|0,0:0|0:3|0:0,0:0:0:0:
173,221,106624,1,0,0:0:0:0:
175,226,106709,2,0,P|177:280|150:334,1,104.999995231629,4|0,0:3|0:0,0:0:0:0:
30,185,107050,1,4,0:3:0:0:
30,185,107136,1,0,0:0:0:0:
30,185,107221,1,0,0:0:0:0:
200,134,107391,1,4,0:3:0:0:
82,268,107562,1,0,0:0:0:0:
296,284,107732,6,0,P|340:231|332:169,1,104.999995231629,4|0,0:3|0:0,0:0:0:0:
237,46,107988,1,0,0:0:0:0:
237,46,108073,2,0,P|241:108|293:143,1,104.999995231629,4|0,0:3|0:0,0:0:0:0:
448,75,108329,1,0,0:0:0:0:
448,75,108414,2,0,P|386:82|344:131,1,104.999995231629,4|0,0:3|0:0,0:0:0:0:
374,289,108670,1,0,0:0:0:0:
374,289,108755,2,0,P|370:229|320:187,1,104.999995231629,4|0,0:3|0:0,0:0:0:0:
183,235,109011,1,0,0:0:0:0:
183,235,109096,6,0,L|119:233,3,52.4999976158143,12|8|8|8,0:3|0:3|0:3|0:3,0:0:0:0:
83,225,109437,1,12,0:3:0:0:
45,196,109522,1,8,0:3:0:0:
35,149,109607,1,8,0:3:0:0:
52,105,109692,1,8,0:3:0:0:
94,82,109778,5,4,0:3:0:0:
131,101,109863,1,4,0:3:0:0:
172,102,109948,1,4,0:3:0:0:
210,85,110033,1,4,0:3:0:0:
229,47,110119,2,0,B|214:169|214:169|251:152,1,157.499992847443,4|0,0:3|0:0,0:0:0:0:
388,36,110459,5,4,0:0:0:0:
420,48,110545,1,0,0:0:0:0:
446,58,110630,1,4,0:3:0:0:
476,72,110715,1,0,0:0:0:0:
504,88,110800,1,4,0:3:0:0:
448,256,110971,1,0,0:0:0:0:
344,104,111141,1,8,0:0:0:0:
376,352,111312,2,0,P|432:324|460:276,1,104.999995231629,4|0,0:3|0:3,0:0:0:0:
236,168,111653,6,0,B|168:188|128:128|128:128|120:176|60:188,1,209.999990463257,8|4,0:0|0:3,0:0:0:0:
0,44,112079,1,4,0:3:0:0:
0,44,112164,2,0,P|52:24|112:32,1,104.999995231629,4|0,0:3|0:0,0:0:0:0:
288,120,112505,2,0,P|352:132|408:112,1,104.999995231629,8|4,0:0|0:3,0:0:0:0:
488,24,112761,1,4,0:3:0:0:
488,24,112846,2,0,P|464:88|472:136,1,104.999995231629,8|4,0:0|0:3,0:0:0:0:
496,320,113187,5,4,0:0:0:0:
456,304,113272,1,0,0:0:0:0:
416,300,113357,1,4,0:3:0:0:
376,304,113442,1,0,0:0:0:0:
336,316,113528,1,4,0:3:0:0:
184,224,113698,1,0,0:0:0:0:
364,212,113869,1,8,0:0:0:0:
156,356,114039,2,0,P|144:300|164:232,1,104.999995231629,4|0,0:3|0:3,0:0:0:0:
344,56,114380,6,0,B|360:144|340:208|340:208|304:132,1,209.999990463257,8|4,0:0|0:3,0:0:0:0:
172,32,114806,1,4,0:3:0:0:
172,32,114891,2,0,P|144:104|152:144,1,104.999995231629,4|0,0:3|0:0,0:0:0:0:
280,288,115232,1,4,0:3:0:0:
312,304,115317,1,0,0:0:0:0:
348,308,115403,1,4,0:3:0:0:
384,304,115488,1,0,0:0:0:0:
416,288,115573,2,0,L|448:168,1,104.999995231629,8|4,0:0|0:3,0:0:0:0:
268,32,115914,5,4,0:0:0:0:
228,40,115999,1,0,0:0:0:0:
188,52,116084,1,4,0:3:0:0:
148,44,116170,1,0,0:0:0:0:
108,36,116255,1,4,0:3:0:0:
136,212,116425,1,0,0:0:0:0:
228,40,116596,1,8,0:0:0:0:
20,148,116766,2,0,P|72:204|132:212,1,104.999995231629,4|0,0:3|0:3,0:0:0:0:
384,152,117107,6,0,B|316:128|216:144|216:144|272:172,1,209.999990463257,8|4,0:0|0:3,0:0:0:0:
448,212,117533,1,4,0:3:0:0:
448,212,117619,2,0,P|472:160|456:104,1,104.999995231629,4|4,0:3|0:3,0:0:0:0:
304,32,117959,1,8,0:0:0:0:
304,32,118300,1,4,0:3:0:0:
312,72,118386,1,4,0:3:0:0:
324,112,118471,1,8,0:0:0:0:
60,32,118641,6,0,L|12:160,1,104.999995231629,4|8,0:3|0:0,0:0:0:0:
144,28,118897,1,0,0:0:0:0:
144,28,118982,2,0,L|108:128,1,104.999995231629,4|8,0:3|0:0,0:0:0:0:
300,28,119238,1,0,0:0:0:0:
300,28,119323,2,0,L|336:128,1,104.999995231629,4|8,0:3|0:0,0:0:0:0:
384,32,119579,1,0,0:0:0:0:
384,32,119664,2,0,L|432:160,1,104.999995231629,4|8,0:3|0:0,0:0:0:0:
212,344,120005,5,8,0:0:0:0:
256,44,120175,1,8,0:0:0:0:
368,308,120346,1,8,0:0:0:0:
88,188,120516,1,8,0:0:0:0:
440,88,120687,1,8,0:0:0:0:
79,48,121028,2,0,B|75:104|115:140|115:140|87:188,1,157.499992847443,8|0,0:0|0:0,0:0:0:0:
40,268,121369,6,0,B|88:296|136:268|136:268|144:300|144:300|184:280|252:296,1,236.249998283386,12|0,0:0|0:0,0:0:0:0:
320,336,121965,1,0,0:0:0:0:
320,336,122050,2,0,P|372:296|388:252,2,78.7499994277954,0|0|0,0:0|0:0|0:0,0:0:0:0:
236,192,122562,6,0,B|224:120|252:56|252:56|180:144,1,236.249998283386,12|0,0:0|0:0,0:0:0:0:
24,188,123244,1,0,0:0:0:0:
200,264,123414,2,0,P|256:272|288:256,1,78.7499994277954,0|0,0:0|0:0,0:0:0:0:
400,40,123755,2,0,P|344:32|312:48,1,78.7499994277954,0|0,0:0|0:0,0:0:0:0:
52,151,124096,6,0,P|24:107|56:31,1,118.124999141693,12|0,0:0|0:0,0:0:0:0:
124,63,124437,2,0,B|180:75|180:75|244:59,1,118.124999141693,0|0,0:0|0:0,0:0:0:0:
324,39,124778,1,0,0:0:0:0:
364,284,124948,2,0,L|376:188,1,78.7499994277954,0|0,0:0|0:0,0:0:0:0:
378,208,125289,6,0,B|298:174|302:226|206:186,1,157.499998855591,12|0,0:0|0:0,0:0:0:0:
84,92,125800,2,0,P|64:144|72:188,1,78.7499994277954,0|0,0:0|0:0,0:0:0:0:
180,296,126141,1,4,0:3:0:0:
192,320,126226,1,4,0:3:0:0:
192,348,126312,1,0,0:0:0:0:
76,268,126482,1,4,0:3:0:0:
208,216,126653,1,4,0:3:0:0:
340,316,126823,6,0,P|392:324|448:296,1,104.999995231629,4|0,0:0|0:0,0:0:0:0:
500,204,127164,1,4,0:3:0:0:
336,312,127334,1,0,0:0:0:0:
280,140,127505,1,8,0:0:0:0:
481,103,127675,2,0,P|501:159|497:215,1,104.999995231629,8|4,0:0|0:3,0:0:0:0:
264,264,128016,6,0,B|188:268|176:208|176:208|216:164|188:88,1,209.999990463257,12|0,0:0|0:0,0:0:0:0:
76,16,128528,1,4,0:3:0:0:
76,16,128613,1,0,0:0:0:0:
76,16,128698,1,4,0:3:0:0:
108,172,128869,2,0,L|88:288,1,104.999995231629,8|0,0:0|0:0,0:0:0:0:
179,16,129209,2,0,L|199:132,1,104.999995231629,8|0,0:0|0:0,0:0:0:0:
440,188,129550,5,4,0:3:0:0:
244,192,129721,1,0,0:0:0:0:
380,112,129891,1,0,0:3:0:0:
304,272,130062,1,0,0:0:0:0:
308,56,130232,1,4,0:3:0:0:
368,224,130403,1,0,0:0:0:0:
232,148,130573,1,4,0:3:0:0:
264,304,130744,1,4,0:3:0:0:
172,80,130914,5,8,0:0:0:0:
136,76,130999,1,8,0:0:0:0:
100,72,131084,1,8,0:0:0:0:
64,68,131170,1,8,0:0:0:0:
28,64,131255,1,8,0:0:0:0:
340,80,131425,5,8,0:0:0:0:
376,76,131510,1,8,0:0:0:0:
412,72,131595,1,8,0:0:0:0:
448,68,131681,1,8,0:0:0:0:
484,64,131766,1,8,0:0:0:0:
372,212,131937,5,8,0:0:0:0:
320,232,132022,1,8,0:0:0:0:
264,236,132107,1,8,0:0:0:0:
208,224,132192,1,8,0:0:0:0:
156,200,132278,6,0,B|84:176|-4:184|-4:184|40:216,1,204.749981328965,4|0,0:0|0:0,0:0:0:0:
72,220,132619,2,0,P|88:148|72:80,1,136.499987552644,4|8,0:3|0:0,0:0:0:0:
216,16,132874,1,0,0:0:0:0:
216,16,132959,2,0,P|203:82|219:148,1,136.499987552644,4|8,0:3|0:0,0:0:0:0:
344,236,133300,1,4,0:3:0:0:
492,96,133471,6,0,P|472:28|420:104,1,204.749981328965,8|0,0:0|0:0,0:0:0:0:
472,172,133812,1,8,0:0:0:0:
280,64,133982,2,0,P|228:52|144:76,1,136.499987552644,4|8,0:3|0:0,0:0:0:0:
276,244,134323,2,0,P|328:256|412:232,1,136.499987552644,4|8,0:3|0:0,0:0:0:0:
84,126,134664,2,0,B|47:193|78:273|78:273|103:224,1,204.749981328965,4|0,0:3|0:0,0:0:0:0:
137,204,135005,6,0,B|140:288|140:288|126:354,1,136.499987552644,4|8,0:3|0:0,0:0:0:0:
192,143,135261,1,0,0:0:0:0:
192,143,135346,2,0,P|250:128|336:147,1,136.499987552644,4|8,0:3|0:0,0:0:0:0:
440,220,135601,1,0,0:0:0:0:
464,261,135687,1,4,0:3:0:0:
465,308,135772,1,0,0:0:0:0:
447,352,135857,2,0,B|372:351|372:351|308:322,1,136.499987552644,8|4,0:0|0:3,0:0:0:0:
121,70,136198,6,0,B|196:71|196:71|260:100,1,136.499987552644,8|4,0:0|0:3,0:0:0:0:
391,190,136539,1,8,0:0:0:0:
172,162,136709,1,4,0:3:0:0:
347,40,136880,1,8,0:0:0:0:
256,253,137050,1,4,0:3:0:0:
123,40,137221,1,8,0:0:0:0:
123,40,137391,1,8,0:0:0:0:
256,253,137562,1,4,0:3:0:0:
482,158,137732,6,0,B|511:88|463:35|463:35|438:70|385:61,1,204.749981328965,4|0,0:0|0:0,0:0:0:0:
361,46,138073,2,0,B|293:54|293:54|221:45,1,136.499987552644,4|8,0:3|0:0,0:0:0:0:
44,149,138329,1,0,0:0:0:0:
44,149,138414,2,0,P|50:224|98:259,1,136.499987552644,4|8,0:3|0:0,0:0:0:0:
251,244,138755,1,4,0:3:0:0:
463,73,138925,6,0,B|382:81|337:42|337:42|376:110,1,204.749981328965,8|0,0:0|0:0,0:0:0:0:
454,162,139266,1,8,0:0:0:0:
252,158,139437,2,0,P|208:95|212:37,1,136.499987552644,4|8,0:3|0:0,0:0:0:0:
343,202,139778,2,0,P|387:265|383:323,1,136.499987552644,4|8,0:3|0:0,0:0:0:0:
51,149,140119,2,0,B|103:135|126:71|126:71|140:114|192:133,1,204.749981328965,4|0,0:3|0:0,0:0:0:0:
230,139,140459,6,0,B|299:131|299:131|353:79,1,136.499987552644,4|8,0:3|0:0,0:0:0:0:
93,230,140800,2,0,B|101:299|101:299|153:353,1,136.499987552644,4|8,0:3|0:0,0:0:0:0:
318,174,141141,1,4,0:3:0:0:
55,242,141312,1,8,0:0:0:0:
132,62,141482,1,4,0:3:0:0:
221,253,141653,1,8,0:0:0:0:
340,52,141823,5,8,0:0:0:0:
368,33,141908,1,8,0:0:0:0:
397,51,141994,1,8,0:0:0:0:
389,84,142079,1,8,0:0:0:0:
355,87,142164,1,0,0:0:0:0:
147,347,142334,5,8,0:0:0:0:
119,366,142419,1,8,0:0:0:0:
90,348,142505,1,8,0:0:0:0:
98,315,142590,1,8,0:0:0:0:
132,312,142675,1,0,0:0:0:0:
347,280,142846,6,0,B|388:294|413:325|413:325|465:275|430:197,1,204.749981328965,8|8,0:0|0:0,0:0:0:0:
316,6,143187,6,0,B|260:83|328:135|328:135|378:143|409:95,1,220.499983257294,4|0,0:0|0:0,0:0:0:0:
421,78,143528,2,0,P|455:148|418:229,1,146.999988838196,4|8,0:3|0:0,0:0:0:0:
220,322,143783,1,0,0:0:0:0:
220,322,143869,2,0,P|186:252|223:171,1,146.999988838196,4|8,0:3|0:0,0:0:0:0:
296,97,144209,1,4,0:3:0:0:
510,302,144380,6,0,B|474:362|410:331|410:331|398:359|398:359|344:331|305:360,1,220.499983257294,8|0,0:0|0:0,0:0:0:0:
236,354,144721,1,8,0:0:0:0:
87,158,144891,2,0,P|54:228|97:306,1,146.999988838196,4|8,0:3|0:0,0:0:0:0:
289,226,145232,2,0,L|143:228,1,146.999988838196,4|8,0:3|0:0,0:0:0:0:
355,53,145573,2,0,B|403:112|403:112|443:53,1,146.999988838196,4|8,0:3|0:0,0:0:0:0:
173,116,145914,6,0,P|107:126|157:38,1,220.499983257294,4|0,0:3|0:0,0:0:0:0:
188,36,146255,2,0,L|217:205,1,146.999988838196,4|8,0:3|0:0,0:0:0:0:
279,311,146511,1,0,0:0:0:0:
312,340,146596,1,4,0:3:0:0:
356,340,146681,1,0,0:0:0:0:
384,304,146766,2,0,L|405:139,1,146.999988838196,8|4,0:0|0:3,0:0:0:0:
114,38,147107,6,0,B|93:112|93:112|114:187,1,146.999988838196,8|4,0:0|0:3,0:0:0:0:
387,156,147448,1,8,0:0:0:0:
173,290,147619,1,4,0:3:0:0:
252,52,147789,1,8,0:0:0:0:
339,290,147959,1,4,0:3:0:0:
191,15,148130,1,8,0:0:0:0:
191,15,148300,1,8,0:0:0:0:
257,290,148471,1,4,0:3:0:0:
382,69,148641,6,0,P|421:44|390:129,1,220.499983257294,4|0,0:0|0:0,0:0:0:0:
369,142,148982,2,0,P|320:135|227:182,1,146.999988838196,4|8,0:3|0:0,0:0:0:0:
405,352,149238,1,0,0:0:0:0:
405,352,149323,2,0,P|446:286|446:207,1,146.999988838196,4|8,0:3|0:0,0:0:0:0:
382,69,149664,1,4,0:3:0:0:
154,191,149834,6,0,B|153:246|208:278|208:278|256:233|227:156,1,220.499983257294,8|0,0:0|0:0,0:0:0:0:
178,94,150175,1,8,0:0:0:0:
132,326,150346,1,4,0:3:0:0:
312,193,150516,1,8,0:0:0:0:
49,172,150687,2,0,P|30:118|80:40,1,146.999988838196,4|8,0:3|0:0,0:0:0:0:
379,138,151028,2,0,P|398:192|348:270,1,146.999988838196,4|8,0:3|0:0,0:0:0:0:
159,29,151369,6,0,B|235:54|235:54|306:31,1,146.999988838196,4|8,0:3|0:0,0:0:0:0:
484,213,151709,2,0,B|403:219|403:219|337:283,1,146.999988838196,4|8,0:3|0:0,0:0:0:0:
430,6,152050,1,4,0:3:0:0:
473,288,152221,1,8,0:0:0:0:
302,113,152391,1,4,0:3:0:0:
499,137,152562,1,8,0:0:0:0:
130,209,152732,5,8,0:0:0:0:
87,218,152817,1,8,0:0:0:0:
52,190,152903,1,8,0:0:0:0:
53,146,152988,1,8,0:0:0:0:
91,124,153073,1,8,0:0:0:0:
435,266,153244,5,8,0:0:0:0:
473,288,153329,1,8,0:0:0:0:
474,332,153414,1,8,0:0:0:0:
439,360,153500,1,8,0:0:0:0:
396,351,153585,1,8,0:0:0:0:
152,37,153755,5,8,0:0:0:0:
165,86,153840,1,8,0:0:0:0:
180,134,153925,1,8,0:0:0:0:
196,183,154011,1,8,0:0:0:0:
212,232,154096,6,0,B|364:244|364:244|444:216,1,236.249998283386,4|0,0:0|0:0,0:0:0:0:
476,196,154437,2,0,P|464:288|504:348,1,157.499998855591,4|8,0:3|0:0,0:0:0:0:
464,104,154692,1,0,0:0:0:0:
464,104,154778,2,0,P|384:68|304:92,1,157.499998855591,4|8,0:3|0:0,0:0:0:0:
188,160,155119,1,4,0:3:0:0:
416,348,155289,6,0,P|452:316|360:332,1,236.249998283386,8|0,0:0|0:0,0:0:0:0:
284,364,155630,1,8,0:0:0:0:
72,240,155800,2,0,P|100:260|224:232,1,157.499998855591,4|8,0:3|0:0,0:0:0:0:
440,144,156141,2,0,P|412:124|288:152,1,157.499998855591,4|8,0:3|0:0,0:0:0:0:
0,48,156482,2,0,P|28:68|152:40,1,157.499998855591,4|8,0:3|0:0,0:0:0:0:
456,224,156823,6,0,B|368:264|304:232|304:232|384:268,1,236.249998283386,4|0,0:3|0:0,0:0:0:0:
408,284,157164,2,0,P|428:216|392:120,1,157.499998855591,4|8,0:3|0:0,0:0:0:0:
304,56,157420,1,0,0:0:0:0:
268,36,157505,1,4,0:3:0:0:
228,28,157590,1,0,0:0:0:0:
188,28,157675,2,0,B|132:68|132:68|88:84|24:48,1,157.499998855591,8|4,0:0|0:3,0:0:0:0:
452,200,158016,6,0,P|464:276|416:344,1,157.499998855591,8|4,0:0|0:3,0:0:0:0:
384,356,158272,1,0,0:0:0:0:
344,348,158357,1,8,0:0:0:0:
244,116,158528,1,4,0:3:0:0:
368,252,158698,1,8,0:0:0:0:
116,192,158869,1,4,0:3:0:0:
424,104,159039,1,8,0:0:0:0:
424,104,159209,1,8,0:0:0:0:
280,272,159380,1,4,0:3:0:0:
92,40,159550,6,0,B|72:96|120:144|120:144|108:156|108:156|156:224|88:280,1,236.249998283386,4|0,0:3|0:0,0:0:0:0:
80,272,159891,2,0,P|180:288|220:344,1,157.499998855591,4|8,0:3|0:0,0:0:0:0:
432,188,160147,1,0,0:0:0:0:
432,188,160232,2,0,P|332:204|292:260,1,157.499998855591,4|8,0:3|0:0,0:0:0:0:
120,360,160573,1,4,0:3:0:0:
216,188,160744,6,0,P|236:128|188:44,1,157.499998855591,8|4,0:0|0:3,0:0:0:0:
76,20,160999,1,0,0:0:0:0:
76,20,161084,1,8,0:0:0:0:
312,96,161255,2,0,P|384:96|488:72,1,157.499998855591,4|8,0:3|0:0,0:0:0:0:
216,188,161596,2,0,P|144:188|40:212,1,157.499998855591,4|8,0:3|0:0,0:0:0:0:
384,300,161937,1,4,0:3:0:0:
128,84,162107,1,0,0:0:0:0:
392,188,162278,5,4,0:3:0:0:
437,179,162363,1,4,0:3:0:0:
467,143,162448,1,8,0:0:0:0:
469,97,162533,1,4,0:3:0:0:
442,60,162618,1,4,0:3:0:0:
397,47,162704,1,4,0:3:0:0:
352,60,162789,1,8,0:0:0:0:
320,96,162874,1,4,0:3:0:0:
316,144,162959,5,4,0:3:0:0:
316,200,163044,1,4,0:3:0:0:
292,252,163129,1,8,0:0:0:0:
240,272,163215,1,4,0:3:0:0:
184,264,163300,1,4,0:3:0:0:
144,228,163385,1,4,0:3:0:0:
132,176,163470,1,8,0:0:0:0:
156,128,163555,1,4,0:3:0:0:
204,64,163640,5,8,0:0:0:0:
281,52,163726,1,8,0:0:0:0:
361,40,163812,1,8,0:0:0:0:
437,28,163897,1,8,0:0:0:0:
240,272,164153,5,8,0:0:0:0:
163,259,164239,1,8,0:0:0:0:
83,247,164323,1,8,0:0:0:0:
7,235,164408,1,8,0:0:0:0:
352,132,164664,6,0,B|404:120|516:132|516:132|428:172,1,236.249998283386,0|0,0:0|0:0,0:0:0:0:
416,184,165005,6,0,P|408:216|508:228,1,157.499998855591,4|8,0:3|0:0,0:0:0:0:
452,44,165261,1,0,0:0:0:0:
452,44,165346,2,0,P|368:40|284:52,1,157.499998855591,4|8,0:3|0:0,0:0:0:0:
40,188,165687,6,0,P|36:216|48:272,3,78.7499994277954,8|8|8|8,0:0|0:0|0:3|0:3,0:0:0:0:
88,300,166028,1,8,0:0:0:0:
140,316,166113,1,8,0:0:0:0:
196,312,166198,1,4,0:3:0:0:
248,288,166283,1,4,0:3:0:0:
280,244,166369,6,0,P|320:216|420:224,1,115.499998279572,4|0,0:0|0:0,0:0:0:0:
496,72,166624,1,0,0:0:0:0:
496,72,166709,2,0,P|420:52|352:76,1,115.499998279572,8|0,0:0|0:0,0:0:0:0:
192,192,167050,1,4,0:3:0:0:
192,192,167136,1,0,0:0:0:0:
192,192,167221,1,4,0:3:0:0:
385,210,167391,1,8,0:0:0:0:
144,112,167562,6,0,L|0:128,1,115.499998279572,4|0,0:3|0:0,0:0:0:0:
248,8,167903,1,4,0:3:0:0:
288,16,167988,1,0,0:0:0:0:
324,32,168073,2,0,P|352:68|360:156,1,115.499998279572,8|4,0:0|0:3,0:0:0:0:
116,196,168414,2,0,L|40:208,2,57.7499991397858,0|0|4,0:0|0:0|0:3,0:0:0:0:
268,120,168755,1,8,0:0:0:0:
184,280,168925,1,0,0:0:0:0:
8,120,169096,6,0,P|4:64|56:16,1,115.499998279572,4|0,0:0|0:0,0:0:0:0:
208,64,169351,1,0,0:0:0:0:
208,64,169437,2,0,P|276:76|336:48,1,115.499998279572,8|0,0:0|0:0,0:0:0:0:
128,140,169778,1,4,0:3:0:0:
128,140,169863,1,0,0:0:0:0:
128,140,169948,1,4,0:3:0:0:
256,320,170119,1,8,0:0:0:0:
388,136,170289,6,0,L|256:96,1,115.499998279572,4|0,0:3|0:0,0:0:0:0:
44,264,170630,1,4,0:3:0:0:
84,256,170715,1,0,0:0:0:0:
124,248,170800,2,0,L|264:216,1,115.499998279572,8|4,0:0|0:3,0:0:0:0:
456,296,171141,1,4,0:3:0:0:
228,36,171397,1,4,0:3:0:0:
24,316,171653,1,4,0:3:0:0:
252,332,171823,6,0,P|288:276|272:216,1,115.499998279572,4|0,0:0|0:0,0:0:0:0:
188,80,172079,1,0,0:0:0:0:
188,80,172164,2,0,P|183:136|216:181,1,115.499998279572,8|0,0:0|0:0,0:0:0:0:
376,40,172505,1,4,0:3:0:0:
376,40,172590,1,0,0:0:0:0:
376,40,172675,1,4,0:3:0:0:
364,236,172846,1,8,0:0:0:0:
176,28,173016,6,0,P|248:40|292:28,1,115.499998279572,4|0,0:3|0:0,0:0:0:0:
48,88,173357,1,4,0:3:0:0:
32,124,173442,1,0,0:0:0:0:
28,164,173528,2,0,L|60:280,1,115.499998279572,8|4,0:0|0:3,0:0:0:0:
118,34,173869,2,0,L|190:26,2,57.7499991397858,0|0|4,0:0|0:0|0:3,0:0:0:0:
124,212,174209,1,8,0:0:0:0:
248,96,174380,1,0,0:0:0:0:
304,304,174550,6,0,P|352:320|428:304,1,115.499998279572,4|0,0:0|0:0,0:0:0:0:
496,140,174806,1,0,0:0:0:0:
496,140,174891,2,0,P|439:129|384:146,1,115.499998279572,8|0,0:0|0:0,0:0:0:0:
216,272,175232,1,4,0:3:0:0:
216,272,175317,1,0,0:0:0:0:
216,272,175403,1,4,0:3:0:0:
396,228,175573,1,8,0:0:0:0:
184,88,175744,6,0,P|164:128|176:200,1,115.499998279572,4|0,0:3|0:0,0:0:0:0:
412,136,176084,1,4,0:3:0:0:
424,96,176170,1,0,0:0:0:0:
416,56,176255,2,0,L|280:40,1,115.499998279572,8|4,0:0|0:3,0:0:0:0:
80,152,176596,1,4,0:3:0:0:
80,152,176681,1,4,0:3:0:0:
80,152,176766,1,4,0:3:0:0:
372,208,176937,1,8,0:3:0:0:
372,208,177022,1,8,0:3:0:0:
372,208,177107,1,8,0:3:0:0:
32,264,177278,6,0,P|24:304|112:344,1,141.749989236832,4|0,0:0|0:0,0:0:0:0:
99,349,177619,2,0,L|128:248,1,94.4999928245547,4|2,0:3|0:0,0:0:0:0:
264,60,177959,2,0,P|284:112|264:176,1,94.4999928245547,4|2,0:3|0:0,0:0:0:0:
184,176,178215,2,0,L|76:160,1,94.4999928245547,0|0,0:0|0:0,0:0:0:0:
24,88,178471,1,2,0:0:0:0:
264,60,178641,6,0,P|324:56|364:28,1,94.4999928245547,4|2,0:3|0:0,0:0:0:0:
156,19,178897,1,0,0:0:0:0:
160,24,178982,2,0,P|156:84|176:124,1,94.4999928245547,4|2,0:3|0:0,0:0:0:0:
384,224,179323,1,4,0:3:0:0:
144,192,179494,1,2,0:0:0:0:
412,88,179664,1,4,0:3:0:0:
268,276,179834,1,2,0:0:0:0:
80,60,180005,6,0,P|140:84|212:36,1,141.749989236832,4|0,0:0|0:0,0:0:0:0:
204,49,180346,2,0,L|207:159,1,94.4999928245547,4|2,0:3|0:0,0:0:0:0:
424,280,180687,2,0,P|364:268|320:288,1,94.4999928245547,4|2,0:3|0:0,0:0:0:0:
260,344,180942,2,0,L|144:312,1,94.4999928245547,0|0,0:0|0:0,0:0:0:0:
124,228,181198,1,2,0:0:0:0:
360,148,181369,6,0,P|376:80|356:40,1,94.4999928245547,4|2,0:3|0:0,0:0:0:0:
143,58,181624,1,0,0:0:0:0:
143,58,181709,2,0,P|134:104|152:148,1,94.4999928245547,4|2,0:3|0:0,0:0:0:0:
388,240,182050,1,4,0:3:0:0:
296,32,182221,1,2,0:0:0:0:
204,240,182391,1,4,0:3:0:0:
468,336,182732,6,0,P|492:280|460:184,1,141.749989236832,4|0,0:0|0:0,0:0:0:0:
475,203,183073,2,0,L|387:239,1,94.4999928245547,4|2,0:3|0:0,0:0:0:0:
135,123,183414,2,0,L|239:139,1,94.4999928245547,4|2,0:3|0:0,0:0:0:0:
311,83,183670,2,0,P|307:155|331:191,1,94.4999928245547,0|0,0:0|0:0,0:0:0:0:
387,239,183925,1,2,0:0:0:0:
504,20,184096,6,0,L|392:28,1,94.4999928245547,4|2,0:3|0:0,0:0:0:0:
217,68,184351,1,0,0:0:0:0:
217,68,184437,2,0,L|321:84,1,94.4999928245547,4|2,0:3|0:0,0:0:0:0:
416,296,184778,1,4,0:3:0:0:
512,96,184948,1,2,0:0:0:0:
300,168,185119,1,4,0:3:0:0:
488,248,185289,1,2,0:0:0:0:
200,256,185459,6,0,P|152:212|144:128,1,141.749989236832,4|0,0:0|0:0,0:0:0:0:
141,138,185800,2,0,P|72:148|28:132,1,94.4999928245547,4|2,0:3|0:0,0:0:0:0:
284,36,186141,2,0,P|340:32|384:44,1,94.4999928245547,4|2,0:3|0:0,0:0:0:0:
428,128,186397,2,0,L|388:244,1,94.4999928245547
308,264,186653,1,2,0:0:0:0:
64,316,186823,6,0,P|44:256|56:212,1,94.4999928245547,4|2,0:3|0:0,0:0:0:0:
216,224,187079,1,0,0:0:0:0:
216,224,187164,2,0,P|168:256|116:260,1,94.4999928245547,4|2,0:3|0:0,0:0:0:0:
240,56,187505,1,8,0:0:0:0:
240,56,187590,1,8,0:0:0:0:
240,56,187675,1,4,0:3:0:0:
256,320,187846,1,8,0:0:0:0:
32,60,188187,5,8,0:0:0:0:
76,124,188272,1,8,0:0:0:0:
80,204,188357,1,8,0:0:0:0:
36,272,188442,1,8,0:0:0:0:
480,324,188698,5,8,0:0:0:0:
436,260,188783,1,8,0:0:0:0:
432,180,188868,1,8,0:0:0:0:
476,112,188953,1,8,0:0:0:0:
236,64,189209,5,8,0:0:0:0:
249,148,189294,1,8,0:0:0:0:
262,232,189379,1,8,0:0:0:0:
275,316,189464,1,8,0:0:0:0:
