osu file format v14

[General]
AudioFilename: audio.mp3
AudioLeadIn: 0
PreviewTime: 44423
Countdown: 0
SampleSet: Soft
StackLeniency: 0.2
Mode: 0
LetterboxInBreaks: 0
EpilepsyWarning: 1
WidescreenStoryboard: 0

[Editor]
Bookmarks: 6838,17747,23202,34111,45020,66838,77747,85929,99565,110474,121384,126838,132293,143202,154111,165020,166384,177293,182747
DistanceSpacing: 0.8
BeatDivisor: 4
GridSize: 4
TimelineZoom: 3.399999

[Metadata]
Title:Suicide Parade
TitleUnicode:スーサイドパレヱド
Artist:YURRY CANON
ArtistUnicode:ユリイ・カノン
Creator:kwk
Version:Sakase
Source:
Tags:vocaloid megpoid gumi メグッポイド グミ neonat asaiga ailv aliv anvil doormat kardia
BeatmapID:1785659
BeatmapSetID:854503

[Difficulty]
HPDrainRate:5
CircleSize:4
OverallDifficulty:9
ApproachRate:9.6
SliderMultiplier:3.59999990463257
SliderTickRate:1

[Events]
//Background and Video events
0,0,"wau.jpg",0,0
Video,0,"video.mp4"
//Break Periods
2,67023,77223
//Storyboard Layer 0 (Background)
//Storyboard Layer 1 (Fail)
//Storyboard Layer 2 (Pass)
//Storyboard Layer 3 (Foreground)
//Storyboard Sound Samples

[TimingPoints]
1369,340.909090909091,4,2,1,85,1,0
6823,-90.9090909090909,4,2,1,85,0,0
23187,-111.111111111111,4,2,1,75,0,0
32732,-111.111111111111,4,2,3,75,0,0
34096,-111.111111111111,4,2,1,75,0,0
44664,-62.5,4,2,2,85,0,0
44920,-62.5,4,2,2,5,0,0
45005,-83.3333333333333,4,2,1,100,0,1
47391,-62.5,4,2,2,100,0,1
47732,-83.3333333333333,4,2,1,100,0,1
52846,-62.5,4,2,2,100,0,1
53187,-83.3333333333333,4,2,1,100,0,1
55914,-62.5,4,2,2,100,0,1
56255,-83.3333333333333,4,2,1,100,0,1
58300,-62.5,4,2,2,100,0,1
58641,-83.3333333333333,4,2,1,100,0,1
61369,-62.5,4,2,2,100,0,1
61709,-83.3333333333333,4,2,1,100,0,1
63755,-62.5,4,2,2,100,0,1
64096,-83.3333333333333,4,2,1,100,0,1
66823,-83.3333333333333,4,2,1,85,0,0
77732,-142.857142857143,4,2,1,85,0,0
85914,-83.3333333333334,4,2,1,85,0,0
98187,-83.3333333333334,4,2,2,95,0,0
98869,-83.3333333333334,4,2,1,95,0,0
99550,-111.111111111111,4,2,1,85,0,0
109096,-111.111111111111,4,2,3,85,0,0
110119,-111.111111111111,4,2,1,85,0,0
121283,-111.111111111111,4,2,1,5,0,0
121369,-249.999999999999,4,2,1,70,0,0
126823,-111.111111111111,4,2,1,85,0,0
129209,-83.3333333333333,4,2,1,85,0,0
129550,-111.111111111111,4,2,1,85,0,0
132278,-83.3333333333333,4,2,1,100,0,1
134664,-62.5,4,2,2,100,0,1
135005,-83.3333333333333,4,2,1,100,0,1
140119,-62.5,4,2,2,100,0,1
140459,-83.3333333333333,4,2,1,100,0,1
142846,-55.5555555555556,4,2,2,100,0,1
143101,-55.5555555555556,4,2,2,5,0,1
143187,-83.3333333333333,4,2,1,100,0,1
145573,-62.5,4,2,2,100,0,1
145914,-83.3333333333333,4,2,1,100,0,1
151028,-62.5,4,2,2,100,0,1
151369,-83.3333333333333,4,2,1,100,0,1
154096,-62.5,4,2,2,100,0,1
154437,-83.3333333333333,4,2,1,100,0,1
156482,-62.5,4,2,2,100,0,1
156823,-83.3333333333333,4,2,1,100,0,1
159550,-62.5,4,2,2,100,0,1
159891,-83.3333333333333,4,2,1,100,0,1
161937,-62.5,4,2,2,100,0,1
162278,-83.3333333333333,4,2,1,100,0,1
164664,-62.5,4,2,2,100,0,1
165005,-83.3333333333333,4,2,1,100,0,1
166369,-90.9090909090909,4,2,1,85,0,0

[Colours]
Combo1 : 255,255,166
Combo2 : 255,128,128
Combo3 : 0,255,255
Combo4 : 0,255,128

[HitObjects]
184,88,1369,5,8,0:0:0:0:
306,218,1539,1,8,0:0:0:0:
88,145,1880,1,8,0:0:0:0:
328,88,2732,5,8,0:0:0:0:
206,218,2903,1,8,0:0:0:0:
424,145,3244,1,8,0:0:0:0:
201,292,4096,5,8,0:0:0:0:
260,154,4266,1,8,0:0:0:0:
325,364,4607,1,8,0:0:0:0:
311,92,5459,5,8,0:0:0:0:
252,230,5630,1,8,0:0:0:0:
187,20,5971,1,8,0:0:0:0:
93,197,6823,6,0,P|194:159|187:235,1,198.000000797272,4|2,0:0|0:0,0:0:0:0:
346,361,7079,1,0,0:0:0:0:
319,373,7164,2,0,P|302:281|438:237,1,198.000000797272,8|2,0:0|0:0,0:0:0:0:
483,19,7505,1,6,0:3:0:0:
502,75,7590,1,2,0:0:0:0:
467,123,7675,2,0,P|397:116|373:59,1,99.0000003986359,6|0,0:3|0:0,0:0:0:0:
202,12,7846,2,0,P|234:32|237:104,1,99.0000003986359,10|0,0:0|0:0,0:0:0:0:
115,236,8016,2,0,B|41:237|-7:202|-7:202|103:161,1,198.000000797272,6|0,0:3|0:0,0:0:0:0:
327,290,8357,1,6,0:3:0:0:
274,315,8442,1,2,0:0:0:0:
217,298,8528,1,10,0:0:0:0:
160,92,8698,1,6,0:3:0:0:
350,152,8869,5,2,0:0:0:0:
422,109,8954,1,2,0:0:0:0:
282,96,9039,1,6,0:3:0:0:
458,252,9209,1,10,0:0:0:0:
398,12,9380,1,2,0:0:0:0:
323,301,9550,6,0,B|262:313|229:278|229:278|182:314|104:275,1,198.000000797272,6|2,0:0|0:0,0:0:0:0:
113,119,9806,1,2,0:0:0:0:
109,147,9891,2,0,B|110:196|173:209|173:209|236:153|195:110,1,198.000000797272,10|2,0:0|0:0,0:0:0:0:
385,2,10232,1,6,0:3:0:0:
345,46,10317,1,2,0:0:0:0:
359,103,10403,2,0,P|409:122|480:92,1,99.0000003986359,6|0,0:3|0:0,0:0:0:0:
280,205,10573,2,0,P|230:186|159:216,1,99.0000003986359,10|0,0:0|0:0,0:0:0:0:
24,348,10744,2,0,B|70:315|117:329|123:331|127:332|173:352|220:321,1,198.000000797272,6|0,0:3|0:0,0:0:0:0:
512,352,11084,1,6,0:3:0:0:
454,336,11170,1,2,0:0:0:0:
401,362,11255,1,10,0:0:0:0:
356,156,11425,1,6,0:3:0:0:
26,24,11596,5,6,0:3:0:0:
512,150,11851,5,6,0:3:0:0:
16,355,12107,5,6,0:3:0:0:
171,7,12278,6,0,B|196:67|196:67|166:118|166:118|201:185,1,198.000000797272,6|0,0:0|0:0,0:0:0:0:
436,193,12533,1,0,0:0:0:0:
445,164,12619,2,0,P|380:96|289:122,1,198.000000797272,10|2,0:0|0:0,0:0:0:0:
87,110,12960,1,6,0:3:0:0:
73,167,13045,1,2,0:0:0:0:
113,211,13130,2,0,P|183:204|207:147,1,99.0000003986359,6|0,0:3|0:0,0:0:0:0:
270,26,13301,2,0,L|294:138,1,99.0000003986359,10|0,0:0|0:0,0:0:0:0:
267,295,13471,2,0,P|287:238|370:325,1,198.000000797272,6|0,0:3|0:0,0:0:0:0:
484,99,13812,1,6,0:3:0:0:
507,153,13897,1,2,0:0:0:0:
480,206,13983,1,10,0:0:0:0:
352,12,14153,1,6,0:3:0:0:
141,198,14324,5,2,0:0:0:0:
174,127,14409,1,2,0:0:0:0:
216,242,14494,1,6,0:3:0:0:
71,68,14664,1,10,0:0:0:0:
398,152,14835,1,2,0:0:0:0:
118,367,15005,6,0,B|211:328|211:328|300:372,1,198.000000797272,6|0,0:0|0:0,0:0:0:0:
486,272,15261,1,2,0:0:0:0:
456,270,15346,2,0,B|412:291|396:347|396:347|383:291|300:267,1,198.000000797272,10|2,0:0|0:0,0:0:0:0:
52,191,15687,1,6,0:3:0:0:
25,244,15772,1,2,0:0:0:0:
53,296,15858,2,0,L|154:266,1,99.0000003986359,6|0,0:3|0:0,0:0:0:0:
298,132,16028,2,0,L|197:102,1,99.0000003986359,10|0,0:0|0:0,0:0:0:0:
401,239,16198,2,0,B|536:271|536:271|445:272,1,198.000000797272,6|0,0:3|0:0,0:0:0:0:
218,364,16539,1,6,0:3:0:0:
274,384,16625,1,2,0:0:0:0:
330,367,16710,1,10,0:0:0:0:
419,136,16880,1,6,0:3:0:0:
157,49,17051,5,6,0:3:0:0:
77,83,17136,1,4,0:3:0:0:
227,103,17221,1,4,0:3:0:0:
27,196,17391,5,10,0:3:0:0:
46,192,17476,1,8,0:3:0:0:
65,189,17562,1,8,0:3:0:0:
84,186,17647,1,0,0:0:0:0:
101,183,17732,5,4,0:0:0:0:
204,295,17903,1,2,0:0:0:0:
114,180,18073,1,4,0:3:0:0:
85,361,18244,1,2,0:0:0:0:
312,106,18414,1,4,0:3:0:0:
210,314,18585,1,2,0:0:0:0:
295,99,18755,1,4,0:3:0:0:
356,375,18926,1,2,0:0:0:0:
136,27,19096,5,4,0:3:0:0:
436,174,19266,1,2,0:0:0:0:
301,114,19351,1,0,0:0:0:0:
162,57,19437,1,4,0:3:0:0:
334,279,19607,1,2,0:0:0:0:
189,84,19778,1,4,0:3:0:0:
164,250,19948,1,2,0:0:0:0:
212,112,20119,1,4,0:3:0:0:
56,130,20289,1,2,0:0:0:0:
448,192,20459,5,4,0:0:0:0:
336,91,20630,1,2,0:0:0:0:
433,197,20800,1,4,0:3:0:0:
464,14,20971,1,2,0:0:0:0:
237,269,21141,1,4,0:3:0:0:
362,101,21312,1,2,0:0:0:0:
254,276,21482,1,4,0:3:0:0:
193,0,21653,1,2,0:0:0:0:
417,329,21823,5,4,0:3:0:0:
49,138,21993,1,2,0:0:0:0:
180,209,22079,1,0,0:0:0:0:
310,279,22164,1,4,0:3:0:0:
215,96,22334,1,2,0:0:0:0:
100,342,22505,1,4,0:3:0:0:
347,166,22675,1,2,0:0:0:0:
63,35,22846,6,0,B|117:35|158:72|158:72|193:72|216:48|216:48|277:80|345:46,1,297.000001195908,4|0,0:3|0:0,0:0:0:0:
511,172,23187,6,0,P|457:145|353:190,1,161.999990764618,6|0,0:0|0:0,0:0:0:0:
360,199,23442,1,0,0:0:0:0:
368,222,23528,1,6,0:3:0:0:
228,138,23698,1,2,0:0:0:0:
75,241,23869,1,6,0:3:0:0:
98,234,23954,1,0,0:0:0:0:
121,238,24039,1,0,0:0:0:0:
132,259,24124,1,0,0:0:0:0:
129,283,24209,2,0,L|38:266,1,80.9999953823091,6|0,0:3|0:0,0:0:0:0:
9,309,24380,6,0,B|50:292|50:292|114:315|114:315|206:296,1,161.999990764618,2|4,0:0|0:3,0:0:0:0:
186,299,24636,1,0,0:0:0:0:
208,307,24721,1,2,0:0:0:0:
51,384,24891,1,6,0:3:0:0:
124,196,25062,1,2,0:0:0:0:
23,56,25232,1,6,0:3:0:0:
15,79,25317,1,0,0:0:0:0:
24,101,25403,1,2,0:0:0:0:
205,0,25573,1,6,0:3:0:0:
30,229,25744,1,2,0:0:0:0:
310,96,25914,5,6,0:0:0:0:
99,112,26084,1,2,0:0:0:0:
143,182,26170,1,0,0:0:0:0:
133,32,26255,1,4,0:3:0:0:
373,26,26425,5,2,0:0:0:0:
366,114,26510,1,2,0:0:0:0:
361,202,26596,1,6,0:3:0:0:
99,266,26766,5,2,0:0:0:0:
179,277,26852,1,2,0:0:0:0:
53,191,26937,1,6,0:3:0:0:
190,358,27107,5,2,0:0:0:0:
266,331,27192,1,2,0:0:0:0:
346,342,27278,6,0,B|382:358|382:358|460:336,1,80.9999953823091,4|0,0:3|0:0,0:0:0:0:
494,205,27448,2,0,L|413:217,1,80.9999953823091,2|0,0:0|0:0,0:0:0:0:
262,257,27619,2,0,L|181:244,1,80.9999953823091,6|0,0:3|0:0,0:0:0:0:
115,141,27789,2,0,B|151:125|151:125|191:136,1,80.9999953823091,2|0,0:0|0:0,0:0:0:0:
362,135,27959,5,6,0:3:0:0:
375,125,28045,1,0,0:0:0:0:
325,47,28130,1,6,0:3:0:0:
337,37,28215,1,0,0:0:0:0:
228,48,28300,1,2,0:0:0:0:
215,37,28386,1,0,0:0:0:0:
191,136,28471,1,6,0:3:0:0:
178,125,28556,1,0,0:0:0:0:
286,171,28641,6,0,L|364:128,2,80.9999953823091,6|0|0,0:0|0:0|0:0,0:0:0:0:
271,190,28897,1,0,0:0:0:0:
255,208,28982,1,6,0:3:0:0:
121,50,29153,1,2,0:0:0:0:
21,218,29323,1,6,0:3:0:0:
50,205,29408,1,0,0:0:0:0:
82,211,29494,1,0,0:0:0:0:
105,233,29579,1,0,0:0:0:0:
109,263,29664,2,0,P|114:217|136:193,1,80.9999953823091,6|0,0:3|0:0,0:0:0:0:
189,28,29834,6,0,P|243:95|203:189,1,161.999990764618,2|4,0:0|0:3,0:0:0:0:
212,182,30090,1,0,0:0:0:0:
187,180,30175,1,2,0:0:0:0:
348,107,30346,1,6,0:3:0:0:
395,296,30516,1,2,0:0:0:0:
400,272,30601,1,0,0:0:0:0:
406,248,30687,1,6,0:3:0:0:
267,378,30857,1,2,0:0:0:0:
511,247,31028,6,0,B|447:235|447:235|406:245|406:245|377:233|377:233|323:239|323:239|361:342,1,242.999986146927,6|0,0:3|0:0,0:0:0:0:
269,372,31369,1,6,0:0:0:0:
253,369,31454,1,0,0:0:0:0:
252,295,31539,1,2,0:0:0:0:
236,292,31624,1,0,0:0:0:0:
233,370,31709,5,4,0:3:0:0:
217,367,31794,1,0,0:0:0:0:
216,293,31879,1,2,0:0:0:0:
200,290,31964,1,0,0:0:0:0:
198,366,32050,5,4,0:3:0:0:
182,363,32135,1,0,0:0:0:0:
181,289,32220,1,2,0:0:0:0:
165,286,32305,1,0,0:0:0:0:
162,364,32391,5,4,0:3:0:0:
146,361,32476,1,0,0:0:0:0:
145,287,32562,1,2,0:0:0:0:
129,284,32647,1,2,0:0:0:0:
131,358,32732,5,12,0:3:0:0:
149,342,32817,1,8,0:3:0:0:
179,329,32903,1,10,0:3:0:0:
219,324,32988,1,8,0:3:0:0:
266,331,33073,1,14,0:3:0:0:
314,361,33158,1,8,0:3:0:0:
377,366,33244,1,10,0:3:0:0:
422,309,33329,1,8,0:3:0:0:
401,230,33414,2,4,L|294:213,1,80.9999953823091,6|4,0:3|0:3,0:3:0:0:
238,242,33584,2,4,L|324:238,1,80.9999953823091,6|4,0:3|0:3,0:3:0:0:
366,133,33755,6,0,B|298:86|243:133|240:133|236:133|176:161|131:122,1,242.999986146927,6|0,0:3|0:0,0:0:0:0:
161,13,34096,5,6,0:0:0:0:
174,0,34181,1,0,0:0:0:0:
192,3,34266,1,2,0:0:0:0:
201,19,34351,1,0,0:0:0:0:
196,36,34436,1,6,0:3:0:0:
0,162,34607,1,2,0:0:0:0:
91,23,34778,1,10,0:0:0:0:
183,190,34948,1,2,0:3:0:0:
146,261,35033,1,0,0:3:0:0:
117,337,35119,1,4,0:3:0:0:
110,354,35289,6,0,B|175:334|175:334|263:354|263:354|346:328,1,242.999986146927,10|0,0:0|0:0,0:0:0:0:
459,290,35630,1,2,0:0:0:0:
470,311,35715,1,0,0:0:0:0:
464,334,35800,1,6,0:3:0:0:
325,211,35971,1,2,0:0:0:0:
500,116,36141,1,10,0:0:0:0:
255,11,36312,1,2,0:0:0:0:
244,32,36397,1,0,0:0:0:0:
252,54,36482,2,0,B|301:38|301:38|356:59|356:59|422:45,1,161.999990764618,10|0,0:0|0:0,0:0:0:0:
37,91,36823,5,6,0:0:0:0:
52,85,36908,1,0,0:0:0:0:
68,83,36993,1,2,0:0:0:0:
83,86,37078,1,0,0:0:0:0:
96,94,37163,1,6,0:3:0:0:
30,303,37334,1,2,0:0:0:0:
327,226,37505,1,10,0:0:0:0:
167,367,37675,1,2,0:0:0:0:
181,286,37761,1,0,0:0:0:0:
198,207,37846,1,4,0:3:0:0:
215,222,38016,6,0,B|48:227|48:227|138:288,1,242.999986146927,10|0,0:0|0:0,0:0:0:0:
301,311,38357,1,2,0:0:0:0:
341,314,38442,1,0,0:0:0:0:
381,319,38528,1,6,0:3:0:0:
215,187,38698,1,2,0:0:0:0:
381,62,38869,1,6,0:3:0:0:
435,80,38954,1,0,0:0:0:0:
435,137,39039,1,2,0:0:0:0:
381,154,39124,1,0,0:0:0:0:
348,108,39209,6,0,B|400:146|462:120|462:120|407:169|411:243,1,242.999986146927,10|0,0:0|0:0,0:0:0:0:
254,197,39550,5,6,0:0:0:0:
268,190,39636,1,0,0:0:0:0:
283,187,39721,1,2,0:0:0:0:
299,186,39806,1,0,0:0:0:0:
313,193,39891,1,6,0:3:0:0:
154,111,40062,1,2,0:0:0:0:
245,348,40232,1,10,0:0:0:0:
0,260,40403,1,2,0:0:0:0:
80,253,40488,1,0,0:0:0:0:
155,280,40573,1,4,0:3:0:0:
159,306,40744,6,0,P|177:195|73:152,1,242.999986146927,10|0,0:0|0:0,0:0:0:0:
34,0,41084,1,2,0:0:0:0:
28,40,41170,1,0,0:0:0:0:
44,76,41255,1,6,0:3:0:0:
221,5,41425,1,2,0:0:0:0:
490,118,41596,2,0,P|411:81|299:123,1,161.999990764618,10|0,0:0|0:0,0:0:0:0:
361,321,41937,5,4,0:3:0:0:
379,267,42022,1,0,0:0:0:0:
340,225,42107,1,8,0:0:0:0:
293,256,42192,1,0,0:0:0:0:
297,312,42278,6,0,L|435:278,1,80.9999953823091,6|0,0:3|0:0,0:0:0:0:
110,264,42448,1,10,0:0:0:0:
341,324,42619,6,0,L|479:290,1,80.9999953823091,6|0,0:3|0:0,0:0:0:0:
90,189,42789,1,10,0:0:0:0:
384,340,42959,6,0,L|522:306,1,80.9999953823091,6|0,0:3|0:0,0:0:0:0:
35,303,43129,1,10,0:0:0:0:
433,362,43300,6,0,L|571:328,1,80.9999953823091,6|0,0:3|0:0,0:0:0:0:
5,225,43470,1,10,0:0:0:0:
463,104,43641,5,10,0:0:0:0:
0,377,43812,1,10,0:0:0:0:
512,226,43982,1,10,0:0:0:0:
4,72,44153,1,10,0:0:0:0:
446,327,44323,1,10,0:0:0:0:
446,327,44664,6,0,B|359:262|396:173|396:173|298:186|298:186|192:62|69:142,1,431.999988555908,2|0,0:3|0:0,0:0:0:0:
161,345,45005,6,0,P|208:224|96:252,1,215.999987686158,6|8,0:0|0:0,0:0:0:0:
81,176,45261,1,0,0:0:0:0:
6,219,45346,1,6,0:3:0:0:
333,56,45516,1,8,0:0:0:0:
288,129,45601,1,2,0:0:0:0:
257,0,45687,1,6,0:3:0:0:
498,159,45857,2,0,P|441:146|371:176,1,107.999993843079,10|0,0:0|0:0,0:0:0:0:
107,268,46028,1,4,0:3:0:0:
79,316,46113,1,0,0:0:0:0:
106,357,46198,6,0,B|170:367|208:335|208:335|260:362|336:328,1,215.999987686158,10|4,0:0|0:3,0:0:0:0:
512,319,46454,1,0,0:0:0:0:
426,371,46539,2,0,P|409:320|427:270,1,107.999993843079,10|0,0:0|0:0,0:0:0:0:
379,68,46709,1,6,0:3:0:0:
53,79,46880,1,10,0:0:0:0:
137,51,46965,1,0,0:0:0:0:
223,59,47050,2,0,P|337:84|428:154,1,215.999987686158,6|8,0:3|0:0,0:0:0:0:
76,221,47306,1,0,0:0:0:0:
76,184,47391,6,0,P|256:153|435:328,1,431.999988555908,6|0,0:3|0:0,0:0:0:0:
324,347,47732,6,0,P|263:256|159:253,1,215.999987686158,4|8,0:3|0:0,0:0:0:0:
71,365,47988,1,2,0:0:0:0:
168,351,48073,2,0,P|183:306|134:227,1,107.999993843079,6|0,0:3|0:0,0:0:0:0:
89,20,48244,1,8,0:0:0:0:
184,77,48329,1,0,0:0:0:0:
9,91,48414,1,6,0:3:0:0:
304,131,48584,2,0,L|286:17,1,107.999993843079,10|0,0:0|0:0,0:0:0:0:
68,40,48755,1,4,0:3:0:0:
31,62,48840,1,0,0:0:0:0:
0,79,48925,6,0,L|25:268,1,107.999993843079,10|0,0:0|0:0,0:0:0:0:
49,329,49096,1,6,0:3:0:0:
154,348,49181,1,0,0:0:0:0:
226,268,49266,2,0,P|223:200|179:161,1,107.999993843079,10|0,0:0|0:0,0:0:0:0:
77,24,49437,1,6,0:3:0:0:
133,250,49607,1,8,0:0:0:0:
255,4,49778,1,8,0:0:0:0:
8,150,49948,5,6,0:3:0:0:
444,28,50119,1,4,0:3:0:0:
192,288,50289,1,10,0:0:0:0:
300,276,50374,1,0,0:0:0:0:
403,257,50459,6,0,P|416:136|321:77,1,215.999987686158,6|8,0:0|0:0,0:0:0:0:
169,95,50715,1,0,0:0:0:0:
240,47,50800,2,0,P|261:94|233:154,1,107.999993843079,6|0,0:3|0:0,0:0:0:0:
318,384,50971,1,8,0:0:0:0:
394,343,51056,1,2,0:0:0:0:
224,324,51141,1,6,0:3:0:0:
512,201,51312,2,0,P|462:174|397:199,1,107.999993843079,10|0,0:0|0:0,0:0:0:0:
247,144,51482,1,4,0:3:0:0:
300,144,51567,1,0,0:0:0:0:
323,187,51653,6,0,B|346:260|346:260|307:308|307:308|322:405,1,215.999987686158,10|4,0:0|0:3,0:0:0:0:
221,329,51909,1,0,0:0:0:0:
249,247,51994,1,10,0:0:0:0:
442,186,52164,1,6,0:3:0:0:
159,119,52334,1,10,0:0:0:0:
448,85,52505,2,0,B|386:40|335:81|328:81|320:80|283:112|226:65,1,215.999987686158,6|8,0:3|0:0,0:0:0:0:
36,80,52761,1,0,0:0:0:0:
24,112,52846,6,0,B|65:194|201:219|201:219|65:259|21:331,1,431.999988555908,6|0,0:3|0:0,0:0:0:0:
212,328,53187,6,0,P|280:300|348:312,1,107.999993843079,6|0,0:0|0:0,0:0:0:0:
488,372,53357,1,10,0:0:0:0:
288,152,53528,2,0,P|220:124|152:136,1,107.999993843079,6|0,0:3|0:0,0:0:0:0:
4,220,53698,1,10,0:0:0:0:
424,56,53869,5,6,0:3:0:0:
151,310,54039,1,10,0:0:0:0:
312,0,54209,1,6,0:3:0:0:
324,272,54380,1,10,0:0:0:0:
40,88,54550,5,10,0:0:0:0:
147,95,54635,1,8,0:0:0:0:
255,103,54720,1,8,0:0:0:0:
363,111,54805,1,8,0:0:0:0:
470,119,54890,1,8,0:0:0:0:
40,296,55062,5,10,0:0:0:0:
147,288,55147,1,8,0:0:0:0:
255,280,55232,1,8,0:0:0:0:
363,272,55317,1,8,0:0:0:0:
470,264,55402,1,8,0:0:0:0:
344,0,55573,5,10,0:0:0:0:
293,95,55658,1,8,0:0:0:0:
242,190,55743,1,8,0:0:0:0:
191,285,55828,1,8,0:0:0:0:
104,224,55914,6,0,B|176:136|260:200|264:200|268:200|280:232|392:216|396:164|460:52|324:4,1,431.999988555908,6|0,0:0|0:0,0:0:0:0:
237,7,56255,6,0,P|190:82|253:199,1,215.999987686158,6|8,0:3|0:0,0:0:0:0:
250,275,56511,1,2,0:0:0:0:
204,347,56596,1,6,0:3:0:0:
0,191,56766,2,0,P|46:204|114:172,1,107.999993843079,10|0,0:0|0:0,0:0:0:0:
293,95,56937,1,4,0:3:0:0:
66,295,57107,6,0,P|170:263|278:291,1,215.999987686158,10|4,0:0|0:3,0:0:0:0:
512,182,57448,1,10,0:0:0:0:
439,228,57533,1,0,0:0:0:0:
359,194,57618,1,6,0:3:0:0:
332,6,57789,1,10,0:0:0:0:
112,140,57959,2,0,P|216:160|132:100,1,215.999987686158,6|8,0:3|0:0,0:0:0:0:
32,160,58215,1,0,0:0:0:0:
40,196,58300,6,0,P|176:280|284:72,1,431.999988555908,6|0,0:3|0:0,0:0:0:0:
484,4,58641,6,0,B|456:72|456:72|476:140|476:140|428:244,1,215.999987686158,6|8,0:3|0:0,0:0:0:0:
380,292,58897,1,0,0:0:0:0:
440,380,58982,1,6,0:3:0:0:
268,112,59153,1,8,0:0:0:0:
220,208,59238,1,0,0:0:0:0:
160,56,59323,1,6,0:3:0:0:
72,344,59494,2,0,L|197:326,1,107.999993843079,10|0,0:0|0:0,0:0:0:0:
336,204,59664,1,4,0:3:0:0:
14,194,59834,6,0,P|134:174|246:230,1,215.999987686158,10|4,0:0|0:3,0:0:0:0:
295,285,60090,1,0,0:0:0:0:
402,274,60175,2,0,L|448:154,1,107.999993843079,10|0,0:0|0:0,0:0:0:0:
451,374,60346,2,0,B|394:346|352:375|345:377|335:377|291:419|215:351,1,215.999987686158,6|8,0:3|0:0,0:0:0:0:
176,318,60601,1,0,0:0:0:0:
94,349,60687,1,8,0:0:0:0:
145,66,60857,1,6,0:3:0:0:
0,375,61028,1,4,0:3:0:0:
374,132,61198,1,10,0:0:0:0:
421,228,61283,1,0,0:0:0:0:
369,324,61369,6,0,B|293:278|207:313|188:307|184:307|98:320|57:193|57:193|101:217|251:202,1,431.999988555908,6|0,0:0|0:0,0:0:0:0:
243,140,61709,6,0,P|166:10|103:44,1,215.999987686158,6|8,0:3|0:0,0:0:0:0:
72,75,61965,1,2,0:0:0:0:
6,18,62050,1,6,0:3:0:0:
207,217,62221,2,0,P|269:222|318:167,1,107.999993843079,10|0,0:0|0:0,0:0:0:0:
424,57,62391,1,4,0:3:0:0:
452,102,62476,1,0,0:0:0:0:
437,149,62562,6,0,B|382:196|411:242|410:247|410:252|460:289|392:373,1,215.999987686158,10|4,0:0|0:3,0:0:0:0:
148,286,62903,1,10,0:0:0:0:
228,317,62988,1,0,0:0:0:0:
162,373,63073,2,0,L|208:239,1,107.999993843079,6|0,0:3|0:0,0:0:0:0:
186,80,63244,1,10,0:0:0:0:
270,48,63329,1,0,0:0:0:0:
352,94,63414,1,6,0:3:0:0:
162,373,63584,1,8,0:0:0:0:
39,71,63755,6,0,B|140:119|126:236|126:236|246:212|246:212|337:270,1,431.999988555908,6|0,0:3|0:0,0:0:0:0:
248,0,64096,6,0,P|222:61|293:149,1,107.999993843079,6|0,0:0|0:0,0:0:0:0:
459,237,64266,1,10,0:0:0:0:
347,0,64437,2,0,P|373:61|302:149,1,107.999993843079,6|0,0:3|0:0,0:0:0:0:
131,237,64607,1,10,0:0:0:0:
473,97,64778,5,6,0:3:0:0:
94,34,64948,1,10,0:0:0:0:
315,213,65119,1,6,0:3:0:0:
11,280,65289,1,10,0:0:0:0:
341,0,65459,5,10,0:0:0:0:
329,109,65545,1,8,0:0:0:0:
315,216,65630,1,8,0:0:0:0:
286,113,65715,1,8,0:0:0:0:
67,157,65971,5,10,0:0:0:0:
79,266,66057,1,8,0:0:0:0:
93,373,66142,1,8,0:0:0:0:
122,270,66227,1,8,0:0:0:0:
461,161,66482,6,0,B|384:136|327:168|327:168|264:149|264:149|215:197|142:174,1,323.999981529237,10|0,0:0|0:0,0:0:0:0:
69,59,66823,1,4,0:0:0:0:
57,106,77732,6,0,B|124:63|188:119|191:118|196:119|251:148|316:96,1,251.999985633851,6|4,0:3|0:3,0:0:0:0:
299,62,78244,2,0,P|262:45|198:76,1,62.9999964084627,6|0,0:3|0:0,0:0:0:0:
297,201,78414,2,0,P|350:189|391:119,1,125.999992816925,10|0,0:0|0:0,0:0:0:0:
484,13,78755,2,0,L|506:164,1,125.999992816925,6|0,0:3|0:0,0:0:0:0:
512,288,79096,6,0,B|446:260|420:305|413:306|407:308|369:357|312:304,1,188.999989225388,6|0,0:3|0:0,0:0:0:0:
209,229,79437,2,0,P|224:272|184:318,1,62.9999964084627,6|0,0:3|0:0,0:0:0:0:
83,384,79607,2,0,P|68:341|108:295,1,62.9999964084627,6|0,0:3|0:0,0:0:0:0:
153,127,79778,1,10,0:0:0:0:
158,342,79948,1,2,0:0:0:0:
358,241,80119,1,10,0:0:0:0:
41,93,80459,5,2,0:0:0:0:
55,176,80573,1,2,0:0:0:0:
138,167,80687,1,2,0:0:0:0:
218,77,80800,5,6,0:3:0:0:
301,68,80914,1,2,0:0:0:0:
315,151,81028,1,2,0:0:0:0:
339,274,81141,5,10,0:0:0:0:
256,291,81255,2,0,L|228:152,1,125.999992816925,2|0,0:0|0:0,0:0:0:0:
216,76,81482,1,2,0:0:0:0:
128,260,81653,1,0,0:0:0:0:
380,171,81823,2,0,P|455:210|435:305,1,188.999989225388,6|0,0:3|0:0,0:0:0:0:
439,339,82164,2,0,B|398:372|398:372|274:359,1,125.999992816925,2|0,0:0|0:0,0:0:0:0:
293,345,82391,1,2,0:0:0:0:
167,384,82505,2,0,P|187:328|138:262,1,125.999992816925,6|0,0:3|0:0,0:0:0:0:
0,191,82846,1,10,0:0:0:0:
228,1,83016,1,10,0:0:0:0:
33,89,83187,6,0,B|85:49|146:75|147:75|151:74|212:155|288:84,1,251.999985633851,6|0,0:3|0:0,0:0:0:0:
361,22,83698,1,6,0:3:0:0:
468,155,83869,2,0,P|396:159|358:238,1,125.999992816925,10|0,0:0|0:0,0:0:0:0:
283,384,84209,1,6,0:3:0:0:
145,215,84380,1,6,0:3:0:0:
6,337,84550,2,0,B|93:315|93:315|247:340,1,188.999989225388,6|0,0:3|0:0,0:0:0:0:
208,343,84891,2,0,P|124:287|189:194,1,188.999989225388,6|0,0:3|0:0,0:0:0:0:
144,36,85232,2,0,L|125:143,1,62.9999964084627,10|0,0:0|0:0,0:0:0:0:
48,164,85403,1,10,0:0:0:0:
49,113,85488,1,10,0:0:0:0:
49,62,85573,1,10,0:0:0:0:
8,192,85914,6,0,P|140:160|276:212,1,215.999987686158,6|0,0:0|0:0,0:0:0:0:
316,220,86170,1,0,0:0:0:0:
416,176,86255,1,4,0:3:0:0:
176,76,86425,1,10,0:0:0:0:
228,324,86596,1,6,0:3:0:0:
272,56,86766,1,8,0:0:0:0:
120,344,86937,1,6,0:3:0:0:
408,288,87107,1,10,0:0:0:0:
48,236,87278,5,6,0:3:0:0:
56,204,87363,1,0,0:0:0:0:
132,240,87448,1,8,0:0:0:0:
140,272,87533,1,0,0:0:0:0:
220,224,87619,5,6,0:3:0:0:
228,192,87704,1,0,0:0:0:0:
304,228,87789,1,8,0:0:0:0:
312,260,87874,1,0,0:0:0:0:
392,208,87959,5,6,0:3:0:0:
400,176,88044,1,0,0:0:0:0:
476,212,88129,1,8,0:0:0:0:
484,244,88214,1,0,0:0:0:0:
424,320,88300,5,6,0:3:0:0:
360,76,88471,1,8,0:0:0:0:
0,244,88641,2,0,B|100:196|100:196|203:230,1,215.999987686158,6|8,0:3|0:0,0:0:0:0:
424,320,88982,1,6,0:3:0:0:
235,52,89153,1,8,0:0:0:0:
191,82,89238,1,0,0:0:0:0:
167,130,89323,1,6,0:3:0:0:
171,184,89408,1,0,0:0:0:0:
199,229,89493,1,10,0:0:0:0:
246,254,89579,1,0,0:0:0:0:
300,253,89664,1,4,0:3:0:0:
343,220,89749,1,0,0:0:0:0:
359,168,89834,6,0,B|276:148|276:148|148:196|148:196|32:172,1,323.999981529237,10|0,0:0|0:0,0:0:0:0:
32,136,90175,1,2,0:0:0:0:
32,136,90261,1,2,0:0:0:0:
136,104,90346,1,10,0:0:0:0:
268,264,90516,5,6,0:3:0:0:
228,364,90601,1,2,0:0:0:0:
184,220,90687,1,10,0:0:0:0:
416,72,90857,5,6,0:3:0:0:
456,172,90942,1,2,0:0:0:0:
500,28,91028,2,0,P|440:48|368:-4,1,107.999993843079,10|0,0:0|0:0,0:0:0:0:
172,0,91198,2,0,P|219:41|210:130,1,107.999993843079,6|0,0:3|0:0,0:0:0:0:
120,312,91369,5,10,0:0:0:0:
428,172,91539,1,6,0:3:0:0:
428,172,91624,1,0,0:0:0:0:
376,264,91709,1,10,0:0:0:0:
128,44,91880,1,6,0:3:0:0:
178,27,91965,1,0,0:0:0:0:
230,40,92050,1,10,0:0:0:0:
267,77,92135,1,0,0:0:0:0:
280,129,92220,1,6,0:3:0:0:
262,180,92306,1,0,0:0:0:0:
221,214,92391,1,10,0:0:0:0:
168,221,92476,1,0,0:0:0:0:
120,200,92562,6,0,B|203:180|203:180|331:228|331:228|447:204,1,323.999981529237,6|0,0:3|0:0,0:0:0:0:
447,168,92903,1,6,0:3:0:0:
447,168,92989,1,2,0:0:0:0:
343,136,93074,1,10,0:0:0:0:
210,303,93244,1,6,0:3:0:0:
111,279,93329,1,2,0:0:0:0:
252,384,93414,1,10,0:0:0:0:
31,225,93584,6,0,B|63:169|55:109|55:109|63:169|159:193,1,215.999987686158,6|0,0:3|0:0,0:0:0:0:
135,205,93925,2,0,L|143:73,1,107.999993843079,6|0,0:3|0:0,0:0:0:0:
88,24,94096,5,10,0:0:0:0:
336,204,94266,1,6,0:3:0:0:
70,312,94437,1,10,0:0:0:0:
178,308,94522,1,2,0:0:0:0:
286,303,94607,1,6,0:3:0:0:
64,128,94778,1,10,0:0:0:0:
392,24,94948,1,6,0:3:0:0:
356,114,95033,1,2,0:0:0:0:
321,205,95119,1,10,0:0:0:0:
490,324,95289,6,0,B|450:292|450:292|270:304,1,215.999987686158,6|0,0:0|0:0,0:0:0:0:
212,372,95630,1,10,0:0:0:0:
413,217,95800,1,6,0:3:0:0:
136,144,95971,1,10,0:0:0:0:
484,12,96141,1,6,0:3:0:0:
212,32,96312,1,10,0:0:0:0:
456,124,96482,1,6,0:3:0:0:
224,244,96653,1,10,0:0:0:0:
444,324,96823,5,6,0:3:0:0:
408,363,96908,1,0,0:0:0:0:
357,375,96993,1,8,0:0:0:0:
308,355,97078,1,0,0:0:0:0:
208,384,97164,5,6,0:3:0:0:
161,340,97249,1,0,0:0:0:0:
146,279,97334,1,8,0:0:0:0:
170,220,97419,1,0,0:0:0:0:
112,128,97505,5,6,0:3:0:0:
163,71,97590,1,0,0:0:0:0:
237,54,97675,1,8,0:0:0:0:
307,83,97760,1,0,0:0:0:0:
424,36,97846,5,6,0:3:0:0:
492,97,97931,1,0,0:0:0:0:
512,186,98016,1,8,0:0:0:0:
478,270,98101,1,0,0:0:0:0:
388,344,98187,5,10,0:3:0:0:
360,264,98272,1,8,0:3:0:0:
336,264,98357,1,8,0:0:0:0:
248,304,98442,5,8,0:3:0:0:
263,220,98527,1,8,0:3:0:0:
242,208,98612,1,8,0:3:0:0:
146,199,98698,5,8,0:0:0:0:
201,134,98783,1,8,0:3:0:0:
156,284,98868,5,4,0:3:0:0:
148,304,99039,1,10,0:0:0:0:
140,324,99209,1,6,0:3:0:0:
132,344,99380,1,10,0:0:0:0:
224,32,99550,5,14,0:0:0:0:
280,212,99721,1,2,0:0:0:0:
120,72,99891,1,6,0:3:0:0:
120,72,100062,1,0,0:0:0:0:
108,120,100147,1,0,0:0:0:0:
136,160,100232,2,0,B|192:144|192:144|252:156|252:156|297:145,1,161.999990764618,8|0,0:0|0:0,0:0:0:0:
376,120,100573,1,2,0:0:0:0:
364,143,100744,6,0,B|308:191|252:147|248:147|244:147|180:103|120:175,1,242.999986146927,10|0,0:0|0:0,0:0:0:0:
40,368,101084,1,2,0:0:0:0:
196,224,101255,1,6,0:3:0:0:
68,52,101425,1,2,0:0:0:0:
108,80,101511,1,0,0:0:0:0:
156,68,101596,1,10,0:0:0:0:
24,208,101766,1,2,0:0:0:0:
364,136,101937,1,10,0:0:0:0:
240,372,102107,1,2,0:0:0:0:
236,24,102278,5,6,0:3:0:0:
256,188,102448,5,2,0:0:0:0:
256,188,102533,1,2,0:0:0:0:
332,220,102619,1,6,0:3:0:0:
184,152,102789,5,2,0:0:0:0:
184,152,102874,1,2,0:0:0:0:
120,204,102960,1,6,0:3:0:0:
252,108,103130,5,2,0:0:0:0:
252,108,103215,1,2,0:0:0:0:
232,28,103301,1,6,0:3:0:0:
283,324,103471,1,6,0:3:0:0:
500,80,103641,5,4,0:3:0:0:
482,96,103726,1,0,0:0:0:0:
452,109,103812,1,6,0:3:0:0:
412,114,103897,1,2,0:0:0:0:
365,107,103982,1,6,0:3:0:0:
319,76,104067,1,0,0:0:0:0:
254,72,104153,1,6,0:3:0:0:
209,129,104238,1,0,0:0:0:0:
228,208,104323,6,0,P|268:213|332:192,1,80.9999953823091,10|0,0:0|0:0,0:0:0:0:
192,300,104494,2,0,P|151:294|88:316,1,80.9999953823091,10|0,0:0|0:0,0:0:0:0:
288,384,104664,1,10,0:0:0:0:
404,28,104834,1,8,0:0:0:0:
44,192,105005,5,8,0:3:0:0:
304,128,105175,1,0,0:0:0:0:
44,192,105346,1,6,0:3:0:0:
392,108,105516,1,0,0:0:0:0:
44,192,105687,1,6,0:3:0:0:
216,150,105857,1,0,0:0:0:0:
44,192,106028,1,6,0:3:0:0:
296,28,106198,1,2,0:0:0:0:
169,324,106369,5,4,0:3:0:0:
233,176,106539,1,2,0:0:0:0:
201,250,106624,1,2,0:0:0:0:
169,324,106709,1,6,0:3:0:0:
265,101,106880,1,2,0:0:0:0:
169,324,107050,1,6,0:3:0:0:
296,28,107221,1,2,0:0:0:0:
169,324,107391,1,6,0:3:0:0:
233,176,107562,1,2,0:0:0:0:
414,346,107732,5,6,0:3:0:0:
414,346,107903,1,2,0:0:0:0:
97,254,108073,1,6,0:3:0:0:
97,254,108244,1,2,0:0:0:0:
414,346,108414,1,6,0:3:0:0:
97,254,108584,1,2,0:0:0:0:
184,279,108670,1,2,0:0:0:0:
264,302,108755,1,6,0:3:0:0:
324,80,108925,1,0,0:0:0:0:
324,80,109011,1,0,0:0:0:0:
271,8,109096,5,12,0:3:0:0:
255,26,109181,1,8,0:3:0:0:
242,56,109267,1,10,0:3:0:0:
237,96,109352,1,8,0:3:0:0:
259,139,109437,1,14,0:3:0:0:
296,181,109522,1,8,0:3:0:0:
311,252,109608,1,10,0:3:0:0:
268,320,109693,1,8,0:3:0:0:
179,311,109778,2,4,L|170:203,1,80.9999953823091,6|4,0:3|0:3,0:3:0:0:
211,178,109948,2,4,L|207:264,1,80.9999953823091,6|4,0:3|0:3,0:3:0:0:
343,383,110119,2,0,L|325:172,1,161.999990764618,2|0,0:3|0:0,0:0:0:0:
265,74,110459,5,6,0:0:0:0:
252,84,110544,1,0,0:0:0:0:
249,99,110629,1,2,0:0:0:0:
253,114,110714,1,0,0:0:0:0:
265,124,110799,1,6,0:3:0:0:
334,2,110971,1,2,0:0:0:0:
134,95,111141,1,10,0:0:0:0:
366,87,111311,1,2,0:3:0:0:
403,158,111396,1,0,0:3:0:0:
432,234,111482,1,4,0:3:0:0:
440,259,111652,6,0,B|375:239|375:239|287:259|287:259|204:233,1,242.999986146927,10|0,0:0|0:0,0:0:0:0:
48,314,111993,1,2,0:0:0:0:
72,312,112078,1,0,0:0:0:0:
96,311,112163,1,6,0:3:0:0:
122,129,112334,1,2,0:0:0:0:
169,361,112504,1,10,0:0:0:0:
279,133,112675,1,2,0:0:0:0:
300,122,112760,1,0,0:0:0:0:
322,130,112845,2,0,B|306:179|306:179|327:234|327:234|313:300,1,161.999990764618,10|0,0:0|0:0,0:0:0:0:
435,122,113187,5,6,0:0:0:0:
435,105,113272,1,0,0:0:0:0:
433,88,113357,1,2,0:0:0:0:
424,74,113442,1,0,0:0:0:0:
411,63,113527,1,6,0:3:0:0:
214,159,113697,1,2,0:0:0:0:
446,249,113868,1,10,0:0:0:0:
204,378,114038,1,2,0:0:0:0:
123,363,114124,1,0,0:0:0:0:
44,344,114209,1,4,0:3:0:0:
17,338,114380,6,0,B|41:254|41:254|31:219|31:219|46:160|46:160|139:217,1,242.999986146927,10|0,0:0|0:0,0:0:0:0:
261,92,114720,1,2,0:0:0:0:
277,128,114805,1,0,0:0:0:0:
258,164,114891,1,6,0:3:0:0:
158,54,115061,1,2,0:0:0:0:
151,259,115232,1,6,0:3:0:0:
169,313,115317,1,0,0:0:0:0:
226,313,115402,1,2,0:0:0:0:
243,259,115487,1,0,0:0:0:0:
197,226,115573,6,0,B|235:278|209:340|209:340|258:285|332:289,1,242.999986146927,10|0,0:0|0:0,0:0:0:0:
449,169,115914,5,6,0:0:0:0:
446,153,115999,1,0,0:0:0:0:
436,140,116084,1,2,0:0:0:0:
425,130,116170,1,0,0:0:0:0:
411,122,116255,1,6,0:3:0:0:
263,227,116425,1,2,0:0:0:0:
145,49,116596,1,10,0:0:0:0:
6,190,116766,1,2,0:0:0:0:
80,231,116851,1,0,0:0:0:0:
155,204,116936,1,4,0:3:0:0:
159,178,117107,6,0,P|121:259|245:313,1,242.999986146927,10|0,0:0|0:0,0:0:0:0:
361,235,117447,1,2,0:0:0:0:
400,225,117533,1,0,0:0:0:0:
435,244,117618,1,6,0:3:0:0:
308,364,117788,1,2,0:0:0:0:
244,202,117959,2,0,L|234:27,1,161.999990764618,10|0,0:0|0:0,0:0:0:0:
85,253,118300,5,4,0:3:0:0:
67,199,118385,1,0,0:0:0:0:
106,157,118470,1,8,0:0:0:0:
153,188,118555,1,0,0:0:0:0:
148,244,118641,6,0,L|10:210,1,80.9999953823091,6|0,0:3|0:0,0:0:0:0:
246,207,118811,1,10,0:0:0:0:
246,207,118897,1,2,0:0:0:0:
203,303,118982,6,0,L|81:376,1,80.9999953823091,6|0,0:3|0:0,0:0:0:0:
246,207,119152,1,10,0:0:0:0:
246,207,119238,1,2,0:0:0:0:
284,306,119323,6,0,L|250:444,1,80.9999953823091,6|0,0:3|0:0,0:0:0:0:
246,207,119493,1,10,0:0:0:0:
246,207,119579,1,2,0:0:0:0:
343,251,119664,6,0,L|416:372,1,80.9999953823091,6|0,0:3|0:0,0:0:0:0:
246,207,119834,1,10,0:0:0:0:
246,207,119920,1,2,0:0:0:0:
275,111,120004,5,10,0:0:0:0:
489,384,120175,1,10,0:0:0:0:
78,147,120345,1,10,0:0:0:0:
512,257,120516,1,10,0:0:0:0:
19,335,120686,1,10,0:0:0:0:
451,164,121028,2,0,B|401:183|375:159|375:159|303:213|303:213|250:182|202:220,1,242.999986146927,10|0,0:0|0:0,0:0:0:0:
201,298,121369,6,0,B|261:245|300:304|306:306|314:309|376:388|486:347|468:278|338:205|305:321|303:380|268:410|188:363,1,431.999988555908,14|0,0:0|0:0,0:0:0:0:
92,372,122562,2,0,B|28:262|127:209|129:201|130:188|190:62|130:25|58:0|-15:102|45:188,1,503.99998664856,14|0,0:0|0:0,0:0:0:0:
266,268,124096,2,0,B|323:178|413:186|413:186|324:180|271:56,1,359.999990463257,14|0,0:0|0:0,0:0:0:0:
118,53,125289,6,0,P|93:155|235:159,1,287.999992370606,12|0,0:0|0:0,0:0:0:0:
215,63,126141,1,4,0:3:0:0:
190,91,126226,1,4,0:3:0:0:
165,118,126312,1,4,0:3:0:0:
32,293,126482,1,4,0:3:0:0:
125,274,126653,1,4,0:3:0:0:
263,364,126823,5,6,0:0:0:0:
191,170,126994,1,0,0:0:0:0:
103,361,127164,1,6,0:3:0:0:
369,242,127334,1,0,0:0:0:0:
330,256,127420,1,0,0:0:0:0:
296,233,127505,1,10,0:0:0:0:
365,74,127675,1,10,0:0:0:0:
365,74,127846,1,4,0:3:0:0:
365,74,128016,6,0,B|280:136|197:82|197:82|141:148|60:138,1,323.999981529237,10|2,0:0|0:0,0:0:0:0:
216,207,128528,1,6,0:3:0:0:
91,18,128698,1,6,0:3:0:0:
34,266,128869,2,0,P|21:176|88:137,1,161.999990764618,10|0,0:0|0:0,0:0:0:0:
219,205,129124,1,0,0:0:0:0:
266,180,129209,6,0,B|291:112|240:41|240:41|337:97|414:49,1,323.999981529237,10|0,0:0|0:0,0:0:0:0:
483,4,129550,1,6,0:3:0:0:
453,219,129721,1,2,0:0:0:0:
160,133,129891,1,6,0:3:0:0:
228,379,130062,1,2,0:0:0:0:
242,43,130232,5,6,0:3:0:0:
145,351,130403,1,2,0:0:0:0:
333,161,130573,1,6,0:3:0:0:
104,74,130744,1,2,0:0:0:0:
385,291,130914,5,10,0:0:0:0:
309,261,130999,1,8,0:0:0:0:
229,250,131084,1,8,0:0:0:0:
149,256,131169,1,8,0:0:0:0:
70,276,131254,1,8,0:0:0:0:
385,93,131425,5,10,0:0:0:0:
309,122,131510,1,8,0:0:0:0:
229,133,131595,1,8,0:0:0:0:
149,127,131680,1,8,0:0:0:0:
70,107,131765,1,8,0:0:0:0:
472,28,131937,5,10,0:0:0:0:
501,103,132022,1,8,0:0:0:0:
512,183,132107,1,8,0:0:0:0:
506,263,132192,1,8,0:0:0:0:
484,340,132278,6,0,P|380:294|256:319,1,215.999987686158,6|8,0:0|0:0,0:0:0:0:
201,341,132534,1,0,0:0:0:0:
119,313,132619,1,6,0:3:0:0:
112,92,132789,1,8,0:0:0:0:
196,76,132874,1,2,0:0:0:0:
59,182,132960,1,6,0:3:0:0:
303,0,133130,2,0,L|351:117,1,107.999993843079,10|0,0:0|0:0,0:0:0:0:
505,228,133301,1,4,0:3:0:0:
457,256,133386,1,0,0:0:0:0:
416,229,133471,6,0,B|391:167|438:135|438:130|438:125|468:52|392:7,1,215.999987686158,10|4,0:0|0:3,0:0:0:0:
64,16,133812,1,10,0:0:0:0:
27,105,133897,1,0,0:0:0:0:
63,194,133982,1,6,0:3:0:0:
327,239,134153,1,10,0:0:0:0:
251,196,134238,1,0,0:0:0:0:
167,216,134323,2,0,B|126:276|126:276|49:282|49:282|69:376,1,215.999987686158,6|8,0:3|0:0,0:0:0:0:
442,364,134579,1,0,0:0:0:0:
470,339,134664,6,0,B|338:175|338:175|189:389,1,431.999988555908,6|0,0:3|0:0,0:0:0:0:
505,202,135005,6,0,L|368:25,1,215.999987686158,4|8,0:3|0:0,0:0:0:0:
198,49,135261,1,2,0:0:0:0:
264,0,135346,2,0,P|288:43|240:108,1,107.999993843079,6|0,0:3|0:0,0:0:0:0:
65,204,135517,1,8,0:0:0:0:
173,245,135601,1,2,0:0:0:0:
0,302,135687,1,6,0:3:0:0:
249,120,135857,2,0,L|269:235,1,107.999993843079,10|0,0:0|0:0,0:0:0:0:
420,348,136028,1,4,0:3:0:0:
472,359,136113,1,0,0:0:0:0:
511,366,136198,6,0,P|516:301|485:230,1,107.999993843079,10|0,0:0|0:0,0:0:0:0:
376,78,136369,2,0,P|362:130|368:183,1,107.999993843079,4|0,0:3|0:0,0:0:0:0:
330,329,136539,1,10,0:0:0:0:
306,246,136624,1,0,0:0:0:0:
246,310,136710,1,6,0:3:0:0:
480,110,136880,1,10,0:0:0:0:
118,72,137051,1,10,0:0:0:0:
417,42,137221,5,6,0:3:0:0:
152,328,137392,1,4,0:3:0:0:
392,143,137562,1,10,0:0:0:0:
364,248,137647,1,0,0:0:0:0:
329,347,137732,6,0,P|265:288|301:165,1,215.999987686158,6|8,0:0|0:0,0:0:0:0:
312,88,137988,1,0,0:0:0:0:
253,25,138073,2,0,L|107:58,1,107.999993843079,6|0,0:3|0:0,0:0:0:0:
456,229,138244,1,8,0:0:0:0:
478,142,138329,1,2,0:0:0:0:
365,248,138414,1,6,0:3:0:0:
509,10,138584,2,0,L|364:12,1,107.999993843079,10|0,0:0|0:0,0:0:0:0:
203,33,138755,1,4,0:3:0:0:
151,48,138840,1,0,0:0:0:0:
98,62,138926,6,0,B|63:177|63:177|99:280,1,215.999987686158,10|4,0:0|0:3,0:0:0:0:
186,280,139181,1,0,0:0:0:0:
160,197,139266,1,10,0:0:0:0:
344,375,139437,1,6,0:3:0:0:
480,170,139607,1,10,0:0:0:0:
164,60,139778,2,0,B|226:15|277:56|284:56|292:55|329:87|386:40,1,215.999987686158,6|8,0:3|0:0,0:0:0:0:
506,278,140034,1,0,0:0:0:0:
506,323,140119,6,0,B|452:224|330:231|330:231|368:102|525:149,1,431.999988555908,6|0,0:3|0:0,0:0:0:0:
410,352,140460,6,0,P|341:326|274:336,1,107.999993843079,6|0,0:3|0:0,0:0:0:0:
98,378,140630,1,10,0:0:0:0:
202,123,140800,2,0,P|274:110|338:133,1,107.999993843079,6|0,0:3|0:0,0:0:0:0:
503,208,140970,1,10,0:0:0:0:
207,382,141142,5,6,0:3:0:0:
472,120,141312,1,10,0:0:0:0:
90,64,141482,1,6,0:3:0:0:
475,311,141653,1,10,0:0:0:0:
188,384,141823,5,10,0:0:0:0:
131,291,141908,1,8,0:0:0:0:
70,202,141993,1,8,0:0:0:0:
130,113,142079,1,8,0:0:0:0:
324,384,142334,5,10,0:0:0:0:
381,291,142419,1,8,0:0:0:0:
442,202,142504,1,8,0:0:0:0:
382,113,142590,1,8,0:0:0:0:
23,289,142846,6,0,B|27:321|97:345|202:325|220:214|220:214|265:304|265:304|332:278|381:291,1,485.999972293855,10|8,0:0|0:0,0:0:0:0:
450,165,143187,6,0,P|379:202|300:101,1,215.999987686158,6|8,0:0|0:0,0:0:0:0:
306,28,143443,1,0,0:0:0:0:
390,12,143528,2,0,L|376:135,1,107.999993843079,6|0,0:3|0:0,0:0:0:0:
182,141,143698,1,8,0:0:0:0:
96,131,143783,1,2,0:0:0:0:
225,244,143869,1,6,0:3:0:0:
111,27,144039,1,10,0:0:0:0:
27,249,144209,1,4,0:3:0:0:
21,302,144294,1,0,0:0:0:0:
39,352,144379,6,0,B|85:368|85:368|117:333|117:333|189:377|279:332,1,215.999987686158,10|4,0:0|0:3,0:0:0:0:
401,310,144636,1,0,0:0:0:0:
345,376,144721,2,0,P|315:319|347:252,1,107.999993843079,10|0,0:0|0:0,0:0:0:0:
489,134,144890,1,6,0:3:0:0:
203,246,145061,1,10,0:0:0:0:
116,238,145146,1,0,0:0:0:0:
63,170,145232,2,0,B|71:29|71:29|111:107|202:91,1,215.999987686158,6|8,0:3|0:0,0:0:0:0:
373,130,145488,1,0,0:0:0:0:
379,79,145573,6,0,P|205:112|334:220,1,431.999988555908,6|0,0:3|0:0,0:0:0:0:
512,363,145913,6,0,B|420:255|420:255|311:411,1,287.999992370606,4|8,0:3|0:0,0:0:0:0:
228,352,146169,1,2,0:0:0:0:
121,373,146255,2,0,P|118:318|184:260,1,107.999993843079,6|0,0:3|0:0,0:0:0:0:
301,136,146425,1,8,0:0:0:0:
276,237,146511,1,2,0:0:0:0:
212,81,146595,1,6,0:3:0:0:
10,384,146766,2,0,L|23:263,1,107.999993843079,10|0,0:0|0:0,0:0:0:0:
157,180,146936,1,4,0:3:0:0:
209,168,147021,1,0,0:0:0:0:
260,185,147106,6,0,P|312:197|394:158,1,107.999993843079,10|0,0:0|0:0,0:0:0:0:
512,0,147278,2,0,P|475:39|468:129,1,107.999993843079,6|0,0:3|0:0,0:0:0:0:
503,217,147447,1,10,0:0:0:0:
512,302,147532,1,0,0:0:0:0:
454,366,147618,1,6,0:3:0:0:
362,68,147788,1,10,0:0:0:0:
41,266,147959,1,10,0:0:0:0:
270,17,148129,5,4,0:3:0:0:
341,369,148300,1,4,0:3:0:0:
53,149,148470,1,10,0:0:0:0:
149,101,148555,1,0,0:0:0:0:
248,141,148641,6,0,B|346:198|346:198|494:132,1,215.999987686158,6|8,0:0|0:0,0:0:0:0:
436,69,148897,1,0,0:0:0:0:
353,94,148982,1,6,0:3:0:0:
153,310,149153,1,8,0:0:0:0:
178,229,149238,1,2,0:0:0:0:
239,384,149323,1,6,0:3:0:0:
78,97,149494,2,0,P|130:102|196:69,1,107.999993843079,10|0,0:0|0:0,0:0:0:0:
449,22,149663,1,4,0:3:0:0:
470,71,149748,1,0,0:0:0:0:
457,123,149834,6,0,B|417:130|385:108|385:108|346:139|346:139|305:109|239:139,1,215.999987686158,10|4,0:0|0:3,0:0:0:0:
201,241,150090,1,0,0:0:0:0:
291,216,150175,1,10,0:0:0:0:
129,33,150345,1,6,0:3:0:0:
16,282,150515,1,10,0:0:0:0:
306,367,150686,2,0,B|368:322|419:363|426:363|434:362|471:394|528:347,1,215.999987686158,6|8,0:3|0:0,0:0:0:0:
433,104,150942,1,0,0:0:0:0:
389,83,151028,6,0,B|383:174|267:250|267:250|408:234|477:283,1,431.999988555908,6|0,0:3|0:0,0:0:0:0:
510,112,151369,6,0,P|482:44|494:-24,1,107.999993843079,6|0,0:3|0:0,0:0:0:0:
392,349,151538,1,10,0:0:0:0:
143,119,151709,2,0,P|171:51|159:-17,1,107.999993843079,6|0,0:3|0:0,0:0:0:0:
263,354,151879,1,10,0:0:0:0:
475,189,152050,5,6,0:3:0:0:
28,271,152220,1,10,0:0:0:0:
461,52,152390,1,6,0:3:0:0:
134,355,152561,1,10,0:0:0:0:
472,296,152732,5,10,0:0:0:0:
365,289,152817,1,8,0:0:0:0:
257,281,152903,1,8,0:0:0:0:
149,273,152988,1,8,0:0:0:0:
42,265,153073,1,8,0:0:0:0:
472,88,153244,5,10,0:0:0:0:
365,96,153329,1,8,0:0:0:0:
257,104,153414,1,8,0:0:0:0:
149,112,153499,1,8,0:0:0:0:
42,120,153584,1,8,0:0:0:0:
168,384,153755,5,10,0:0:0:0:
219,289,153840,1,8,0:0:0:0:
270,194,153925,1,8,0:0:0:0:
321,99,154010,1,8,0:0:0:0:
408,160,154096,6,0,B|336:248|252:184|248:184|244:184|232:152|120:168|116:220|52:332|188:380,1,431.999988555908,6|0,0:0|0:0,0:0:0:0:
270,377,154437,6,0,P|317:302|254:185,1,215.999987686158,6|8,0:3|0:0,0:0:0:0:
268,106,154693,1,0,0:0:0:0:
313,33,154778,2,0,P|373:22|434:79,1,107.999993843079,6|0,0:3|0:0,0:0:0:0:
471,257,154948,1,8,0:0:0:0:
228,29,155119,1,6,0:3:0:0:
88,384,155289,6,0,P|120:280|69:188,1,215.999987686158,10|4,0:0|0:3,0:0:0:0:
313,33,155630,1,10,0:0:0:0:
275,108,155715,1,0,0:0:0:0:
308,187,155800,1,4,0:3:0:0:
492,377,155971,1,10,0:0:0:0:
136,322,156141,2,0,B|290:301|290:301|242:371,1,215.999987686158,6|10,0:3|0:0,0:0:0:0:
52,252,156397,1,0,0:0:0:0:
76,234,156482,6,0,B|419:189|419:189|306:339,1,431.999988555908,6|0,0:3|0:0,0:0:0:0:
512,84,156823,6,0,B|222:118,1,215.999987686158,6|8,0:3|0:0,0:0:0:0:
189,121,157079,1,2,0:0:0:0:
121,36,157164,2,0,L|302:14,1,107.999993843079,6|0,0:3|0:0,0:0:0:0:
20,306,157334,1,10,0:0:0:0:
99,380,157419,1,0,0:0:0:0:
14,194,157505,1,6,0:3:0:0:
279,384,157675,2,0,L|299:248,1,107.999993843079,10|0,0:0|0:0,0:0:0:0:
329,16,157846,1,4,0:3:0:0:
499,263,158016,6,0,P|379:243|267:299,1,215.999987686158,10|4,0:0|0:3,0:0:0:0:
197,333,158272,1,0,0:0:0:0:
115,262,158357,2,0,L|115:136,1,107.999993843079,10|0,0:0|0:0,0:0:0:0:
197,13,158528,1,6,0:3:0:0:
399,283,158698,1,10,0:0:0:0:
339,193,158783,1,0,0:0:0:0:
370,88,158869,1,6,0:3:0:0:
507,366,159039,5,8,0:0:0:0:
18,168,159210,1,8,0:0:0:0:
462,0,159380,1,6,0:3:0:0:
509,96,159465,1,0,0:0:0:0:
456,192,159551,6,0,B|380:146|294:181|275:175|271:175|185:188|144:61|144:61|188:85|338:70,1,431.999988555908,6|0,0:3|0:0,0:0:0:0:
274,273,159891,6,0,P|183:259|93:174,1,215.999987686158,6|8,0:3|0:0,0:0:0:0:
62,97,160147,1,2,0:0:0:0:
75,11,160232,2,0,L|196:46,1,107.999993843079,6|0,0:3|0:0,0:0:0:0:
18,315,160403,1,10,0:0:0:0:
269,111,160573,1,4,0:3:0:0:
322,106,160658,1,0,0:0:0:0:
374,121,160744,6,0,P|424:213|341:323,1,215.999987686158,10|4,0:0|0:3,0:0:0:0:
272,334,161000,1,2,0:0:0:0:
191,262,161084,2,0,L|205:129,1,107.999993843079,10|0,0:0|0:0,0:0:0:0:
505,44,161255,1,6,0:3:0:0:
501,381,161426,1,10,0:0:0:0:
304,215,161596,2,0,L|98:102,1,215.999987686158,6|8,0:3|0:0,0:0:0:0:
36,333,161851,1,0,0:0:0:0:
41,384,161937,6,0,B|147:364|205:274|205:274|321:355|411:237,1,431.999988555908,6|0,0:3|0:0,0:0:0:0:
461,81,162278,5,6,0:3:0:0:
375,91,162363,1,6,0:3:0:0:
289,104,162448,1,10,0:0:0:0:
203,115,162533,1,6,0:3:0:0:
278,18,162619,5,6,0:3:0:0:
289,104,162704,1,2,0:0:0:0:
302,190,162789,1,10,0:0:0:0:
312,276,162874,1,6,0:3:0:0:
216,200,162959,5,6,0:3:0:0:
302,190,163044,1,6,0:3:0:0:
388,177,163129,1,10,0:0:0:0:
474,166,163214,1,6,0:3:0:0:
398,91,163300,5,6,0:3:0:0:
388,177,163385,1,6,0:3:0:0:
375,263,163470,1,10,0:0:0:0:
364,349,163555,1,6,0:3:0:0:
293,297,163641,5,10,0:0:0:0:
445,316,163727,1,8,0:0:0:0:
306,213,163812,1,8,0:0:0:0:
458,232,163898,1,8,0:0:0:0:
175,61,164153,5,10,0:0:0:0:
23,42,164239,1,8,0:0:0:0:
162,145,164324,1,8,0:0:0:0:
10,126,164408,1,8,0:0:0:0:
512,243,164664,6,0,B|437:254|360:232|360:232|297:296|297:296|216:217|89:267,1,431.999988555908,2|0,0:0|0:0,0:0:0:0:
8,125,165005,2,0,P|68:132|170:95,1,107.999993843079,6|4,0:3|0:3,0:0:0:0:
337,16,165175,1,10,0:0:0:0:
512,244,165346,2,0,P|452:237|350:274,1,107.999993843079,6|4,0:3|0:3,0:0:0:0:
183,353,165516,1,10,0:0:0:0:
180,45,165687,1,10,0:0:0:0:
222,155,165772,1,10,0:0:0:0:
74,58,165857,6,0,P|133:78|198:58,1,107.999993843079,10|8,0:3|0:3,0:0:0:0:
413,25,166028,2,0,P|366:66|351:132,1,107.999993843079,10|8,0:0|0:0,0:0:0:0:
272,335,166198,2,0,P|259:273|210:227,1,107.999993843079,6|4,0:3|0:3,0:0:0:0:
66,330,166369,6,0,P|164:291|120:383,1,198.000000797272,4|2,0:0|0:0,0:0:0:0:
7,228,166624,1,0,0:0:0:0:
0,191,166710,2,0,B|39:156|48:101|48:101|63:162|152:184,1,198.000000797272,8|2,0:0|0:0,0:0:0:0:
353,122,167051,1,6,0:3:0:0:
372,66,167136,1,2,0:0:0:0:
337,18,167221,2,0,P|267:25|243:82,1,99.0000003986359,6|0,0:3|0:0,0:0:0:0:
348,202,167392,2,0,L|467:179,1,99.0000003986359,10|0,0:0|0:0,0:0:0:0:
286,350,167562,2,0,B|65:356,1,198.000000797272,6|0,0:3|0:0,0:0:0:0:
0,148,167903,1,6,0:3:0:0:
53,123,167988,1,2,0:0:0:0:
110,140,168074,1,10,0:0:0:0:
259,243,168244,1,6,0:3:0:0:
450,73,168414,5,2,0:0:0:0:
407,145,168500,1,2,0:0:0:0:
394,5,168584,1,6,0:3:0:0:
506,244,168755,1,10,0:0:0:0:
232,137,168926,1,2,0:0:0:0:
297,376,169096,6,0,B|91:343,1,198.000000797272,6|2,0:0|0:0,0:0:0:0:
45,171,169352,1,2,0:0:0:0:
68,153,169437,2,0,P|144:211|54:239,1,198.000000797272,10|2,0:0|0:0,0:0:0:0:
251,137,169778,1,6,0:3:0:0:
297,121,169863,1,2,0:0:0:0:
343,138,169948,2,0,P|359:188|342:238,1,99.0000003986359,6|0,0:3|0:0,0:0:0:0:
483,351,170119,2,0,P|467:301|484:251,1,99.0000003986359,10|0,0:0|0:0,0:0:0:0:
405,59,170289,2,0,B|359:26|312:40|306:42|302:43|256:63|209:32,1,198.000000797272,6|0,0:3|0:0,0:0:0:0:
47,196,170630,1,6,0:3:0:0:
105,180,170716,1,2,0:0:0:0:
158,206,170801,1,10,0:0:0:0:
296,343,170971,1,6,0:3:0:0:
487,24,171142,5,6,0:3:0:0:
1,150,171397,5,6,0:3:0:0:
497,355,171653,5,6,0:3:0:0:
66,358,171823,6,0,B|97:302|97:302|154:281|154:281|187:217,1,198.000000797272,6|0,0:0|0:0,0:0:0:0:
47,33,172079,1,0,0:0:0:0:
19,45,172164,2,0,P|2:137|137:135,1,198.000000797272,10|2,0:0|0:0,0:0:0:0:
311,38,172505,1,6,0:3:0:0:
368,24,172591,1,2,0:0:0:0:
412,64,172676,2,0,P|405:134|348:158,1,99.0000003986359,6|0,0:3|0:0,0:0:0:0:
185,219,172847,2,0,L|308:242,1,99.0000003986359,10|0,0:0|0:0,0:0:0:0:
466,343,173016,2,0,P|438:267|384:334,1,198.000000797272,6|0,0:3|0:0,0:0:0:0:
117,274,173358,1,6,0:3:0:0:
94,220,173443,1,2,0:0:0:0:
121,167,173529,1,10,0:0:0:0:
265,365,173699,1,6,0:3:0:0:
342,127,173870,5,2,0:0:0:0:
413,160,173955,1,2,0:0:0:0:
298,202,174040,1,6,0:3:0:0:
472,57,174210,1,10,0:0:0:0:
189,224,174381,1,2,0:0:0:0:
504,373,174551,6,0,B|465:164,1,198.000000797272,6|2,0:0|0:0,0:0:0:0:
322,54,174807,1,2,0:0:0:0:
346,38,174891,2,0,P|390:117|302:147,1,198.000000797272,10|2,0:0|0:0,0:0:0:0:
40,190,175233,1,6,0:3:0:0:
22,236,175318,1,2,0:0:0:0:
36,283,175403,1,6,0:3:0:0:
140,94,175573,1,10,0:0:0:0:
369,232,175744,6,0,B|337:97|337:97|303:177,1,198.000000797272,6|0,0:3|0:0,0:0:0:0:
387,364,176085,1,6,0:3:0:0:
434,348,176171,1,2,0:0:0:0:
481,336,176256,1,10,0:0:0:0:
236,246,176426,1,6,0:3:0:0:
356,49,176597,5,6,0:3:0:0:
436,83,176682,1,4,0:3:0:0:
286,103,176767,1,4,0:3:0:0:
486,196,176937,5,10,0:3:0:0:
467,192,177022,1,8,0:3:0:0:
448,189,177108,1,8,0:3:0:0:
429,186,177193,1,0,0:0:0:0:
412,183,177278,5,4,0:0:0:0:
311,279,177449,1,2,0:0:0:0:
397,178,177619,1,4,0:3:0:0:
428,361,177790,1,2,0:0:0:0:
201,106,177960,1,4,0:3:0:0:
326,274,178131,1,2,0:0:0:0:
218,99,178301,1,4,0:3:0:0:
157,375,178472,1,2,0:0:0:0:
377,27,178642,5,4,0:3:0:0:
86,192,178812,1,2,0:0:0:0:
218,125,178897,1,0,0:0:0:0:
351,57,178983,1,4,0:3:0:0:
199,297,179153,1,2,0:0:0:0:
324,84,179324,1,4,0:3:0:0:
374,253,179494,1,2,0:0:0:0:
301,112,179665,1,4,0:3:0:0:
457,130,179835,1,2,0:0:0:0:
65,192,180005,5,4,0:0:0:0:
166,96,180176,1,2,0:0:0:0:
80,197,180346,1,4,0:3:0:0:
49,14,180517,1,2,0:0:0:0:
276,269,180687,1,4,0:3:0:0:
151,101,180858,1,2,0:0:0:0:
259,276,181028,1,4,0:3:0:0:
320,0,181199,1,2,0:0:0:0:
100,348,181369,5,4,0:3:0:0:
375,179,181539,1,2,0:0:0:0:
249,256,181624,1,0,0:0:0:0:
113,319,181710,1,4,0:3:0:0:
289,83,181880,1,2,0:0:0:0:
413,342,182051,1,4,0:3:0:0:
88,161,182221,1,2,0:0:0:0:
449,35,182391,6,0,B|395:35|354:72|354:72|319:72|296:48|296:48|235:80|167:46,1,297.000001195908,4|0,0:3|0:0,0:0:0:0:
43,234,182732,5,4,0:0:0:0:
313,141,182903,1,2,0:0:0:0:
165,148,182988,1,0,0:0:0:0:
15,152,183074,1,4,0:3:0:0:
266,266,183244,1,2,0:0:0:0:
78,83,183414,1,4,0:3:0:0:
181,330,183585,1,2,0:0:0:0:
175,46,183755,1,4,0:3:0:0:
153,345,183926,1,2,0:0:0:0:
433,131,184096,5,4,0:3:0:0:
0,289,184266,1,2,0:0:0:0:
384,209,184437,1,4,0:3:0:0:
8,253,184607,1,2,0:0:0:0:
344,288,184778,1,4,0:3:0:0:
14,218,184948,1,2,0:0:0:0:
210,363,185119,1,4,0:3:0:0:
165,148,185289,1,2,0:0:0:0:
469,150,185459,5,4,0:0:0:0:
214,219,185630,1,2,0:0:0:0:
362,226,185715,1,0,0:0:0:0:
512,230,185801,1,4,0:3:0:0:
246,118,185971,1,2,0:0:0:0:
434,301,186141,1,4,0:3:0:0:
331,54,186312,1,2,0:0:0:0:
337,338,186482,1,4,0:3:0:0:
359,39,186653,1,2,0:0:0:0:
23,258,186823,5,4,0:3:0:0:
456,100,186993,1,2,0:0:0:0:
72,180,187164,1,4,0:3:0:0:
448,136,187334,1,2,0:0:0:0:
167,110,187505,5,8,0:0:0:0:
281,204,187590,1,8,0:0:0:0:
411,133,187675,1,8,0:0:0:0:
292,14,187846,6,0,L|272:312,1,264.000001063029,8|0,0:0|0:0,0:0:0:0:
171,361,188187,5,10,0:0:0:0:
0,310,188272,1,10,0:0:0:0:
175,243,188357,1,8,0:0:0:0:
4,192,188442,1,8,0:0:0:0:
508,20,188698,5,8,0:0:0:0:
337,71,188783,1,8,0:0:0:0:
512,138,188868,1,10,0:0:0:0:
341,189,188953,1,10,0:0:0:0:
171,361,189209,5,10,0:0:0:0:
0,310,189294,1,10,0:0:0:0:
175,243,189379,1,8,0:0:0:0:
4,192,189464,1,8,0:0:0:0:
