osu file format v14

[General]
AudioFilename: audio.mp3
AudioLeadIn: 0
PreviewTime: 44423
Countdown: 0
SampleSet: Soft
StackLeniency: 0.5
Mode: 0
LetterboxInBreaks: 0
EpilepsyWarning: 1
WidescreenStoryboard: 0

[Editor]
DistanceSpacing: 0.8
BeatDivisor: 4
GridSize: 4
TimelineZoom: 2.1

[Metadata]
Title:Suicide Parade
TitleUnicode:スーサイドパレヱド
Artist:YURRY CANON
ArtistUnicode:ユリイ・カノン
Creator:kwk
Version:Doormat's Hard
Source:
Tags:vocaloid megpoid gumi メグッポイド グミ neonat asaiga ailv aliv anvil doormat kardia
BeatmapID:1875697
BeatmapSetID:854503

[Difficulty]
HPDrainRate:5
CircleSize:3.8
OverallDifficulty:6
ApproachRate:8
SliderMultiplier:1.39999990463257
SliderTickRate:1

[Events]
//Background and Video events
0,0,"wau.jpg",0,0
Video,0,"video.mp4"
//Break Periods
2,67023,76982
2,121569,126073
//Storyboard Layer 0 (Background)
//Storyboard Layer 1 (Fail)
//Storyboard Layer 2 (Pass)
//Storyboard Layer 3 (Foreground)
//Storyboard Sound Samples

[TimingPoints]
1369,340.909090909091,4,2,1,85,1,0
1369,-125,4,2,1,85,0,0
6823,-100,4,2,1,85,0,0
23187,-100,4,2,1,75,0,0
32732,-100,4,2,3,75,0,0
34096,-100,4,2,1,75,0,0
44664,-100,4,2,2,85,0,0
45005,-90.9090909090909,4,2,1,100,0,1
47391,-90.9090909090909,4,2,2,100,0,1
47732,-90.9090909090909,4,2,1,100,0,1
52846,-90.9090909090909,4,2,2,100,0,1
53187,-90.9090909090909,4,2,1,100,0,1
55914,-90.9090909090909,4,2,2,100,0,1
56255,-90.9090909090909,4,2,1,100,0,1
58300,-90.9090909090909,4,2,2,100,0,1
58641,-90.9090909090909,4,2,1,100,0,1
61369,-90.9090909090909,4,2,2,100,0,1
61709,-90.9090909090909,4,2,1,100,0,1
63755,-90.9090909090909,4,2,2,100,0,1
64096,-90.9090909090909,4,2,1,100,0,1
66823,-100,4,2,1,85,0,0
77732,-125,4,2,1,85,0,0
85914,-100,4,2,1,85,0,0
98187,-100,4,2,2,95,0,0
98869,-100,4,2,1,95,0,0
99550,-100,4,2,1,85,0,0
109096,-100,4,2,3,85,0,0
110119,-100,4,2,1,85,0,0
121369,-125,4,2,1,70,0,0
126823,-125,4,2,1,85,0,0
129209,-125,4,2,1,85,0,0
129550,-125,4,2,1,85,0,0
132278,-90.9090909090909,4,2,1,100,0,1
134664,-90.9090909090909,4,2,2,100,0,1
135005,-90.9090909090909,4,2,1,100,0,1
140119,-90.9090909090909,4,2,2,100,0,1
140459,-90.9090909090909,4,2,1,100,0,1
142846,-90.9090909090909,4,2,2,100,0,1
143187,-90.9090909090909,4,2,1,100,0,1
145573,-90.9090909090909,4,2,2,100,0,1
145914,-90.9090909090909,4,2,1,100,0,1
151028,-90.9090909090909,4,2,2,100,0,1
151369,-90.9090909090909,4,2,1,100,0,1
154096,-90.9090909090909,4,2,2,100,0,1
154437,-90.9090909090909,4,2,1,100,0,1
156482,-90.9090909090909,4,2,2,100,0,1
156823,-90.9090909090909,4,2,1,100,0,1
159550,-90.9090909090909,4,2,2,100,0,1
159891,-90.9090909090909,4,2,1,100,0,1
161937,-90.9090909090909,4,2,2,100,0,1
162278,-90.9090909090909,4,2,1,100,0,1
164664,-90.9090909090909,4,2,2,100,0,1
165005,-90.9090909090909,4,2,1,100,0,1
166369,-100,4,2,1,85,0,0

[Colours]
Combo1 : 255,255,166
Combo2 : 255,128,128
Combo3 : 0,255,255
Combo4 : 0,255,128

[HitObjects]
348,104,1369,5,8,0:0:0:0:
348,104,1539,2,0,L|340:223,1,111.999992370606,8|8,0:0|0:0,0:0:0:0:
260,256,2050,2,0,L|264:300,2,27.9999980926514,0|0|0,0:0|0:0|0:0,0:0:0:0:
200,188,2391,2,0,L|124:204,1,55.9999961853028,0|0,0:0|0:0,0:0:0:0:
100,120,2732,5,8,0:0:0:0:
100,120,2903,2,0,P|136:88|212:88,1,111.999992370606,8|8,0:0|0:0,0:0:0:0:
280,120,3414,2,0,L|284:92,2,27.9999980926514,0|0|0,0:0|0:0|0:0,0:0:0:0:
352,176,3755,2,0,L|348:204,2,27.9999980926514,0|0|0,0:0|0:0|0:0,0:0:0:0:
432,132,4096,5,8,0:0:0:0:
432,132,4266,2,0,P|452:172|432:248,1,111.999992370606,8|8,0:0|0:0,0:0:0:0:
360,276,4778,2,0,L|368:320,2,27.9999980926514,0|0|0,0:0|0:0|0:0,0:0:0:0:
284,228,5119,2,0,P|248:244|212:248,1,55.9999961853028,0|0,0:0|0:0,0:0:0:0:
148,216,5459,5,8,0:0:0:0:
148,216,5630,2,0,L|136:332,1,111.999992370606,8|8,0:0|0:0,0:0:0:0:
64,380,6141,2,0,L|8:368,1,55.9999961853028,0|0,0:0|0:0,0:0:0:0:
136,327,6482,2,0,L|192:339,1,55.9999961853028,0|0,0:0|0:0,0:0:0:0:
292,368,6823,6,0,L|321:231,1,139.999990463257,4|8,0:0|0:0,0:0:0:0:
272,144,7334,1,2,0:0:0:0:
196,208,7505,1,6,0:3:0:0:
196,208,7590,1,2,0:0:0:0:
196,208,7675,2,0,L|120:192,1,69.9999952316285,6|10,0:3|0:0,0:0:0:0:
272,144,8016,6,0,P|337:166|398:134,1,139.999990463257,6|6,0:3|0:3,0:0:0:0:
409,145,8442,1,2,0:0:0:0:
419,155,8528,2,0,L|411:231,1,69.9999952316285,10|6,0:0|0:3,0:0:0:0:
412,324,8869,2,0,P|429:322|446:317,2,34.9999976158143,2|2|6,0:0|0:0|0:3,0:0:0:0:
328,276,9209,2,0,P|295:263|256:268,1,69.9999952316285,10|2,0:0|0:0,0:0:0:0:
168,292,9550,6,0,P|188:227|157:166,1,139.999990463257,6|10,0:0|0:0,0:0:0:0:
59,183,10062,1,2,0:0:0:0:
33,87,10233,1,6,0:3:0:0:
33,87,10317,1,2,0:0:0:0:
33,87,10403,2,0,L|124:77,1,69.9999952316285,6|10,0:3|0:0,0:0:0:0:
188,28,10744,6,0,L|336:40,1,139.999990463257,6|6,0:3|0:3,0:0:0:0:
336,52,11170,1,2,0:0:0:0:
343,64,11255,2,0,P|332:96|336:131,1,69.9999952316285,10|6,0:0|0:3,0:0:0:0:
420,184,11596,2,0,L|432:80,2,104.999992847443,6|6|6,0:3|0:3|0:3,0:0:0:0:
376,272,12278,6,0,P|340:248|236:268,1,139.999990463257,6|10,0:0|0:0,0:0:0:0:
176,328,12789,1,2,0:0:0:0:
128,244,12959,1,6,0:3:0:0:
128,244,13045,1,2,0:0:0:0:
128,244,13130,2,0,L|36:252,1,69.9999952316285,6|10,0:3|0:0,0:0:0:0:
16,160,13471,6,0,L|162:146,1,139.999990463257,6|6,0:3|0:3,0:0:0:0:
167,156,13897,1,2,0:0:0:0:
178,165,13982,2,0,L|183:82,1,69.9999952316285,10|6,0:0|0:3,0:0:0:0:
276,64,14323,1,2,0:0:0:0:
276,64,14408,1,2,0:0:0:0:
276,64,14494,2,0,L|278:140,1,69.9999952316285,6|10,0:3|0:0,0:0:0:0:
360,188,14834,1,2,0:0:0:0:
323,279,15005,6,0,P|262:249|196:268,1,139.999990463257,6|10,0:0|0:0,0:0:0:0:
108,224,15516,1,2,0:0:0:0:
40,296,15687,1,6,0:3:0:0:
40,296,15772,1,2,0:0:0:0:
40,296,15857,2,0,L|56:372,1,69.9999952316285,6|10,0:3|0:0,0:0:0:0:
152,368,16198,6,0,P|213:337|279:356,1,139.999990463257,6|6,0:3|0:3,0:0:0:0:
288,368,16624,1,2,0:0:0:0:
297,381,16709,2,0,L|305:305,1,69.9999952316285,10|6,0:0|0:3,0:0:0:0:
252,228,17050,1,6,0:3:0:0:
252,228,17135,1,4,0:3:0:0:
252,228,17221,1,4,0:3:0:0:
312,152,17391,2,0,L|356:160,3,34.9999976158143,10|8|8|0,0:3|0:3|0:3|0:0,0:0:0:0:
380,143,17732,6,0,P|359:209|384:273,1,139.999990463257,4|4,0:0|0:3,0:0:0:0:
295,320,18244,1,2,0:0:0:0:
196,332,18414,2,0,P|216:266|191:202,1,139.999990463257,4|4,0:3|0:3,0:0:0:0:
104,158,18925,1,2,0:0:0:0:
108,60,19096,6,0,L|184:64,1,69.9999952316285,4|2,0:3|0:0,0:0:0:0:
268,24,19437,2,0,L|344:28,1,69.9999952316285,4|2,0:3|0:0,0:0:0:0:
333,125,19778,2,0,L|264:122,1,69.9999952316285,4|2,0:3|0:0,0:0:0:0:
173,161,20119,2,0,L|104:158,1,69.9999952316285,4|2,0:3|0:0,0:0:0:0:
20,208,20459,6,0,P|10:275|46:333,1,139.999990463257,4|4,0:0|0:3,0:0:0:0:
136,380,20971,1,2,0:0:0:0:
168,288,21141,2,0,L|237:277,1,69.9999952316285,4|2,0:3|0:0,0:0:0:0:
300,352,21482,2,0,L|369:362,1,69.9999952316285,4|2,0:3|0:0,0:0:0:0:
464,384,21823,6,0,L|481:316,1,69.9999952316285,4|2,0:3|0:0,0:0:0:0:
392,272,22164,2,0,L|373:204,1,69.9999952316285,4|2,0:3|0:0,0:0:0:0:
464,160,22505,2,0,L|482:92,1,69.9999952316285,4|2,0:3|0:0,0:0:0:0:
392,48,22846,1,4,0:3:0:0:
292,220,23187,6,0,L|128:188,1,139.999990463257,6|6,0:0|0:3,0:0:0:0:
132,280,23698,1,2,0:0:0:0:
132,280,23869,2,0,L|296:312,1,139.999990463257,6|6,0:3|0:3,0:0:0:0:
348,352,24380,6,0,P|396:328|408:240,1,139.999990463257,2|2,0:0|0:0,0:0:0:0:
368,168,24891,1,6,0:3:0:0:
368,168,25062,1,2,0:0:0:0:
404,84,25232,2,0,L|476:84,1,69.9999952316285,6|2,0:3|0:0,0:0:0:0:
368,168,25573,2,0,L|296:168,1,69.9999952316285,6|2,0:3|0:0,0:0:0:0:
232,104,25914,5,6,0:0:0:0:
143,129,26084,2,0,L|136:84,2,34.9999976158143,2|0|4,0:0|0:0|0:3,0:0:0:0:
120,218,26425,2,0,L|77:201,2,34.9999976158143,2|2|6,0:0|0:0|0:3,0:0:0:0:
186,282,26766,2,0,L|150:310,2,34.9999976158143,2|2|6,0:0|0:0|0:3,0:0:0:0:
275,257,27107,5,2,0:0:0:0:
279,261,27192,1,2,0:0:0:0:
283,265,27278,2,0,L|352:253,1,69.9999952316285,4|2,0:3|0:0,0:0:0:0:
444,240,27619,2,0,L|432:170,1,69.9999952316285,6|2,0:3|0:0,0:0:0:0:
419,79,27959,2,0,L|349:90,1,69.9999952316285,6|6,0:3|0:3,0:0:0:0:
258,104,28300,2,0,L|246:34,1,69.9999952316285,2|6,0:0|0:3,0:0:0:0:
156,16,28641,6,0,P|114:70|124:137,1,139.999990463257,6|6,0:0|0:3,0:0:0:0:
188,204,29153,1,2,0:0:0:0:
100,232,29323,2,0,L|12:220,1,69.9999952316285,6|0,0:3|0:0,0:0:0:0:
0,308,29664,1,6,0:3:0:0:
68,368,29834,6,0,L|208:352,1,139.999990463257,2|2,0:0|0:0,0:0:0:0:
300,368,30346,2,0,L|312:284,1,69.9999952316285,6|2,0:3|0:0,0:0:0:0:
248,228,30687,1,6,0:3:0:0:
248,228,30857,1,2,0:0:0:0:
330,182,31028,2,0,L|414:194,1,69.9999952316285,6|0,0:3|0:0,0:0:0:0:
484,224,31369,6,0,L|495:190,3,34.9999976158143,6|0|2|0,0:0|0:0|0:0|0:0,0:0:0:0:
500,156,31709,2,0,L|484:124,3,34.9999976158143,4|0|2|0,0:3|0:0|0:0|0:0,0:0:0:0:
463,96,32050,2,0,L|429:84,3,34.9999976158143,4|0|2|0,0:3|0:0|0:0|0:0,0:0:0:0:
395,80,32391,2,0,L|363:95,3,34.9999976158143,4|0|2|2,0:3|0:0|0:0|0:0,0:0:0:0:
344,124,32732,6,0,P|314:106|279:103,1,69.9999952316285,12|10,0:3|0:3,0:0:0:0:
288,200,33073,2,0,P|270:229|267:264,1,69.9999952316285,14|10,0:3|0:3,0:0:0:0:
364,256,33414,2,0,P|398:258|428:276,1,69.9999952316285,6|6,0:3|0:3,0:0:0:0:
367,350,33755,1,6,0:3:0:0:
504,228,34096,6,0,L|488:144,1,69.9999952316285,6|2,0:0|0:0,0:0:0:0:
488,68,34437,2,0,L|404:84,1,69.9999952316285,6|2,0:3|0:0,0:0:0:0:
352,144,34778,1,10,0:0:0:0:
352,144,34948,2,0,L|283:130,1,69.9999952316285,2|4,0:3|0:3,0:0:0:0:
196,100,35289,6,0,L|196:244,1,139.999990463257,10|2,0:0|0:0,0:0:0:0:
124,300,35800,1,6,0:3:0:0:
124,300,35971,1,2,0:0:0:0:
180,372,36141,2,0,L|256:360,2,69.9999952316285,10|2|10,0:0|0:0|0:0,0:0:0:0:
24,276,36823,6,0,P|38:244|38:209,1,69.9999952316285,6|2,0:0|0:0,0:0:0:0:
124,172,37164,2,0,P|109:140|109:105,1,69.9999952316285,6|2,0:3|0:0,0:0:0:0:
152,24,37505,1,10,0:0:0:0:
152,24,37675,2,0,L|228:44,1,69.9999952316285,2|4,0:0|0:3,0:0:0:0:
284,108,38016,6,0,L|432:76,1,139.999990463257,10|2,0:0|0:0,0:0:0:0:
492,136,38528,1,6,0:3:0:0:
492,136,38698,1,2,0:0:0:0:
424,200,38869,2,0,P|416:244|432:276,2,69.9999952316285,6|2|10,0:3|0:0|0:0,0:0:0:0:
268,104,39550,6,0,L|200:120,1,69.9999952316285,6|2,0:0|0:0,0:0:0:0:
112,96,39891,2,0,L|107:165,1,69.9999952316285,6|2,0:3|0:0,0:0:0:0:
56,241,40232,1,10,0:0:0:0:
56,241,40403,2,0,L|120:267,1,69.9999952316285,2|4,0:0|0:3,0:0:0:0:
184,332,40744,6,0,P|242:295|310:306,1,139.999990463257,10|2,0:0|0:0,0:0:0:0:
388,356,41255,1,6,0:3:0:0:
388,356,41425,1,2,0:0:0:0:
464,304,41596,2,0,P|474:236|438:177,1,139.999990463257,10|4,0:0|0:3,0:0:0:0:
356,140,42107,1,8,0:0:0:0:
428,84,42278,6,0,L|498:84,1,69.9999952316285,6|10,0:3|0:0,0:0:0:0:
464,0,42619,2,0,L|394:0,1,69.9999952316285,6|10,0:3|0:0,0:0:0:0:
320,52,42959,2,0,L|250:52,1,69.9999952316285,6|10,0:3|0:0,0:0:0:0:
176,104,43300,2,0,L|106:104,1,69.9999952316285,6|10,0:3|0:0,0:0:0:0:
32,48,43641,5,10,0:0:0:0:
32,48,43812,1,10,0:0:0:0:
20,140,43982,1,10,0:0:0:0:
20,140,44153,1,10,0:0:0:0:
7,231,44323,2,0,P|15:266|19:301,1,69.9999952316285,10|0,0:0|0:0,0:0:0:0:
104,264,44664,2,0,P|111:229|115:194,1,69.9999952316285,2|0,0:3|0:0,0:0:0:0:
132,88,45005,6,0,P|201:118|273:96,1,153.99999420929,6|6,0:0|0:3,0:0:0:0:
352,168,45516,1,8,0:0:0:0:
352,168,45601,1,2,0:0:0:0:
352,168,45687,2,0,L|344:256,1,76.9999971046448,6|10,0:3|0:0,0:0:0:0:
420,320,46028,1,4,0:3:0:0:
484,236,46198,6,0,L|464:83,1,153.99999420929,10|10,0:0|0:0,0:0:0:0:
380,16,46709,1,6,0:3:0:0:
380,16,46880,1,10,0:0:0:0:
304,92,47050,2,0,L|228:80,1,76.9999971046448,6|8,0:3|0:0,0:0:0:0:
208,188,47391,2,0,L|132:200,1,76.9999971046448,6|0,0:3|0:0,0:0:0:0:
180,296,47732,6,0,P|220:320|324:296,1,153.99999420929,4|6,0:3|0:3,0:0:0:0:
424,260,48244,1,8,0:0:0:0:
424,260,48329,1,0,0:0:0:0:
424,260,48414,2,0,L|428:340,2,76.9999971046448,6|10|4,0:3|0:0|0:3,0:0:0:0:
340,192,48925,6,0,L|332:32,1,153.99999420929,10|10,0:0|0:0,0:0:0:0:
228,3,49437,2,0,P|194:22|156:26,1,76.9999971046448,6|8,0:3|0:0,0:0:0:0:
48,8,49778,1,8,0:0:0:0:
80,112,49948,1,6,0:3:0:0:
80,112,50119,2,0,L|64:192,1,76.9999971046448,4|10,0:3|0:0,0:0:0:0:
172,192,50459,6,0,P|247:176|331:176,1,153.99999420929,6|6,0:0|0:3,0:0:0:0:
428,212,50971,1,8,0:0:0:0:
428,212,51056,1,2,0:0:0:0:
428,212,51141,2,0,P|436:164|456:120,1,76.9999971046448,6|10,0:3|0:0,0:0:0:0:
512,52,51482,1,4,0:3:0:0:
404,36,51653,6,0,P|329:52|245:52,1,153.99999420929,10|10,0:0|0:0,0:0:0:0:
152,12,52164,1,6,0:3:0:0:
152,12,52334,1,10,0:0:0:0:
48,44,52505,2,0,L|68:120,1,76.9999971046448,6|8,0:3|0:0,0:0:0:0:
176,140,52846,2,0,L|156:216,1,76.9999971046448,6|0,0:3|0:0,0:0:0:0:
76,284,53187,5,6,0:0:0:0:
76,284,53357,1,10,0:0:0:0:
117,381,53528,1,6,0:3:0:0:
117,381,53698,1,10,0:0:0:0:
222,372,53869,2,0,L|304:352,1,76.9999971046448,6|10,0:3|0:0,0:0:0:0:
340,256,54209,2,0,L|414:274,1,76.9999971046448,6|10,0:3|0:0,0:0:0:0:
512,228,54550,5,10,0:0:0:0:
512,228,54636,1,8,0:0:0:0:
512,228,54721,2,0,P|508:184|484:144,1,76.9999971046448,8|0,0:0|0:0,0:0:0:0:
388,160,55062,1,10,0:0:0:0:
388,160,55148,1,8,0:0:0:0:
388,160,55233,2,0,P|392:116|416:76,1,76.9999971046448,8|0,0:0|0:0,0:0:0:0:
344,0,55573,2,0,L|306:8,3,38.4999985523224,10|8|8|8,0:0|0:0|0:0|0:0,0:0:0:0:
284,40,55914,6,0,P|216:8|145:33,1,153.99999420929,6|6,0:0|0:3,0:0:0:0:
40,60,56425,1,8,0:0:0:0:
40,60,56511,1,2,0:0:0:0:
40,60,56596,2,0,L|64:140,1,76.9999971046448,6|10,0:3|0:0,0:0:0:0:
24,236,56937,1,4,0:3:0:0:
124,275,57107,6,0,P|197:253|273:246,1,153.99999420929,10|10,0:0|0:0,0:0:0:0:
380,276,57619,1,6,0:3:0:0:
380,276,57789,1,10,0:0:0:0:
272,264,57959,2,0,L|279:187,1,76.9999971046448,6|8,0:3|0:0,0:0:0:0:
380,276,58300,2,0,L|372:352,1,76.9999971046448,6|0,0:3|0:0,0:0:0:0:
268,384,58641,6,0,P|234:366|196:359,1,76.9999971046448,6|8,0:3|0:0,0:0:0:0:
136,268,58982,2,0,P|102:285|64:292,1,76.9999971046448,6|8,0:3|0:0,0:0:0:0:
72,184,59323,1,6,0:3:0:0:
72,184,59494,2,0,P|73:145|86:109,1,76.9999971046448,10|4,0:0|0:3,0:0:0:0:
176,51,59834,6,0,P|223:109|297:106,1,153.99999420929,10|10,0:0|0:0,0:0:0:0:
352,16,60346,2,0,L|436:36,1,76.9999971046448,6|8,0:3|0:0,0:0:0:0:
496,116,60687,1,8,0:0:0:0:
408,180,60857,1,6,0:3:0:0:
408,180,61028,2,0,L|428:260,1,76.9999971046448,4|10,0:3|0:0,0:0:0:0:
508,328,61369,6,0,P|472:356|360:340,1,153.99999420929,6|6,0:0|0:3,0:0:0:0:
308,256,61880,1,8,0:0:0:0:
308,256,61965,1,2,0:0:0:0:
308,256,62050,2,0,L|212:284,1,76.9999971046448,6|10,0:3|0:0,0:0:0:0:
152,348,62391,1,4,0:3:0:0:
56,296,62562,6,0,P|86:226|67:153,1,153.99999420929,10|10,0:0|0:0,0:0:0:0:
0,68,63073,1,6,0:3:0:0:
0,68,63244,1,10,0:0:0:0:
96,24,63414,2,0,P|134:16|171:27,1,76.9999971046448,6|8,0:3|0:0,0:0:0:0:
276,8,63755,2,0,P|312:18|350:11,1,76.9999971046448,6|0,0:3|0:0,0:0:0:0:
452,48,64096,5,6,0:0:0:0:
452,48,64266,1,10,0:0:0:0:
432,152,64437,1,6,0:3:0:0:
432,152,64607,1,10,0:0:0:0:
412,256,64778,2,0,L|426:331,1,76.9999971046448,6|10,0:3|0:0,0:0:0:0:
320,328,65119,2,0,L|247:302,1,76.9999971046448,6|10,0:3|0:0,0:0:0:0:
160,239,65459,6,0,P|147:254|138:271,4,38.4999985523224,10|8|8|8|0,0:0|0:0|0:0|0:0|0:0,0:0:0:0:
264,200,65971,2,0,P|282:204|301:202,4,38.4999985523224,10|8|8|8|0,0:0|0:0|0:0|0:0|0:0,0:0:0:0:
177,129,66482,2,0,L|192:32,1,76.9999971046448,10|0,0:0|0:0,0:0:0:0:
84,12,66823,1,4,0:0:0:0:
368,76,77732,6,0,L|180:104,1,167.999988555908,6|6,0:3|0:3,0:0:0:0:
120,64,78414,1,10,0:0:0:0:
68,240,78755,2,0,L|148:248,1,55.9999961853028,6|0,0:3|0:0,0:0:0:0:
211,223,79096,6,0,P|233:274|216:326,1,111.999992370606,6|6,0:3|0:3,0:0:0:0:
296,368,79607,1,6,0:3:0:0:
356,300,79778,2,0,L|424:316,1,55.9999961853028,10|2,0:0|0:0,0:0:0:0:
492,276,80119,1,10,0:0:0:0:
512,96,80459,6,0,L|384:116,1,111.999992370606,2|6,0:0|0:3,0:0:0:0:
348,40,80971,1,0,0:0:0:0:
348,40,81141,2,0,L|237:22,1,111.999992370606,10|2,0:0|0:0,0:0:0:0:
160,68,81653,1,0,0:0:0:0:
160,68,81823,6,0,P|180:128|160:176,1,111.999992370606,6|2,0:3|0:0,0:0:0:0:
96,232,82334,1,0,0:0:0:0:
96,232,82420,1,0,0:0:0:0:
96,232,82505,2,0,L|28:220,1,55.9999961853028,6|0,0:3|0:0,0:0:0:0:
28,312,82846,1,10,0:0:0:0:
116,328,83016,1,10,0:0:0:0:
204,344,83187,6,0,L|376:312,1,167.999988555908,6|6,0:3|0:3,0:0:0:0:
456,340,83869,1,10,0:0:0:0:
504,164,84209,2,0,L|444:152,1,55.9999961853028,6|6,0:3|0:3,0:0:0:0:
396,80,84550,6,0,P|346:104|292:96,2,111.999992370606,6|6|10,0:3|0:3|0:0,0:0:0:0:
456,12,85403,1,10,0:0:0:0:
456,12,85488,1,10,0:0:0:0:
456,12,85573,1,10,0:0:0:0:
512,184,85914,6,0,L|500:256,2,69.9999952316285,6|0|4,0:0|0:0|0:3,0:0:0:0:
436,136,86425,1,10,0:0:0:0:
436,136,86511,1,0,0:0:0:0:
436,135,86596,2,0,P|402:145|376:167,1,69.9999952316285,6|8,0:3|0:0,0:0:0:0:
328,248,86937,2,0,P|301:225|268:216,1,69.9999952316285,6|10,0:3|0:0,0:0:0:0:
180,240,87278,6,0,L|174:205,3,34.9999976158143,6|0|8|0,0:3|0:0|0:0|0:0,0:0:0:0:
144,188,87619,2,0,L|138:153,3,34.9999976158143,6|0|8|0,0:3|0:0|0:0|0:0,0:0:0:0:
156,124,87959,2,0,L|150:89,3,34.9999976158143,6|0|8|0,0:3|0:0|0:0|0:0,0:0:0:0:
120,72,88300,1,6,0:3:0:0:
296,24,88641,6,0,P|355:58|424:40,1,139.999990463257,6|6,0:3|0:3,0:0:0:0:
504,84,89153,1,8,0:0:0:0:
504,84,89238,1,0,0:0:0:0:
504,84,89323,2,0,L|488:164,1,69.9999952316285,6|10,0:3|0:0,0:0:0:0:
512,244,89664,1,4,0:3:0:0:
419,223,89834,6,0,P|360:190|292:201,1,139.999990463257,10|2,0:0|0:0,0:0:0:0:
200,180,90346,2,0,L|189:249,1,69.9999952316285,10|6,0:0|0:3,0:0:0:0:
188,249,90601,1,2,0:0:0:0:
188,249,90687,1,10,0:0:0:0:
272,292,90857,1,6,0:3:0:0:
276,296,90942,1,2,0:0:0:0:
280,300,91028,2,0,L|288:340,3,34.9999976158143,10|0|6|0,0:0|0:0|0:3|0:0,0:0:0:0:
304,364,91369,6,0,P|269:362|236:373,1,69.9999952316285,10|6,0:0|0:3,0:0:0:0:
144,384,91709,2,0,P|134:350|114:322,1,69.9999952316285,10|6,0:0|0:3,0:0:0:0:
75,238,92050,2,0,P|103:218|124:190,1,69.9999952316285,10|6,0:0|0:3,0:0:0:0:
183,118,92391,1,10,0:0:0:0:
244,188,92562,6,0,P|310:202|369:167,1,139.999990463257,6|6,0:3|0:3,0:0:0:0:
400,80,93073,1,10,0:0:0:0:
468,144,93244,2,0,L|476:184,2,34.9999976158143,6|2|10,0:3|0:0|0:0,0:0:0:0:
400,80,93584,2,0,P|333:94|274:59,1,139.999990463257,6|6,0:3|0:3,0:0:0:0:
188,24,94096,6,0,L|173:92,1,69.9999952316285,10|6,0:0|0:3,0:0:0:0:
120,168,94437,2,0,P|92:144|84:128,2,34.9999976158143,10|2|6,0:0|0:0|0:3,0:0:0:0:
188,232,94778,1,10,0:0:0:0:
248,160,94948,2,0,P|272:132|288:124,2,34.9999976158143,6|2|10,0:3|0:0|0:0,0:0:0:0:
324,216,95289,6,0,L|312:368,1,139.999990463257,6|10,0:0|0:0,0:0:0:0:
320,368,95715,1,0,0:0:0:0:
327,380,95800,2,0,L|251:368,1,69.9999952316285,6|10,0:3|0:0,0:0:0:0:
192,304,96141,1,6,0:3:0:0:
192,304,96312,1,10,0:0:0:0:
136,376,96482,2,0,L|60:364,1,69.9999952316285,6|10,0:3|0:0,0:0:0:0:
4,300,96823,6,0,L|20:252,3,34.9999976158143,6|0|8|0,0:3|0:0|0:0|0:0,0:0:0:0:
44,248,97164,2,0,L|28:200,3,34.9999976158143,6|0|8|0,0:3|0:0|0:0|0:0,0:0:0:0:
0,200,97505,2,0,L|16:152,3,34.9999976158143,6|0|8|0,0:3|0:0|0:0|0:0,0:0:0:0:
40,148,97846,2,0,L|24:100,3,34.9999976158143,6|0|8|0,0:3|0:0|0:0|0:0,0:0:0:0:
0,96,98187,6,0,P|52:100|84:84,1,69.9999952316285,10|8,0:3|0:0,0:0:0:0:
148,140,98528,2,0,P|181:131|215:138,1,69.9999952316285,8|8,0:3|0:0,0:0:0:0:
292,192,98869,1,4,0:3:0:0:
292,192,99039,1,10,0:0:0:0:
345,115,99210,1,6,0:3:0:0:
345,115,99380,1,10,0:0:0:0:
421,168,99550,6,0,L|412:244,1,69.9999952316285,14|2,0:0|0:0,0:0:0:0:
476,304,99891,1,6,0:3:0:0:
408,368,100062,1,0,0:0:0:0:
408,368,100147,1,0,0:0:0:0:
408,368,100232,2,0,P|341:350|280:381,1,139.999990463257,8|2,0:0|0:0,0:0:0:0:
220,312,100744,6,0,P|153:329|92:298,1,139.999990463257,10|2,0:0|0:0,0:0:0:0:
40,224,101255,1,6,0:3:0:0:
84,144,101425,1,2,0:0:0:0:
84,144,101511,1,0,0:0:0:0:
84,144,101596,2,0,L|168:160,1,69.9999952316285,10|2,0:0|0:0,0:0:0:0:
160,64,101937,2,0,L|244:48,1,69.9999952316285,10|2,0:0|0:0,0:0:0:0:
312,92,102278,5,6,0:3:0:0:
318,184,102448,2,0,L|324:232,2,34.9999976158143,2|2|6,0:0|0:0|0:3,0:0:0:0:
241,235,102789,2,0,L|202:264,2,34.9999976158143,2|2|6,0:0|0:0|0:3,0:0:0:0:
158,194,103130,2,0,L|113:175,2,34.9999976158143,2|2|6,0:0|0:0|0:3,0:0:0:0:
152,102,103471,1,6,0:3:0:0:
228,50,103641,6,0,L|272:60,3,34.9999976158143,4|0|6|2,0:3|0:0|0:3|0:0,0:0:0:0:
292,40,103982,2,0,L|335:49,3,34.9999976158143,6|0|6|0,0:3|0:0|0:3|0:0,0:0:0:0:
336,80,104323,2,0,L|379:89,3,34.9999976158143,10|8|10|0,0:0|0:0|0:0|0:0,0:0:0:0:
399,69,104664,2,0,P|388:120|400:152,1,69.9999952316285,10|8,0:0|0:0,0:0:0:0:
483,144,105005,6,0,P|504:209|477:272,1,139.999990463257,4|6,0:3|0:3,0:0:0:0:
388,252,105516,1,0,0:0:0:0:
376,344,105687,2,0,P|311:365|248:338,1,139.999990463257,6|6,0:3|0:3,0:0:0:0:
156,328,106198,6,0,L|168:256,1,69.9999952316285,2|4,0:0|0:3,0:0:0:0:
212,180,106539,1,2,0:0:0:0:
212,180,106624,1,2,0:0:0:0:
212,180,106709,2,0,L|147:146,1,69.9999952316285,6|2,0:3|0:0,0:0:0:0:
120,60,107050,1,6,0:3:0:0:
120,60,107221,1,2,0:0:0:0:
208,32,107391,2,0,L|280:21,1,69.9999952316285,6|2,0:3|0:0,0:0:0:0:
366,0,107732,5,6,0:3:0:0:
378,92,107903,2,0,L|422:88,2,34.9999976158143,2|0|6,0:0|0:0|0:3,0:0:0:0:
390,184,108244,2,0,L|346:188,2,34.9999976158143,2|0|6,0:0|0:0|0:3,0:0:0:0:
402,276,108584,2,0,L|446:272,2,34.9999976158143,2|2|6,0:0|0:0|0:3,0:0:0:0:
414,368,108925,5,0,0:0:0:0:
410,372,109011,1,0,0:0:0:0:
406,376,109096,2,0,L|336:382,1,69.9999952316285,12|10,0:3|0:3,0:0:0:0:
244,384,109437,2,0,L|237:314,1,69.9999952316285,14|10,0:3|0:3,0:0:0:0:
236,222,109778,2,0,L|166:228,1,69.9999952316285,6|6,0:3|0:3,0:0:0:0:
74,230,110119,1,2,0:3:0:0:
91,47,110459,6,0,P|124:59|159:56,1,69.9999952316285,6|2,0:0|0:0,0:0:0:0:
248,28,110800,2,0,P|247:62|260:94,1,69.9999952316285,6|2,0:3|0:0,0:0:0:0:
315,170,111141,1,10,0:0:0:0:
315,170,111312,2,0,P|281:180|255:202,1,69.9999952316285,2|4,0:3|0:3,0:0:0:0:
328,260,111653,6,0,L|480:240,1,139.999990463257,10|2,0:0|0:0,0:0:0:0:
500,156,112164,1,6,0:3:0:0:
500,156,112334,1,2,0:0:0:0:
416,116,112505,2,0,P|407:82|417:49,2,69.9999952316285,10|2|10,0:0|0:0|0:0,0:0:0:0:
276,236,113187,6,0,L|196:216,1,69.9999952316285,6|2,0:0|0:0,0:0:0:0:
184,308,113528,2,0,L|116:324,1,69.9999952316285,6|0,0:3|0:0,0:0:0:0:
92,236,113869,1,10,0:0:0:0:
92,236,114039,2,0,L|24:219,1,69.9999952316285,2|4,0:0|0:3,0:0:0:0:
64,136,114380,6,0,P|124:102|193:109,1,139.999990463257,10|2,0:0|0:0,0:0:0:0:
268,160,114891,2,0,L|261:194,2,34.9999976158143,6|0|2,0:3|0:0|0:0,0:0:0:0:
352,120,115232,2,0,L|340:40,1,69.9999952316285,6|2,0:3|0:0,0:0:0:0:
341,50,115488,1,0,0:0:0:0:
341,50,115573,1,10,0:0:0:0:
508,132,115914,6,0,L|500:220,1,69.9999952316285,6|2,0:0|0:0,0:0:0:0:
500,292,116255,2,0,L|412:284,1,69.9999952316285,6|2,0:3|0:0,0:0:0:0:
340,264,116596,1,10,0:0:0:0:
340,264,116766,2,0,L|332:352,1,69.9999952316285,2|4,0:0|0:3,0:0:0:0:
252,376,117107,6,0,P|208:323|210:254,1,139.999990463257,10|2,0:0|0:0,0:0:0:0:
268,180,117619,1,6,0:3:0:0:
268,180,117789,1,2,0:0:0:0:
212,108,117959,2,0,L|132:116,1,69.9999952316285,10|0,0:0|0:0,0:0:0:0:
268,180,118300,2,0,L|348:172,1,69.9999952316285,4|8,0:3|0:0,0:0:0:0:
416,220,118641,5,6,0:3:0:0:
462,141,118812,2,0,L|508:140,2,34.9999976158143,10|2|6,0:0|0:0|0:3,0:0:0:0:
383,95,119153,2,0,L|382:49,2,34.9999976158143,10|2|6,0:0|0:0|0:3,0:0:0:0:
337,174,119494,2,0,L|291:175,2,34.9999976158143,10|2|6,0:0|0:0|0:3,0:0:0:0:
416,220,119834,5,10,0:0:0:0:
420,224,119920,1,2,0:0:0:0:
424,227,120005,2,0,P|410:260|406:294,1,69.9999952316285,10|10,0:0|0:0,0:0:0:0:
340,360,120346,2,0,P|305:356|273:342,1,69.9999952316285,10|10,0:0|0:0,0:0:0:0:
216,272,120687,1,10,0:0:0:0:
216,272,121028,1,10,0:0:0:0:
216,272,121369,1,14,0:0:0:0:
148,104,126823,6,0,L|220:92,1,55.9999961853028,6|0,0:0|0:0,0:0:0:0:
244,176,127164,2,0,L|113:198,1,111.999992370606,6|10,0:3|0:0,0:0:0:0:
48,164,127675,1,10,0:0:0:0:
20,340,128016,6,0,L|151:362,1,111.999992370606,10|2,0:0|0:0,0:0:0:0:
208,304,128528,1,6,0:3:0:0:
208,304,128698,1,6,0:3:0:0:
140,244,128869,2,0,P|123:191|139:138,1,111.999992370606,10|10,0:0|0:0,0:0:0:0:
288,32,129550,6,0,L|300:86,1,55.9999961853028,6|2,0:3|0:0,0:0:0:0:
388,104,129891,2,0,L|375:158,1,55.9999961853028,6|2,0:3|0:0,0:0:0:0:
288,176,130232,2,0,L|300:230,1,55.9999961853028,6|2,0:3|0:0,0:0:0:0:
388,248,130573,2,0,L|375:302,1,55.9999961853028,6|2,0:3|0:0,0:0:0:0:
288,320,130914,1,10,0:0:0:0:
256,192,130999,12,10,131937,0:0:0:0:
380,328,132278,6,0,L|220:304,1,153.99999420929,6|6,0:0|0:3,0:0:0:0:
124,332,132789,1,8,0:0:0:0:
124,332,132874,1,2,0:0:0:0:
124,332,132959,2,0,P|108:280|116:244,1,76.9999971046448,6|10,0:3|0:0,0:0:0:0:
144,156,133300,1,4,0:3:0:0:
240,204,133471,6,0,P|313:216|373:172,1,153.99999420929,10|10,0:0|0:0,0:0:0:0:
412,72,133982,1,6,0:3:0:0:
412,72,134153,1,10,0:0:0:0:
308,92,134323,2,0,L|232:75,1,76.9999971046448,6|8,0:3|0:0,0:0:0:0:
156,0,134664,2,0,L|80:16,1,76.9999971046448,6|0,0:3|0:0,0:0:0:0:
3,95,135005,6,0,P|26:169|38:245,1,153.99999420929,4|6,0:3|0:3,0:0:0:0:
132,300,135516,1,8,0:0:0:0:
132,300,135601,1,2,0:0:0:0:
132,300,135687,2,0,P|136:256|160:216,1,76.9999971046448,6|10,0:3|0:0,0:0:0:0:
248,184,136028,1,4,0:3:0:0:
224,80,136198,6,0,L|64:100,1,153.99999420929,10|10,0:0|0:0,0:0:0:0:
4,184,136709,2,0,L|24:272,1,76.9999971046448,6|8,0:3|0:0,0:0:0:0:
112,320,137050,1,8,0:0:0:0:
172,228,137221,1,6,0:3:0:0:
172,228,137391,2,0,L|264:248,1,76.9999971046448,4|10,0:3|0:0,0:0:0:0:
340,188,137732,6,0,P|316:136|356:44,1,153.99999420929,6|6,0:0|0:3,0:0:0:0:
456,28,138244,1,8,0:0:0:0:
456,28,138329,1,2,0:0:0:0:
456,28,138414,2,0,L|468:112,1,76.9999971046448,6|10,0:3|0:0,0:0:0:0:
484,212,138755,1,4,0:3:0:0:
496,320,138925,6,0,P|413:289|336:340,1,153.99999420929,10|10,0:0|0:0,0:0:0:0:
272,380,139437,1,6,0:3:0:0:
272,380,139607,1,10,0:0:0:0:
184,320,139778,2,0,L|204:224,1,76.9999971046448,6|8,0:3|0:0,0:0:0:0:
300,204,140119,2,0,L|280:108,1,76.9999971046448,6|0,0:3|0:0,0:0:0:0:
328,32,140459,5,6,0:3:0:0:
328,32,140630,1,10,0:0:0:0:
222,42,140800,1,6,0:3:0:0:
222,42,140971,1,10,0:0:0:0:
116,51,141141,2,0,P|77:49|43:33,1,76.9999971046448,6|10,0:3|0:0,0:0:0:0:
16,140,141482,2,0,P|33:174|36:212,1,76.9999971046448,6|10,0:3|0:0,0:0:0:0:
40,320,141823,6,0,L|1:314,4,38.4999985523224,10|8|8|8|0,0:0|0:0|0:0|0:0|0:0,0:0:0:0:
144,344,142334,2,0,L|158:379,4,38.4999985523224,10|8|8|8|0,0:0|0:0|0:0|0:0|0:0,0:0:0:0:
112,241,142846,2,0,P|132:196|128:148,1,76.9999971046448,10|0,0:0|0:0,0:0:0:0:
224,108,143187,6,0,P|278:160|286:235,1,153.99999420929,6|6,0:0|0:3,0:0:0:0:
316,340,143698,1,8,0:0:0:0:
316,340,143783,1,2,0:0:0:0:
316,340,143869,2,0,L|396:324,1,76.9999971046448,6|10,0:3|0:0,0:0:0:0:
492,360,144209,1,4,0:3:0:0:
504,248,144380,6,0,P|492:176|492:88,1,153.99999420929,10|10,0:0|0:0,0:0:0:0:
412,24,144891,1,6,0:3:0:0:
412,24,145062,1,10,0:0:0:0:
352,112,145232,2,0,L|252:100,1,76.9999971046448,6|8,0:3|0:0,0:0:0:0:
216,12,145573,2,0,L|139:21,1,76.9999971046448,6|0,0:3|0:0,0:0:0:0:
32,12,145914,6,0,P|16:60|72:152,1,153.99999420929,4|6,0:3|0:3,0:0:0:0:
160,192,146425,1,8,0:0:0:0:
160,192,146511,1,2,0:0:0:0:
160,192,146596,2,0,P|144:236|152:276,1,76.9999971046448,6|10,0:3|0:0,0:0:0:0:
220,344,146937,1,4,0:3:0:0:
292,264,147107,6,0,L|448:280,1,153.99999420929,10|10,0:0|0:0,0:0:0:0:
488,180,147619,2,0,L|464:96,1,76.9999971046448,6|0,0:3|0:0,0:0:0:0:
456,0,147959,1,8,0:0:0:0:
369,62,148130,1,6,0:3:0:0:
369,62,148300,2,0,L|272:48,1,76.9999971046448,4|10,0:3|0:0,0:0:0:0:
184,40,148641,6,0,L|208:192,1,153.99999420929,6|6,0:0|0:3,0:0:0:0:
300,248,149153,1,8,0:0:0:0:
300,248,149238,1,2,0:0:0:0:
300,248,149323,2,0,L|384:224,2,76.9999971046448,6|10|4,0:3|0:0|0:3,0:0:0:0:
248,344,149834,6,0,P|200:312|104:336,1,153.99999420929,10|10,0:0|0:0,0:0:0:0:
8,292,150346,2,0,L|24:204,1,76.9999971046448,6|0,0:3|0:0,0:0:0:0:
0,112,150687,2,0,L|84:81,1,76.9999971046448,6|8,0:3|0:0,0:0:0:0:
151,16,151028,2,0,L|219:73,1,76.9999971046448,6|0,0:3|0:0,0:0:0:0:
232,172,151369,5,6,0:3:0:0:
232,172,151539,1,10,0:0:0:0:
336,144,151709,1,6,0:3:0:0:
336,144,151880,1,10,0:0:0:0:
440,116,152050,2,0,L|464:220,1,76.9999971046448,6|10,0:3|0:0,0:0:0:0:
380,268,152391,2,0,L|356:372,1,76.9999971046448,6|10,0:3|0:0,0:0:0:0:
256,364,152732,5,10,0:0:0:0:
256,364,152817,1,8,0:0:0:0:
256,364,152903,2,0,P|221:346|183:345,1,76.9999971046448,8|8,0:0|0:0,0:0:0:0:
112,264,153244,1,10,0:0:0:0:
112,264,153329,1,8,0:0:0:0:
112,264,153414,2,0,P|146:246|184:245,1,76.9999971046448,8|8,0:0|0:0,0:0:0:0:
224,144,153755,2,0,L|212:56,1,76.9999971046448,10|8,0:0|0:0,0:0:0:0:
308,16,154096,6,0,L|330:176,1,153.99999420929,6|6,0:0|0:3,0:0:0:0:
296,272,154608,1,8,0:0:0:0:
296,272,154693,1,0,0:0:0:0:
296,272,154778,2,0,P|252:256|208:260,1,76.9999971046448,6|8,0:3|0:0,0:0:0:0:
244,364,155119,1,6,0:3:0:0:
352,364,155289,6,0,P|426:373|485:327,1,153.99999420929,10|10,0:0|0:0,0:0:0:0:
512,224,155800,1,4,0:3:0:0:
512,224,155971,1,10,0:0:0:0:
412,180,156141,2,0,L|424:92,1,76.9999971046448,6|10,0:3|0:0,0:0:0:0:
332,44,156482,2,0,L|320:132,1,76.9999971046448,6|0,0:3|0:0,0:0:0:0:
228,176,156823,5,6,0:3:0:0:
148,104,156994,2,0,L|154:60,2,38.4999985523224,8|2|6,0:0|0:0|0:3,0:0:0:0:
76,184,157334,1,10,0:0:0:0:
156,256,157505,2,0,P|168:292|158:332,2,76.9999971046448,6|10|4,0:3|0:0|0:3,0:0:0:0:
75,183,158016,6,0,P|41:117|63:45,1,153.99999420929,10|10,0:0|0:0,0:0:0:0:
168,12,158528,2,0,L|243:25,1,76.9999971046448,6|10,0:3|0:0,0:0:0:0:
352,48,158869,1,6,0:3:0:0:
278,130,159039,1,8,0:0:0:0:
278,130,159209,2,0,L|202:116,1,76.9999971046448,8|6,0:0|0:3,0:0:0:0:
352,48,159550,6,0,P|396:76|492:52,1,153.99999420929,6|6,0:3|0:3,0:0:0:0:
496,164,160062,1,8,0:0:0:0:
496,164,160147,1,2,0:0:0:0:
496,164,160232,2,0,P|484:204|484:252,1,76.9999971046448,6|10,0:3|0:0,0:0:0:0:
504,344,160573,1,4,0:3:0:0:
404,307,160744,6,0,L|307:329,1,76.9999971046448,10|4,0:0|0:3,0:0:0:0:
316,316,160999,1,2,0:0:0:0:
303,307,161084,2,0,L|206:328,1,76.9999971046448,10|6,0:0|0:3,0:0:0:0:
136,380,161425,1,10,0:0:0:0:
47,319,161596,2,0,P|39:282|50:246,1,76.9999971046448,6|8,0:3|0:0,0:0:0:0:
156,232,161937,2,0,P|164:194|153:158,1,76.9999971046448,6|0,0:3|0:0,0:0:0:0:
96,68,162278,6,0,L|131:53,3,38.4999985523224,6|6|10|6,0:3|0:3|0:0|0:3,0:0:0:0:
156,24,162619,2,0,L|191:38,3,38.4999985523224,6|2|10|6,0:3|0:0|0:0|0:3,0:0:0:0:
216,68,162959,2,0,L|251:53,3,38.4999985523224,6|6|10|6,0:3|0:3|0:0|0:3,0:0:0:0:
276,24,163300,2,0,L|311:38,3,38.4999985523224,6|6|10|6,0:3|0:3|0:0|0:3,0:0:0:0:
351,28,163641,6,0,P|328:98|371:159,1,153.99999420929,10|0,0:0|0:0,0:0:0:0:
340,264,164153,2,0,P|290:208|216:214,1,153.99999420929,10|0,0:0|0:0,0:0:0:0:
132,284,164664,1,2,0:0:0:0:
72,72,165005,6,0,L|147:57,1,76.9999971046448,6|10,0:3|0:0,0:0:0:0:
244,108,165346,2,0,L|319:93,1,76.9999971046448,6|10,0:3|0:0,0:0:0:0:
423,67,165687,2,0,P|429:86|432:105,3,38.4999985523224,10|10|10|8,0:0|0:0|0:3|0:3,0:0:0:0:
416,140,166028,2,0,P|418:159|424:177,3,38.4999985523224,10|8|6|4,0:0|0:0|0:3|0:3,0:0:0:0:
451,199,166369,6,0,P|383:196|330:240,1,139.999990463257,4|8,0:0|0:0,0:0:0:0:
280,324,166880,1,2,0:0:0:0:
184,300,167050,1,6,0:3:0:0:
184,300,167136,1,2,0:0:0:0:
184,300,167221,2,0,L|192:216,1,69.9999952316285,6|10,0:3|0:0,0:0:0:0:
244,148,167562,6,0,L|96:120,1,139.999990463257,6|6,0:3|0:3,0:0:0:0:
96,132,167988,1,2,0:0:0:0:
84,141,168073,2,0,P|96:174|94:209,1,69.9999952316285,10|6,0:0|0:3,0:0:0:0:
36,288,168414,2,0,L|-8:276,2,34.9999976158143,2|2|6,0:0|0:0|0:3,0:0:0:0:
132,300,168755,2,0,L|228:280,1,69.9999952316285,10|2,0:0|0:0,0:0:0:0:
284,336,169096,5,6,0:0:0:0:
336,252,169266,1,2,0:0:0:0:
336,252,169351,1,2,0:0:0:0:
336,252,169437,2,0,L|404:266,1,69.9999952316285,10|2,0:0|0:0,0:0:0:0:
392,168,169778,1,6,0:3:0:0:
392,168,169863,1,2,0:0:0:0:
392,168,169949,2,0,L|323:153,1,69.9999952316285,6|10,0:3|0:0,0:0:0:0:
264,76,170289,6,0,P|205:111|138:99,1,139.999990463257,6|6,0:3|0:3,0:0:0:0:
128,88,170715,1,2,0:0:0:0:
117,76,170800,2,0,L|109:160,1,69.9999952316285,10|6,0:0|0:3,0:0:0:0:
12,148,171141,2,0,L|21:30,2,104.999992847443,6|6|6,0:3|0:3|0:3,0:0:0:0:
20,248,171823,6,0,P|86:232|147:263,1,139.999990463257,6|10,0:0|0:0,0:0:0:0:
236,308,172334,1,2,0:0:0:0:
156,368,172505,1,6,0:3:0:0:
156,368,172590,1,2,0:0:0:0:
156,368,172675,2,0,L|80:360,1,69.9999952316285,6|10,0:3|0:0,0:0:0:0:
236,308,173016,6,0,L|388:292,1,139.999990463257,6|6,0:3|0:3,0:0:0:0:
384,304,173442,1,2,0:0:0:0:
392,314,173528,2,0,L|384:402,1,69.9999952316285,10|6,0:0|0:3,0:0:0:0:
484,364,173869,1,2,0:0:0:0:
484,364,173954,1,2,0:0:0:0:
484,364,174039,2,0,L|492:276,1,69.9999952316285,6|10,0:3|0:0,0:0:0:0:
460,200,174380,1,2,0:0:0:0:
364,211,174550,6,0,P|296:220|242:172,1,139.999990463257,6|10,0:0|0:0,0:0:0:0:
280,84,175062,1,2,0:0:0:0:
187,48,175233,1,6,0:3:0:0:
187,48,175317,1,2,0:0:0:0:
187,48,175403,2,0,P|160:64|116:72,1,69.9999952316285,6|10,0:3|0:0,0:0:0:0:
63,152,175744,6,0,P|122:187|138:254,1,139.999990463257,6|6,0:3|0:3,0:0:0:0:
128,264,176170,1,2,0:0:0:0:
117,273,176255,2,0,L|185:285,1,69.9999952316285,10|6,0:0|0:3,0:0:0:0:
264,348,176596,2,0,L|308:336,3,34.9999976158143,6|4|4|0,0:3|0:3|0:3|0:0,0:0:0:0:
332,348,176937,2,0,L|376:336,3,34.9999976158143,10|8|8|0,0:3|0:3|0:3|0:0,0:0:0:0:
399,347,177278,6,0,P|375:283|404:216,1,139.999990463257,4|4,0:0|0:3,0:0:0:0:
484,168,177789,1,2,0:0:0:0:
428,88,177959,2,0,P|364:63|300:87,1,139.999990463257,4|4,0:3|0:3,0:0:0:0:
228,156,178471,1,2,0:0:0:0:
144,104,178641,6,0,L|148:20,1,69.9999952316285,4|2,0:3|0:0,0:0:0:0:
52,56,178982,2,0,L|48:140,1,69.9999952316285,4|2,0:3|0:0,0:0:0:0:
44,224,179323,2,0,L|40:308,1,69.9999952316285,4|2,0:3|0:0,0:0:0:0:
136,272,179664,2,0,L|140:188,1,69.9999952316285,4|2,0:3|0:0,0:0:0:0:
228,156,180005,6,0,P|268:184|356:160,1,139.999990463257,4|4,0:0|0:3,0:0:0:0:
400,80,180516,1,2,0:0:0:0:
484,128,180687,2,0,L|476:208,1,69.9999952316285,4|2,0:3|0:0,0:0:0:0:
408,268,181028,2,0,L|400:348,1,69.9999952316285,4|2,0:3|0:0,0:0:0:0:
308,372,181369,6,0,P|282:349|248:342,1,69.9999952316285,4|2,0:3|0:0,0:0:0:0:
152,360,181709,2,0,P|165:328|161:293,1,69.9999952316285,4|2,0:3|0:0,0:0:0:0:
115,207,182050,2,0,P|149:210|181:195,1,69.9999952316285,4|2,0:3|0:0,0:0:0:0:
204,100,182391,1,4,0:3:0:0:
12,148,182732,6,0,L|31:286,1,139.999990463257,4|4,0:0|0:3,0:0:0:0:
104,356,183244,1,2,0:0:0:0:
160,276,183414,2,0,L|298:256,1,139.999990463257,4|4,0:3|0:3,0:0:0:0:
384,300,183925,1,2,0:0:0:0:
472,260,184096,6,0,P|460:227|462:192,1,69.9999952316285,4|2,0:3|0:0,0:0:0:0:
495,99,184437,2,0,P|460:92|431:73,1,69.9999952316285,4|2,0:3|0:0,0:0:0:0:
368,0,184778,2,0,P|345:26|314:42,1,69.9999952316285,4|2,0:3|0:0,0:0:0:0:
218,60,185119,2,0,P|229:92|227:127,1,69.9999952316285,4|2,0:3|0:0,0:0:0:0:
168,204,185459,6,0,L|12:172,1,139.999990463257,4|4,0:0|0:3,0:0:0:0:
0,268,185971,1,2,0:0:0:0:
19,363,186141,2,0,L|100:348,1,69.9999952316285,4|2,0:3|0:0,0:0:0:0:
180,384,186482,2,0,L|261:369,1,69.9999952316285,4|2,0:3|0:0,0:0:0:0:
348,356,186823,6,0,P|348:321|337:288,1,69.9999952316285,4|2,0:3|0:0,0:0:0:0:
348,188,187164,2,0,P|313:187|280:198,1,69.9999952316285,4|2,0:3|0:0,0:0:0:0:
190,255,187505,1,8,0:0:0:0:
190,255,187590,1,8,0:0:0:0:
190,255,187675,1,8,0:0:0:0:
108,200,187846,2,0,P|97:166|97:132,1,69.9999952316285,8|0,0:0|0:0,0:0:0:0:
132,40,188187,6,0,L|84:28,4,34.9999976158143,10|10|8|8|0,0:0|0:0|0:0|0:0|0:0,0:0:0:0:
232,36,188698,2,0,L|218:-11,4,34.9999976158143,8|8|10|10|0,0:0|0:0|0:0|0:0|0:0,0:0:0:0:
285,120,189209,2,0,L|319:84,4,34.9999976158143,10|10|8|8|0,0:0|0:0|0:0|0:0|0:0,0:0:0:0:
