osu file format v14

[General]
AudioFilename: audio.mp3
AudioLeadIn: 0
PreviewTime: 44423
Countdown: 0
SampleSet: Soft
StackLeniency: 0.2
Mode: 0
LetterboxInBreaks: 0
EpilepsyWarning: 1
WidescreenStoryboard: 0

[Editor]
Bookmarks: 6838,17747,23202,34111,45020,66838,77747,85929,99565,110474,121384,126838,132293,143202,154111,165020,166384,177293,182747
DistanceSpacing: 0.4
BeatDivisor: 4
GridSize: 32
TimelineZoom: 2.3

[Metadata]
Title:Suicide Parade
TitleUnicode:スーサイドパレヱド
Artist:YURRY CANON
ArtistUnicode:ユリイ・カノン
Creator:kwk
Version:Asaiga's Insane
Source:
Tags:vocaloid megpoid gumi メグッポイド グミ neonat asaiga ailv aliv anvil doormat kardia
BeatmapID:1850300
BeatmapSetID:854503

[Difficulty]
HPDrainRate:5
CircleSize:4
OverallDifficulty:7.5
ApproachRate:9.1
SliderMultiplier:1.75999990463257
SliderTickRate:1

[Events]
//Background and Video events
0,0,"wau.jpg",0,0
Video,0,"video.mp4"
//Break Periods
2,66823,77148
//Storyboard Layer 0 (Background)
//Storyboard Layer 1 (Fail)
//Storyboard Layer 2 (Pass)
//Storyboard Layer 3 (Foreground)
//Storyboard Sound Samples

[TimingPoints]
1369,340.909090909091,4,2,1,85,1,0
6823,-83.3333333333333,4,2,1,85,0,0
17732,-100,4,2,1,85,0,0
22846,-125,4,2,1,85,0,0
23101,-125,4,2,1,85,0,0
23187,-100,4,2,1,75,0,0
25658,-100,4,2,1,75,0,0
25744,-100,4,2,1,75,0,0
25829,-100,4,2,1,75,0,0
25914,-100,4,2,1,75,0,0
32732,-100,4,2,3,75,0,0
34096,-100,4,2,1,75,0,0
44664,-250.000000000001,4,2,2,85,0,0
44920,-250.000000000001,4,2,2,5,0,0
45005,-83.3333333333333,4,2,1,100,0,1
45261,-83.3333333333333,4,2,1,100,0,1
45346,-83.3333333333333,4,2,1,100,0,1
47391,-83.3333333333333,4,2,2,100,0,1
47647,-83.3333333333333,4,2,2,100,0,1
47732,-83.3333333333333,4,2,1,100,0,1
52846,-83.3333333333333,4,2,2,100,0,1
53101,-83.3333333333333,4,2,2,100,0,1
53187,-83.3333333333333,4,2,1,100,0,1
55914,-83.3333333333333,4,2,2,100,0,1
56170,-83.3333333333333,4,2,2,100,0,1
56255,-83.3333333333333,4,2,1,100,0,1
58300,-83.3333333333333,4,2,2,100,0,1
58556,-83.3333333333333,4,2,2,100,0,1
58641,-83.3333333333333,4,2,1,100,0,1
61369,-83.3333333333333,4,2,2,100,0,1
61709,-83.3333333333333,4,2,1,100,0,1
63755,-83.3333333333333,4,2,2,100,0,1
64011,-83.3333333333333,4,2,2,100,0,1
64096,-83.3333333333333,4,2,1,100,0,1
66823,-100,4,2,1,85,0,0
77732,-125,4,2,1,85,0,0
85914,-100,4,2,1,85,0,0
98187,-100,4,2,2,95,0,0
98869,-100,4,2,1,95,0,0
99550,-100,4,2,1,85,0,0
109096,-100,4,2,3,85,0,0
110119,-100,4,2,1,85,0,0
121028,-250,4,2,1,85,0,0
121283,-250,4,2,1,5,0,0
121369,-125,4,2,1,70,0,0
126738,-125,4,2,1,70,0,0
126823,-100,4,2,1,85,0,0
132278,-83.3333333333333,4,2,1,100,0,1
132533,-83.3333333333333,4,2,1,100,0,1
132619,-83.3333333333333,4,2,1,100,0,1
134664,-83.3333333333333,4,2,2,100,0,1
134920,-83.3333333333333,4,2,2,100,0,1
135005,-83.3333333333333,4,2,1,100,0,1
140119,-83.3333333333333,4,2,2,100,0,1
140374,-83.3333333333333,4,2,2,100,0,1
140459,-83.3333333333333,4,2,1,100,0,1
142846,-250.000000000001,4,2,2,100,0,0
143101,-250.000000000001,4,2,2,5,0,0
143187,-83.3333333333333,4,2,1,100,0,1
143442,-83.3333333333333,4,2,1,100,0,1
143528,-83.3333333333333,4,2,1,100,0,1
145573,-83.3333333333333,4,2,2,100,0,1
145829,-83.3333333333333,4,2,2,100,0,1
145914,-83.3333333333333,4,2,1,100,0,1
151028,-83.3333333333333,4,2,2,100,0,1
151283,-83.3333333333333,4,2,2,100,0,1
151369,-83.3333333333333,4,2,1,100,0,1
154096,-83.3333333333333,4,2,2,100,0,1
154351,-83.3333333333333,4,2,2,100,0,1
154437,-83.3333333333333,4,2,1,100,0,1
156482,-83.3333333333333,4,2,2,100,0,1
156823,-83.3333333333333,4,2,1,100,0,1
159550,-83.3333333333333,4,2,2,100,0,1
159891,-83.3333333333333,4,2,1,100,0,1
161937,-83.3333333333333,4,2,2,100,0,1
162278,-83.3333333333333,4,2,1,100,0,1
164664,-83.3333333333333,4,2,2,100,0,1
165005,-83.3333333333333,4,2,1,100,0,1
166369,-100,4,2,1,85,0,0

[Colours]
Combo1 : 133,207,202
Combo2 : 226,156,216

[HitObjects]
158,147,6823,6,0,L|141:42,1,105.599991055298,4|2,0:0|0:0,0:0:0:0:
84,208,7164,1,8,0:0:0:0:
146,284,7334,1,2,0:0:0:0:
303,181,7505,5,6,0:3:0:0:
326,200,7590,1,2,0:0:0:0:
326,231,7675,1,6,0:3:0:0:
349,252,7761,1,0,0:0:0:0:
349,252,7846,1,10,0:0:0:0:
342,104,8016,6,0,B|301:112|268:108|268:108|229:160|229:160|199:147|147:147,1,211.199982110596,6|6,0:3|0:3,0:0:0:0:
53,183,8528,1,10,0:0:0:0:
195,60,8698,1,6,0:3:0:0:
161,249,8869,5,2,0:0:0:0:
150,276,8954,1,2,0:0:0:0:
165,303,9039,1,6,0:3:0:0:
155,333,9125,1,0,0:0:0:0:
155,333,9210,1,10,0:0:0:0:
262,238,9380,1,2,0:0:0:0:
123,99,9550,6,0,P|174:106|242:110,1,105.599991055298,6|2,0:0|0:0,0:0:0:0:
363,183,9891,2,0,P|414:176|482:172,1,105.599991055298,10|2,0:0|0:0,0:0:0:0:
262,238,10232,5,6,0:3:0:0:
235,249,10317,1,2,0:0:0:0:
207,234,10402,1,6,0:3:0:0:
178,245,10488,1,0,0:0:0:0:
178,245,10573,1,10,0:0:0:0:
360,360,10744,6,0,B|364:294|377:220|377:220|362:255|333:277,1,211.199982110596,6|6,0:3|0:3,0:0:0:0:
423,135,11255,1,10,0:0:0:0:
283,191,11425,1,6,0:3:0:0:
109,70,11596,5,6,0:3:0:0:
15,119,11851,1,6,0:3:0:0:
18,14,12107,1,6,0:3:0:0:
177,181,12278,6,0,L|286:191,1,105.599991055298,6|0,0:0|0:0,0:0:0:0:
123,261,12619,1,10,0:0:0:0:
68,164,12789,1,2,0:0:0:0:
195,41,12959,5,6,0:3:0:0:
222,52,13044,1,2,0:0:0:0:
250,37,13129,1,6,0:3:0:0:
279,48,13215,1,0,0:0:0:0:
279,48,13300,1,10,0:0:0:0:
402,188,13471,6,0,P|409:106|333:161,1,211.199982110596,6|6,0:3|0:3,0:0:0:0:
288,318,13982,1,10,0:0:0:0:
333,234,14153,1,6,0:3:0:0:
134,130,14323,5,2,0:0:0:0:
112,149,14408,1,2,0:0:0:0:
80,144,14493,1,6,0:3:0:0:
56,163,14579,1,0,0:0:0:0:
56,163,14664,1,10,0:0:0:0:
123,261,14834,1,2,0:0:0:0:
225,103,15005,6,0,P|216:44|205:-5,1,105.599991055298,6|0,0:0|0:0,0:0:0:0:
351,130,15346,2,0,P|340:181|333:234,1,105.599991055298,10|2,0:0|0:0,0:0:0:0:
181,337,15687,5,6,0:3:0:0:
208,346,15772,1,2,0:0:0:0:
236,330,15857,1,6,0:3:0:0:
265,339,15943,1,0,0:0:0:0:
265,339,16028,1,10,0:0:0:0:
144,249,16198,6,0,B|84:268|19:262|19:262|58:282|86:317,1,211.199982110596,6|6,0:3|0:3,0:0:0:0:
65,150,16709,1,10,0:0:0:0:
181,337,16880,1,6,0:3:0:0:
276,137,17050,5,6,0:3:0:0:
284,109,17135,1,4,0:3:0:0:
268,80,17220,1,4,0:3:0:0:
278,52,17306,1,0,0:0:0:0:
278,52,17391,1,10,0:3:0:0:
278,52,17732,6,0,P|239:72|190:70,1,87.9999952316285,4|2,0:0|0:0,0:0:0:0:
42,108,18073,2,0,P|85:107|124:127,1,87.9999952316285,4|2,0:3|0:0,0:0:0:0:
272,173,18414,2,0,P|233:193|184:191,1,87.9999952316285,4|2,0:3|0:0,0:0:0:0:
36,229,18755,2,0,P|79:228|118:248,1,87.9999952316285,4|2,0:3|0:0,0:0:0:0:
247,345,19096,5,4,0:3:0:0:
314,211,19266,1,2,0:0:0:0:
213,243,19437,1,4,0:3:0:0:
347,311,19607,1,2,0:0:0:0:
240,359,19778,5,4,0:3:0:0:
321,197,19948,1,2,0:0:0:0:
198,235,20119,1,4,0:3:0:0:
360,318,20289,1,2,0:0:0:0:
244,140,20459,6,0,L|259:35,1,87.9999952316285,4|2,0:0|0:0,0:0:0:0:
118,172,20800,2,0,L|133:67,1,87.9999952316285,4|2,0:3|0:0,0:0:0:0:
181,301,21141,2,0,L|196:196,1,87.9999952316285,4|2,0:3|0:0,0:0:0:0:
55,333,21482,2,0,L|70:228,1,87.9999952316285,4|2,0:3|0:0,0:0:0:0:
46,34,21823,5,4,0:3:0:0:
166,122,21993,1,2,0:0:0:0:
62,140,22164,1,4,0:3:0:0:
150,18,22334,1,2,0:0:0:0:
33,24,22505,5,4,0:3:0:0:
179,132,22675,1,2,0:0:0:0:
52,154,22846,2,0,B|43:196|43:196|45:219|45:219|36:259,1,105.599994277954,4|0,0:3|0:0,0:0:0:0:
32,289,23187,6,0,P|74:270|132:278,1,87.9999952316285,6|0,0:0|0:0,0:0:0:0:
166,338,23528,1,6,0:3:0:0:
202,232,23698,1,2,0:0:0:0:
257,310,23869,2,0,P|323:354|409:323,1,175.999990463257,6|6,0:3|0:3,0:0:0:0:
351,169,24380,2,0,L|339:257,1,87.9999952316285,2|4,0:0|0:3,0:0:0:0:
432,117,24721,5,2,0:0:0:0:
366,47,24891,2,0,P|318:50|265:59,1,87.9999952316285,6|2,0:3|0:0,0:0:0:0:
176,163,25232,2,0,P|219:168|263:171,1,87.9999952316285,6|2,0:3|0:0,0:0:0:0:
198,280,25573,1,6,0:3:0:0:
122,347,25744,1,2,0:0:0:0:
177,182,25914,1,6,0:0:0:0:
274,358,26084,6,0,L|324:352,2,43.9999976158143,2|0|4,0:0|0:0|0:3,0:0:0:0:
181,270,26425,2,0,L|131:264,2,43.9999976158143,2|2|6,0:0|0:0|0:3,0:0:0:0:
294,171,26766,2,0,L|344:165,2,43.9999976158143,2|2|6,0:0|0:0|0:3,0:0:0:0:
180,62,27107,6,0,L|122:55,1,43.9999976158143,2|2,0:0|0:0,0:0:0:0:
44,46,27278,1,4,0:3:0:0:
17,68,27363,1,0,0:0:0:0:
5,101,27448,1,2,0:0:0:0:
12,135,27533,1,0,0:0:0:0:
33,163,27619,1,6,0:3:0:0:
65,174,27704,1,0,0:0:0:0:
89,198,27789,1,2,0:0:0:0:
103,229,27874,1,0,0:0:0:0:
101,255,27959,6,0,L|158:250,3,43.9999976158143,6|0|6|0,0:3|0:0|0:3|0:0,0:0:0:0:
204,202,28300,2,0,L|261:207,3,43.9999976158143,2|0|6|0,0:0|0:0|0:3|0:0,0:0:0:0:
296,264,28641,6,0,L|284:365,1,87.9999952316285,6|0,0:0|0:0,0:0:0:0:
410,228,28982,2,0,P|375:202|332:196,1,87.9999952316285,6|2,0:3|0:0,0:0:0:0:
400,327,29323,2,0,P|480:297|505:213,1,175.999990463257,6|6,0:3|0:3,0:0:0:0:
422,134,29834,6,0,P|414:87|410:45,1,87.9999952316285,2|4,0:0|0:3,0:0:0:0:
331,196,30175,2,0,P|280:201|227:210,1,87.9999952316285,2|6,0:0|0:3,0:0:0:0:
107,106,30516,2,0,P|151:102|196:93,1,87.9999952316285,2|6,0:0|0:3,0:0:0:0:
295,49,30857,1,2,0:0:0:0:
243,206,31028,1,6,0:3:0:0:
391,290,31198,1,0,0:0:0:0:
247,340,31369,6,0,P|201:335|156:333,1,87.9999952316285,6|2,0:0|0:0,0:0:0:0:
90,350,31624,1,0,0:0:0:0:
90,350,31709,2,0,P|82:301|76:252,1,87.9999952316285,4|2,0:3|0:0,0:0:0:0:
59,191,31965,1,0,0:0:0:0:
59,191,32050,2,0,P|104:195|150:198,1,87.9999952316285,4|2,0:3|0:0,0:0:0:0:
225,178,32306,1,0,0:0:0:0:
225,178,32391,2,0,P|217:221|212:265,1,87.9999952316285,4|2,0:3|0:0,0:0:0:0:
316,367,32732,5,12,0:3:0:0:
335,350,32817,1,8,0:3:0:0:
360,342,32903,1,10,0:3:0:0:
387,342,32988,1,8,0:3:0:0:
412,348,33073,6,0,L|458:340,3,43.9999976158143,14|8|10|8,0:3|0:3|0:3|0:3,0:0:0:0:
440,252,33414,2,0,L|493:243,3,43.9999976158143,6|4|6|4,0:3|0:3|0:3|0:3,0:0:0:0:
357,269,33755,1,6,0:3:0:0:
457,87,34096,6,0,P|479:128|468:180,1,87.9999952316285,6|2,0:0|0:0,0:0:0:0:
373,283,34437,2,0,P|369:239|390:202,1,87.9999952316285,6|2,0:3|0:0,0:0:0:0:
464,316,34778,1,10,0:0:0:0:
374,117,34948,1,2,0:3:0:0:
374,117,35289,6,0,B|328:119|328:119|333:123|333:123|278:126,1,87.9999952316285,10|0,0:0|0:0,0:0:0:0:
140,88,35630,1,2,0:0:0:0:
263,31,35800,1,6,0:3:0:0:
133,114,35971,1,2,0:0:0:0:
244,211,36141,1,10,0:0:0:0:
118,282,36312,1,2,0:0:0:0:
261,229,36482,1,10,0:0:0:0:
261,229,36823,6,0,P|280:272|271:329,1,87.9999952316285,6|2,0:0|0:0,0:0:0:0:
328,162,37164,2,0,P|309:119|318:62,1,87.9999952316285,6|2,0:3|0:0,0:0:0:0:
408,213,37505,1,10,0:0:0:0:
366,0,37675,1,2,0:0:0:0:
366,0,38016,6,0,B|320:2|320:2|325:6|325:6|270:9,1,87.9999952316285,10|0,0:0|0:0,0:0:0:0:
130,126,38357,1,2,0:0:0:0:
316,165,38528,1,6,0:3:0:0:
182,24,38698,1,2,0:0:0:0:
192,223,38869,1,6,0:3:0:0:
351,141,39039,1,2,0:0:0:0:
110,91,39209,1,10,0:0:0:0:
110,91,39550,6,0,P|92:134|100:184,1,87.9999952316285,6|2,0:0|0:0,0:0:0:0:
122,347,39891,2,0,P|140:304|132:254,1,87.9999952316285,6|2,0:3|0:0,0:0:0:0:
54,293,40232,1,10,0:0:0:0:
177,146,40403,1,2,0:0:0:0:
177,146,40744,6,0,B|223:148|223:148|218:152|218:152|273:155,1,87.9999952316285,10|0,0:0|0:0,0:0:0:0:
437,220,41084,1,2,0:0:0:0:
337,96,41255,1,6,0:3:0:0:
282,291,41425,1,2,0:0:0:0:
458,214,41596,1,10,0:0:0:0:
109,39,41937,5,4,0:3:0:0:
106,56,42022,1,0,0:0:0:0:
103,73,42107,1,8,0:0:0:0:
100,90,42192,1,0,0:0:0:0:
97,107,42278,6,0,L|201:100,1,87.9999952316285,6|10,0:3|0:0,0:0:0:0:
296,266,42619,2,0,L|192:259,1,87.9999952316285,6|10,0:3|0:0,0:0:0:0:
299,33,42959,2,0,L|403:26,1,87.9999952316285,6|10,0:3|0:0,0:0:0:0:
512,177,43300,2,0,L|408:170,1,87.9999952316285,6|10,0:3|0:0,0:0:0:0:
237,187,43641,5,10,0:0:0:0:
262,36,43812,1,10,0:0:0:0:
223,203,43982,1,10,0:0:0:0:
276,18,44153,1,10,0:0:0:0:
355,211,44323,1,10,0:0:0:0:
355,211,44664,6,0,P|362:184|373:151,1,52.7999971389771,2|0,0:3|0:0,0:0:0:0:
380,128,45005,6,0,B|313:122|313:122|289:136|289:136|218:129,1,158.399986582947,6|0,0:0|0:0,0:0:0:0:
166,184,45346,2,0,P|145:133|166:77,1,105.599991055298,6|8,0:3|0:0,0:0:0:0:
96,53,45601,1,2,0:0:0:0:
96,53,45687,1,6,0:3:0:0:
0,215,45857,2,0,P|49:206|96:227,1,105.599991055298,10|4,0:0|0:3,0:0:0:0:
204,291,46198,6,0,B|244:289|275:278|275:278|303:296|335:303|335:303|369:292|410:294,1,211.199982110596,10|10,0:0|0:0,0:0:0:0:
349,197,46709,1,6,0:3:0:0:
256,375,46880,1,10,0:0:0:0:
164,165,47050,2,0,P|169:110|176:58,1,105.599991055298,6|8,0:3|0:0,0:0:0:0:
371,171,47391,2,0,B|423:175|475:156|475:156|452:180|447:202,1,158.399986582947,6|0,0:3|0:0,0:0:0:0:
381,261,47732,5,4,0:3:0:0:
224,196,47903,1,8,0:0:0:0:
104,302,48073,2,0,P|155:310|214:281,1,105.599991055298,6|8,0:3|0:0,0:0:0:0:
293,125,48414,1,6,0:3:0:0:
186,4,48584,2,0,P|178:55|207:114,1,105.599991055298,10|4,0:0|0:3,0:0:0:0:
381,261,48925,6,0,B|315:242|247:226|247:226|276:249|281:290,1,211.199982110596,10|10,0:0|0:0,0:0:0:0:
392,176,49437,1,6,0:3:0:0:
280,371,49607,1,8,0:0:0:0:
273,141,49778,1,8,0:0:0:0:
425,328,49948,5,6,0:3:0:0:
432,334,50119,1,4,0:3:0:0:
323,271,50289,1,10,0:0:0:0:
161,352,50459,6,0,P|55:353|12:267,1,211.199982110596,6|6,0:0|0:3,0:0:0:0:
67,91,50971,1,8,0:0:0:0:
125,167,51141,2,0,L|108:272,2,105.599991055298,6|10|4,0:3|0:0|0:3,0:0:0:0:
204,31,51653,6,0,P|309:25|425:18,1,211.199982110596,10|10,0:0|0:0,0:0:0:0:
370,208,52164,1,6,0:3:0:0:
308,119,52334,1,10,0:0:0:0:
252,270,52505,2,0,P|242:329|233:392,1,105.599991055298,6|8,0:3|0:0,0:0:0:0:
104,253,52846,2,0,B|52:249|0:268|0:268|23:244|28:222,1,158.399986582947,6|0,0:3|0:0,0:0:0:0:
95,165,53187,5,6,0:0:0:0:
243,323,53357,1,10,0:0:0:0:
410,247,53528,2,0,P|358:238|290:263,1,105.599991055298,6|10,0:3|0:0,0:0:0:0:
110,348,53869,1,6,0:3:0:0:
171,175,54040,2,0,P|128:206|99:272,1,105.599991055298,10|0,0:0|0:0,0:0:0:0:
263,335,54380,1,10,0:0:0:0:
383,188,54550,5,10,0:0:0:0:
393,191,54636,1,8,0:0:0:0:
403,194,54721,2,0,L|411:260,1,52.7999955276491,8|0,0:0|0:0,0:0:0:0:
197,116,55062,5,10,0:0:0:0:
187,119,55148,1,8,0:0:0:0:
177,122,55233,2,0,L|169:188,1,52.7999955276491,8|0,0:0|0:0,0:0:0:0:
358,15,55573,5,10,0:0:0:0:
376,40,55658,1,8,0:0:0:0:
384,70,55744,1,8,0:0:0:0:
379,101,55829,1,8,0:0:0:0:
359,125,55914,6,0,B|338:153|328:170|328:170|359:278,1,158.399986582947,6|0,0:0|0:0,0:0:0:0:
316,334,56255,2,0,L|421:313,1,105.599991055298,6|8,0:3|0:0,0:0:0:0:
486,358,56511,1,2,0:0:0:0:
486,358,56596,1,6,0:3:0:0:
348,241,56766,2,0,L|241:219,1,105.599991055298,10|4,0:0|0:3,0:0:0:0:
61,134,57107,6,0,B|78:117|92:91|92:91|102:179|68:260,1,211.199982110596,10|10,0:0|0:0,0:0:0:0:
27,347,57619,1,6,0:3:0:0:
178,217,57789,1,10,0:0:0:0:
260,340,57959,2,0,P|315:332|375:332,1,105.599991055298,6|8,0:3|0:0,0:0:0:0:
509,167,58300,2,0,B|484:121|480:65|480:65|467:96|449:110,1,158.399986582947,6|0,0:3|0:0,0:0:0:0:
423,192,58641,5,6,0:3:0:0:
229,86,58812,1,8,0:0:0:0:
377,27,58982,2,0,P|360:76|308:115,1,105.599991055298,6|8,0:3|0:0,0:0:0:0:
127,223,59323,1,6,0:3:0:0:
149,65,59494,2,0,P|183:103|191:168,1,105.599991055298,10|4,0:0|0:3,0:0:0:0:
78,329,59834,6,0,B|201:355|156:287|288:312,1,211.199982110596,10|10,0:0|0:0,0:0:0:0:
473,335,60346,1,6,0:3:0:0:
352,161,60516,1,8,0:0:0:0:
372,288,60687,1,8,0:0:0:0:
489,119,60857,5,6,0:3:0:0:
493,110,61028,1,4,0:3:0:0:
363,177,61198,1,10,0:0:0:0:
243,38,61369,6,0,P|137:37|94:123,1,211.199982110596,6|6,0:0|0:3,0:0:0:0:
149,299,61881,1,8,0:0:0:0:
207,223,62051,2,0,L|190:118,2,105.599991055298,6|10|4,0:3|0:0|0:3,0:0:0:0:
331,353,62562,6,0,B|355:346|382:356|382:356|338:326|294:328|316:369|229:350,1,211.199982110596,10|10,0:0|0:0,0:0:0:0:
136,314,63073,1,6,0:3:0:0:
259,242,63244,1,10,0:0:0:0:
140,110,63414,2,0,P|129:164|125:221,1,105.599991055298,6|8,0:3|0:0,0:0:0:0:
328,132,63755,2,0,B|315:81|324:26|324:26|305:53|284:62,1,158.399986582947,6|0,0:3|0:0,0:0:0:0:
239,132,64096,5,6,0:0:0:0:
282,333,64266,1,10,0:0:0:0:
158,232,64436,2,0,P|209:223|268:249,1,105.599991055298,6|10,0:3|0:0,0:0:0:0:
94,342,64778,1,6,0:3:0:0:
75,162,64948,2,0,P|117:191|140:252,1,105.599991055298,10|6,0:0|0:3,0:0:0:0:
199,125,65289,1,10,0:0:0:0:
282,333,65459,5,10,0:0:0:0:
256,192,65545,12,10,66482,0:0:0:0:
464,126,77732,6,0,P|373:170|293:109,1,211.199988555908,6|6,0:3|0:3,0:0:0:0:
382,73,78414,1,10,0:0:0:0:
382,73,78755,2,0,L|388:159,1,70.3999961853028,6|0,0:3|0:0,0:0:0:0:
420,253,79096,6,0,B|348:267|362:226|278:240,1,140.799992370606,6|6,0:3|0:3,0:0:0:0:
208,300,79607,1,6,0:3:0:0:
208,300,79692,1,0,0:0:0:0:
208,300,79778,1,10,0:0:0:0:
304,327,79948,1,2,0:0:0:0:
199,199,80119,1,10,0:0:0:0:
199,199,80459,6,0,L|110:188,1,70.3999961853028,2|0,0:0|0:0,0:0:0:0:
89,104,80800,1,6,0:3:0:0:
86,89,80914,1,2,0:0:0:0:
269,49,81141,1,10,0:0:0:0:
274,36,81255,1,2,0:0:0:0:
390,179,81482,1,2,0:0:0:0:
404,179,81596,1,0,0:0:0:0:
307,294,81823,6,0,L|226:289,1,70.3999961853028,6|0,0:3|0:0,0:0:0:0:
156,212,82164,2,0,L|73:217,1,70.3999961853028,2|0,0:0|0:0,0:0:0:0:
56,203,82391,1,2,0:0:0:0:
33,221,82505,2,0,P|19:275|24:304,1,70.3999961853028,6|0,0:3|0:0,0:0:0:0:
90,376,82846,1,10,0:0:0:0:
156,212,83016,1,10,0:0:0:0:
236,289,83187,6,0,P|327:333|407:272,1,211.199988555908,6|6,0:3|0:3,0:0:0:0:
319,236,83869,1,10,0:0:0:0:
319,236,84210,2,0,L|325:150,1,70.3999961853028,6|6,0:3|0:3,0:0:0:0:
375,67,84551,6,0,B|303:53|317:94|233:80,1,140.799992370606,6|6,0:3|0:3,0:0:0:0:
130,174,85062,1,0,0:0:0:0:
130,174,85147,1,0,0:0:0:0:
130,174,85233,1,10,0:0:0:0:
236,289,85403,1,10,0:0:0:0:
236,289,85488,1,10,0:0:0:0:
236,289,85574,1,10,0:0:0:0:
236,289,85914,6,0,P|308:253|395:292,1,175.999990463257,6|4,0:0|0:3,0:0:0:0:
479,196,86425,1,10,0:0:0:0:
476,178,86511,1,0,0:0:0:0:
473,160,86596,2,0,L|374:146,1,87.9999952316285,6|8,0:3|0:0,0:0:0:0:
245,181,86937,1,6,0:3:0:0:
332,84,87107,1,10,0:0:0:0:
205,95,87278,6,0,B|162:102|162:102|113:81,1,87.9999952316285,6|8,0:3|0:0,0:0:0:0:
55,55,87533,1,0,0:0:0:0:
55,55,87619,2,0,B|37:95|37:95|44:138,1,87.9999952316285,6|8,0:3|0:0,0:0:0:0:
47,219,87874,1,0,0:0:0:0:
47,219,87960,2,0,B|87:201|87:201|130:208,1,87.9999952316285,6|0,0:3|0:0,0:0:0:0:
207,232,88215,1,0,0:0:0:0:
207,232,88301,2,0,B|224:272|224:272|217:315,1,87.9999952316285,6|8,0:3|0:0,0:0:0:0:
283,181,88641,6,0,B|319:262|319:262|300:361,1,175.999990463257,6|6,0:3|0:3,0:0:0:0:
420,276,89153,1,8,0:0:0:0:
420,276,89238,1,0,0:0:0:0:
420,276,89323,2,0,L|473:194,1,87.9999952316285,6|10,0:3|0:0,0:0:0:0:
383,156,89664,1,4,0:3:0:0:
472,334,89834,6,0,B|374:305|398:371|302:347,1,175.999990463257,10|2,0:0|0:0,0:0:0:0:
192,279,90346,1,10,0:0:0:0:
338,256,90516,2,0,P|345:235|353:201,2,43.9999976158143,6|2|10,0:3|0:0|0:0,0:0:0:0:
213,374,90857,1,6,0:3:0:0:
195,372,90942,1,2,0:0:0:0:
177,370,91028,1,10,0:0:0:0:
159,368,91113,1,0,0:0:0:0:
141,366,91198,1,6,0:3:0:0:
123,364,91283,1,0,0:0:0:0:
105,362,91369,6,0,P|93:321|88:264,1,87.9999952316285,10|6,0:0|0:3,0:0:0:0:
172,84,91709,2,0,P|167:127|154:169,1,87.9999952316285,10|6,0:0|0:3,0:0:0:0:
142,202,91965,1,0,0:0:0:0:
142,202,92050,2,0,L|200:210,1,43.9999976158143,10|0,0:0|0:0,0:0:0:0:
250,266,92221,2,0,L|308:258,1,43.9999976158143,6|0,0:3|0:0,0:0:0:0:
370,296,92391,1,10,0:0:0:0:
192,371,92562,6,0,B|160:322|160:322|186:204,1,175.999990463257,6|6,0:3|0:3,0:0:0:0:
235,153,92988,1,2,0:0:0:0:
235,153,93073,2,0,P|277:170|327:173,1,87.9999952316285,10|6,0:0|0:3,0:0:0:0:
389,145,93329,1,2,0:0:0:0:
389,145,93414,1,10,0:0:0:0:
172,84,93584,1,6,0:3:0:0:
172,84,93925,1,6,0:3:0:0:
95,110,94096,6,0,L|74:202,1,87.9999952316285,10|6,0:0|0:3,0:0:0:0:
162,256,94437,1,10,0:0:0:0:
179,254,94522,1,2,0:0:0:0:
196,253,94607,1,6,0:3:0:0:
73,369,94778,2,0,L|92:283,1,87.9999952316285,10|6,0:0|0:3,0:0:0:0:
87,243,95033,1,2,0:0:0:0:
87,243,95119,1,10,0:0:0:0:
233,366,95289,6,8,B|303:358|303:358|334:373|334:373|404:367,1,175.999990463257,6|10,0:0|0:0,0:0:0:0:
446,366,95715,1,0,0:0:0:0:
446,366,95800,1,6,0:3:0:0:
405,247,95971,2,0,P|417:203|433:159,1,87.9999952316285,10|6,0:0|0:3,0:0:0:0:
328,45,96312,2,0,P|342:86|354:128,1,87.9999952316285,10|6,0:0|0:3,0:0:0:0:
427,8,96653,1,10,0:0:0:0:
260,113,96823,6,0,L|164:102,1,87.9999952316285,6|8,0:3|0:0,0:0:0:0:
99,97,97079,1,0,0:0:0:0:
99,97,97164,2,0,B|82:138|82:138|94:185,1,87.9999952316285,6|8,0:3|0:0,0:0:0:0:
126,253,97420,1,0,0:0:0:0:
126,253,97505,2,0,L|213:242,1,87.9999952316285,6|8,0:3|0:0,0:0:0:0:
291,234,97761,1,0,0:0:0:0:
291,234,97846,2,0,B|308:193|308:193|296:146,1,87.9999952316285,6|8,0:3|0:0,0:0:0:0:
271,83,98101,1,0,0:0:0:0:
271,83,98187,6,0,P|292:71|325:63,3,43.9999976158143,10|8|8|8,0:3|0:3|0:0|0:3,0:0:0:0:
372,23,98528,2,0,P|392:35|416:59,3,43.9999976158143,8|0|8|8,0:3|0:0|0:0|0:3,0:0:0:0:
483,45,98869,1,4,0:3:0:0:
453,207,99039,1,10,0:0:0:0:
498,57,99209,1,6,0:3:0:0:
468,219,99379,1,10,0:0:0:0:
439,376,99550,6,0,P|394:370|343:368,1,87.9999952316285,14|2,0:0|0:0,0:0:0:0:
296,290,99891,1,6,0:3:0:0:
267,382,100062,1,0,0:0:0:0:
217,299,100232,2,0,P|155:275|78:360,1,175.999990463257,8|2,0:0|0:0,0:0:0:0:
0,204,100744,2,0,P|44:212|88:216,1,87.9999952316285,10|0,0:0|0:0,0:0:0:0:
185,77,101085,5,2,0:0:0:0:
259,141,101255,2,0,P|265:184|268:228,1,87.9999952316285,6|2,0:3|0:0,0:0:0:0:
217,326,101596,2,0,P|260:317|303:311,1,87.9999952316285,10|2,0:0|0:0,0:0:0:0:
415,260,101937,1,10,0:0:0:0:
356,378,102108,1,2,0:0:0:0:
443,249,102278,1,6,0:3:0:0:
302,146,102448,6,0,L|252:140,2,43.9999976158143,2|2|6,0:0|0:0|0:3,0:0:0:0:
72,76,102789,2,0,L|122:70,2,43.9999976158143,2|2|6,0:0|0:0|0:3,0:0:0:0:
264,229,103130,2,0,L|214:223,2,43.9999976158143,2|2|6,0:0|0:0|0:3,0:0:0:0:
13,166,103471,6,0,L|71:159,1,43.9999976158143,6|0,0:3|0:0,0:0:0:0:
143,153,103642,1,4,0:3:0:0:
170,175,103727,1,0,0:0:0:0:
182,208,103812,1,6,0:3:0:0:
175,242,103897,1,2,0:0:0:0:
154,270,103983,1,6,0:3:0:0:
122,281,104068,1,0,0:0:0:0:
98,305,104153,1,6,0:3:0:0:
84,336,104238,1,0,0:0:0:0:
88,370,104323,6,0,L|145:365,3,43.9999976158143,10|0|10|0,0:0|0:0|0:0|0:0,0:0:0:0:
217,322,104664,1,10,0:0:0:0:
313,263,104834,1,8,0:0:0:0:
313,374,105005,6,0,P|326:327|342:286,1,87.9999952316285,4|0,0:3|0:0,0:0:0:0:
332,125,105346,2,0,P|293:142|233:156,1,87.9999952316285,6|0,0:3|0:0,0:0:0:0:
341,291,105687,2,0,P|428:263|517:249,1,175.999990463257,6|6,0:3|0:3,0:0:0:0:
456,367,106198,1,2,0:0:0:0:
456,367,106284,1,0,0:0:0:0:
456,367,106369,5,4,0:3:0:0:
338,204,106539,2,0,L|348:143,2,43.9999976158143,2|2|6,0:0|0:0|0:3,0:0:0:0:
220,353,106880,2,0,L|196:268,1,87.9999952316285,2|6,0:0|0:3,0:0:0:0:
50,210,107221,1,2,0:0:0:0:
80,349,107392,1,6,0:3:0:0:
189,244,107562,1,2,0:0:0:0:
124,128,107733,6,0,B|163:148|163:148|207:142,1,87.9999952316285,6|2,0:3|0:0,0:0:0:0:
272,94,107988,1,0,0:0:0:0:
272,94,108073,2,0,B|310:69|310:69|362:72,1,87.9999952316285,6|2,0:3|0:0,0:0:0:0:
426,99,108329,1,0,0:0:0:0:
426,99,108414,2,0,P|422:144|419:190,1,87.9999952316285,6|2,0:3|0:0,0:0:0:0:
451,261,108670,1,2,0:0:0:0:
451,261,108755,2,0,L|362:273,1,87.9999952316285,6|0,0:3|0:0,0:0:0:0:
220,353,109096,5,12,0:3:0:0:
199,338,109181,1,8,0:3:0:0:
174,329,109267,1,10,0:3:0:0:
148,330,109352,1,8,0:3:0:0:
123,338,109437,6,0,P|110:321|100:301,3,43.9999976158143,14|8|10|8,0:3|0:3|0:3|0:3,0:0:0:0:
123,226,109778,2,0,P|117:208|103:184,3,43.9999976158143,6|4|6|4,0:3|0:3|0:3|0:3,0:0:0:0:
29,158,110119,1,2,0:3:0:0:
228,259,110460,6,0,P|274:260|317:243,1,87.9999952316285,6|0,0:0|0:0,0:0:0:0:
437,159,110801,2,0,P|398:142|349:140,1,87.9999952316285,0|2,0:0|0:0,0:0:0:0:
390,291,111142,1,10,0:0:0:0:
261,174,111312,1,2,0:3:0:0:
261,174,111653,6,0,B|215:172|215:172|220:168|220:168|165:165,1,87.9999952316285,10|0,0:0|0:0,0:0:0:0:
29,188,111994,1,2,0:0:0:0:
98,44,112164,1,6,0:3:0:0:
48,208,112335,1,2,0:0:0:0:
189,90,112505,1,10,0:0:0:0:
203,258,112676,1,2,0:0:0:0:
206,84,112846,1,10,0:0:0:0:
206,84,113187,6,0,P|247:100|300:97,1,87.9999952316285,6|2,0:0|0:0,0:0:0:0:
449,151,113528,2,0,P|405:149|365:167,1,87.9999952316285,6|0,0:3|0:0,0:0:0:0:
345,30,113869,1,10,0:0:0:0:
296,222,114039,1,2,0:0:0:0:
296,222,114380,6,0,B|250:220|250:220|255:216|255:216|200:213,1,87.9999952316285,10|0,0:0|0:0,0:0:0:0:
87,300,114721,1,2,0:0:0:0:
159,146,114892,1,6,0:3:0:0:
197,326,115062,1,2,0:0:0:0:
34,237,115232,1,6,0:3:0:0:
181,139,115403,1,2,0:0:0:0:
220,335,115573,1,10,0:0:0:0:
220,335,115914,6,0,P|263:317|313:325,1,87.9999952316285,6|2,0:0|0:0,0:0:0:0:
478,245,116255,2,0,P|434:248|394:231,1,87.9999952316285,6|2,0:3|0:0,0:0:0:0:
315,155,116596,1,10,0:0:0:0:
414,29,116767,1,2,0:0:0:0:
414,29,117108,6,0,B|368:31|368:31|373:35|373:35|318:38,1,87.9999952316285,10|0,0:0|0:0,0:0:0:0:
213,130,117448,1,2,0:0:0:0:
383,108,117619,1,6,0:3:0:0:
285,272,117789,1,2,0:0:0:0:
487,228,117959,1,10,0:0:0:0:
209,209,118301,5,4,0:3:0:0:
206,226,118386,1,0,0:0:0:0:
203,243,118471,1,8,0:0:0:0:
200,260,118556,1,0,0:0:0:0:
197,277,118641,6,0,L|301:270,1,87.9999952316285,6|10,0:3|0:0,0:0:0:0:
124,132,118982,2,0,L|118:219,1,87.9999952316285,6|10,0:3|0:0,0:0:0:0:
280,57,119323,2,0,L|192:62,1,87.9999952316285,6|10,0:3|0:0,0:0:0:0:
355,198,119664,2,0,L|362:94,1,87.9999952316285,6|10,0:3|0:0,0:0:0:0:
476,4,120005,5,10,0:0:0:0:
442,158,120176,1,10,0:0:0:0:
243,147,120346,1,10,0:0:0:0:
464,132,120517,1,10,0:0:0:0:
428,339,120687,1,10,0:0:0:0:
428,339,121028,6,0,P|417:310|406:287,1,52.7999971389771,10|0,0:0|0:0,0:0:0:0:
392,264,121369,6,0,B|352:273|336:314|336:314|311:298|282:283|282:283|251:296|231:329|231:329|168:289|96:297|96:297|91:263|107:228,1,422.399977111817,14|0,0:0|0:0,0:0:0:0:
143,73,122562,2,0,B|186:130|196:224|196:224|234:190|277:178|277:178|295:197|316:206|316:206|378:157|448:190|448:190|470:164|471:108|471:108|447:136,1,563.199969482422,14|0,0:0|0:0,0:0:0:0:
389,264,124096,6,0,B|320:308|255:278|255:278|226:320|143:335|102:260|111:217|111:217|99:256|69:286,1,422.399977111817,14|0,0:0|0:0,0:0:0:0:
98,64,125289,2,0,B|90:109|121:139|121:139|179:152|196:219|196:219|206:149|241:130|241:130|255:105|245:69,1,351.999980926514,12|4,0:0|0:3,0:0:0:0:
237,54,126226,1,4,0:3:0:0:
263,65,126312,1,4,0:3:0:0:
290,69,126397,1,0,0:0:0:0:
317,65,126482,1,4,0:3:0:0:
452,131,126653,2,0,L|417:136,1,35.1999980926514,4|0,0:3|0:0,0:0:0:0:
331,178,126823,6,0,P|416:162|466:229,1,175.999990463257,6|6,0:0|0:3,0:0:0:0:
423,328,127334,1,0,0:0:0:0:
386,238,127505,1,10,0:0:0:0:
427,341,127675,2,0,L|310:332,1,87.9999952316285,10|4,0:0|0:3,0:0:0:0:
211,271,128016,6,0,P|151:334|77:304,1,175.999990463257,10|2,0:0|0:0,0:0:0:0:
79,170,128528,1,6,0:3:0:0:
187,193,128698,1,6,0:3:0:0:
64,180,128869,2,0,L|77:92,1,87.9999952316285,10|0,0:0|0:0,0:0:0:0:
213,36,129209,6,0,B|202:110|202:110|186:124|186:124|174:203,1,175.999990463257,10|6,0:0|0:3,0:0:0:0:
146,355,129721,1,2,0:0:0:0:
87,229,129891,1,6,0:3:0:0:
250,253,130062,1,2,0:0:0:0:
154,336,130232,5,6,0:3:0:0:
318,365,130403,1,2,0:0:0:0:
264,221,130573,1,6,0:3:0:0:
227,384,130744,1,2,0:0:0:0:
435,286,130914,5,10,0:0:0:0:
440,256,130999,1,8,0:0:0:0:
420,232,131084,1,8,0:0:0:0:
424,202,131170,1,8,0:0:0:0:
424,202,131255,1,8,0:0:0:0:
246,65,131425,5,10,0:0:0:0:
241,95,131510,1,8,0:0:0:0:
261,119,131595,1,8,0:0:0:0:
257,149,131681,1,8,0:0:0:0:
257,149,131766,1,8,0:0:0:0:
77,286,131937,5,10,0:0:0:0:
72,256,132022,1,8,0:0:0:0:
92,232,132107,1,8,0:0:0:0:
88,202,132193,1,8,0:0:0:0:
88,202,132278,6,0,B|186:181|141:242|246:220,1,158.399986582947,6|0,0:0|0:0,0:0:0:0:
285,282,132619,2,0,P|296:229|305:165,1,105.599991055298,6|8,0:3|0:0,0:0:0:0:
270,115,132874,1,2,0:0:0:0:
270,115,132959,1,6,0:3:0:0:
428,82,133130,2,0,P|374:74|323:63,1,105.599991055298,10|4,0:0|0:3,0:0:0:0:
509,190,133471,6,0,P|409:185|362:273,1,211.199982110596,10|10,0:0|0:0,0:0:0:0:
313,148,133982,1,6,0:3:0:0:
458,272,134153,1,10,0:0:0:0:
289,357,134323,2,0,P|238:350|182:346,1,105.599991055298,6|8,0:3|0:0,0:0:0:0:
134,102,134664,2,0,B|187:99|236:77|236:77|215:103|212:126,1,158.399986582947,6|0,0:3|0:0,0:0:0:0:
158,185,135005,5,4,0:3:0:0:
289,357,135175,1,8,0:0:0:0:
429,252,135345,2,0,P|377:247|330:270,1,105.599991055298,6|8,0:3|0:0,0:0:0:0:
194,357,135687,1,6,0:3:0:0:
158,185,135857,2,0,P|132:230|133:282,1,105.599991055298,10|4,0:0|0:3,0:0:0:0:
320,134,136198,6,0,B|273:130|237:143|237:143|223:102|223:102|179:110|138:97,1,211.199982110596,10|10,0:0|0:0,0:0:0:0:
53,39,136709,1,6,0:3:0:0:
158,185,136880,1,8,0:0:0:0:
27,43,137050,1,8,0:0:0:0:
236,4,137221,5,6,0:3:0:0:
258,9,137391,1,4,0:3:0:0:
140,97,137562,1,10,0:0:0:0:
293,220,137732,6,0,P|396:241|455:164,1,211.199982110596,6|6,0:0|0:3,0:0:0:0:
427,0,138244,1,8,0:0:0:0:
343,48,138414,2,0,L|360:152,2,105.599991055298,6|10|4,0:3|0:0|0:3,0:0:0:0:
293,220,138925,6,0,P|183:208|80:204,1,211.199982110596,10|10,0:0|0:0,0:0:0:0:
175,325,139437,1,6,0:3:0:0:
315,244,139607,1,10,0:0:0:0:
447,374,139778,2,0,P|437:322|423:271,1,105.599991055298,6|8,0:3|0:0,0:0:0:0:
289,108,140119,2,0,B|309:59|311:5|311:5|325:35|344:48,1,158.399986582947,6|0,0:3|0:0,0:0:0:0:
374,122,140460,5,6,0:3:0:0:
235,189,140630,1,10,0:0:0:0:
109,88,140800,2,0,P|159:86|215:126,1,105.599991055298,6|10,0:3|0:0,0:0:0:0:
319,237,141141,1,6,0:3:0:0:
243,371,141312,2,0,P|230:322|246:270,1,105.599991055298,10|6,0:0|0:3,0:0:0:0:
374,122,141653,1,10,0:0:0:0:
423,325,141823,5,10,0:0:0:0:
423,325,141908,1,8,0:0:0:0:
423,325,141994,2,0,L|435:392,1,52.7999955276491,8|8,0:0|0:0,0:0:0:0:
500,102,142334,5,10,0:0:0:0:
500,102,142419,1,8,0:0:0:0:
500,102,142505,2,0,L|512:35,1,52.7999955276491,8|8,0:0|0:0,0:0:0:0:
253,174,142846,6,0,L|200:168,1,52.7999971389771,10|8,0:0|0:0,0:0:0:0:
125,210,143187,6,0,P|195:199|242:264,1,158.399986582947,6|0,0:0|0:0,0:0:0:0:
205,331,143528,2,0,P|259:337|307:303,1,105.599991055298,6|8,0:3|0:0,0:0:0:0:
319,237,143783,1,2,0:0:0:0:
319,237,143869,1,6,0:3:0:0:
468,319,144039,2,0,P|427:287|369:293,1,105.599991055298,10|4,0:0|0:3,0:0:0:0:
409,142,144380,6,0,B|358:151|317:191|317:191|291:163|291:163|264:172|221:159,1,211.199982110596,10|10,0:0|0:0,0:0:0:0:
138,58,144891,1,6,0:3:0:0:
264,68,145062,1,10,0:0:0:0:
134,171,145232,2,0,P|123:227|116:284,1,105.599991055298,6|8,0:3|0:0,0:0:0:0:
383,379,145573,2,0,P|371:303|355:221,1,158.399986582947,6|0,0:3|0:0,0:0:0:0:
290,273,145914,5,4,0:3:0:0:
405,147,146084,1,8,0:0:0:0:
236,65,146255,1,6,0:3:0:0:
284,166,146425,1,8,0:0:0:0:
368,48,146596,1,6,0:3:0:0:
190,151,146766,2,0,L|83:141,1,105.599991055298,10|4,0:0|0:3,0:0:0:0:
225,333,147107,6,0,B|234:260|234:260|278:213|278:213|289:137,1,211.199982110596,10|10,0:0|0:0,0:0:0:0:
310,46,147619,1,6,0:3:0:0:
190,151,147789,1,10,0:0:0:0:
326,309,147959,1,10,0:0:0:0:
450,201,148130,5,4,0:3:0:0:
432,203,148301,1,4,0:3:0:0:
508,314,148471,1,10,0:0:0:0:
433,98,148641,6,0,B|494:113|494:113|421:116|338:141,1,211.199982110596,6|6,0:0|0:3,0:0:0:0:
250,216,149153,1,8,0:0:0:0:
270,57,149323,1,6,0:3:0:0:
347,224,149494,2,0,P|395:208|468:200,1,105.599991055298,10|0,0:0|0:0,0:0:0:0:
305,361,149834,6,0,P|195:351|94:347,1,211.199982110596,10|10,0:0|0:0,0:0:0:0:
14,215,150346,1,6,0:3:0:0:
71,365,150516,1,10,0:0:0:0:
171,206,150687,2,0,P|184:153|201:91,1,105.599991055298,6|8,0:3|0:0,0:0:0:0:
374,244,151028,2,0,P|361:165|344:88,1,158.399986582947,6|0,0:3|0:0,0:0:0:0:
279,153,151369,5,6,0:3:0:0:
258,368,151539,1,10,0:0:0:0:
368,267,151709,1,6,0:3:0:0:
196,278,151880,5,10,0:0:0:0:
374,244,152050,1,6,0:3:0:0:
218,139,152221,5,10,0:0:0:0:
381,221,152391,1,6,0:3:0:0:
344,88,152562,1,10,0:0:0:0:
290,284,152732,5,10,0:0:0:0:
295,254,152817,1,8,0:0:0:0:
275,230,152902,1,8,0:0:0:0:
279,200,152988,1,8,0:0:0:0:
279,200,153073,1,8,0:0:0:0:
124,46,153243,5,10,0:0:0:0:
147,65,153328,1,8,0:0:0:0:
178,60,153413,1,8,0:0:0:0:
202,78,153499,1,8,0:0:0:0:
202,78,153584,1,8,0:0:0:0:
423,56,153755,5,10,0:0:0:0:
399,75,153840,1,8,0:0:0:0:
368,70,153925,1,8,0:0:0:0:
344,88,154011,1,8,0:0:0:0:
344,88,154096,6,0,B|304:130|300:181|300:181|323:192|355:224,1,158.399986582947,6|0,0:0|0:0,0:0:0:0:
400,272,154437,2,0,P|346:284|291:300,1,105.599991055298,6|8,0:3|0:0,0:0:0:0:
259,362,154692,1,0,0:0:0:0:
259,362,154778,1,6,0:3:0:0:
106,271,154948,2,0,P|154:283|207:299,1,105.599991055298,8|6,0:0|0:3,0:0:0:0:
211,162,155289,6,0,L|91:149,1,105.599991055298,10|4,0:0|0:3,0:0:0:0:
26,91,155630,1,10,0:0:0:0:
214,48,155800,1,4,0:3:0:0:
108,20,155971,1,10,0:0:0:0:
211,162,156141,2,0,P|224:230|225:281,1,105.599991055298,6|10,0:3|0:0,0:0:0:0:
359,355,156482,6,0,B|373:273|373:273|407:246|407:246|421:161,1,211.199982110596,6|6,0:3|0:3,0:0:0:0:
321,28,156994,1,8,0:0:0:0:
330,171,157164,1,6,0:3:0:0:
446,65,157334,1,10,0:0:0:0:
249,126,157505,1,6,0:3:0:0:
85,7,157675,2,0,P|125:38|145:103,1,105.599991055298,10|4,0:0|0:3,0:0:0:0:
39,263,158016,6,0,P|28:173|112:212,1,211.199982110596,10|10,0:0|0:0,0:0:0:0:
137,357,158528,1,6,0:3:0:0:
220,206,158698,1,10,0:0:0:0:
104,355,158869,1,6,0:3:0:0:
247,206,159039,5,8,0:0:0:0:
272,205,159209,1,8,0:0:0:0:
157,121,159380,1,6,0:3:0:0:
216,314,159550,6,0,L|332:308,1,105.599991055298,6|0,0:3|0:0,0:0:0:0:
435,108,159891,2,0,L|319:114,1,105.599991055298,6|8,0:3|0:0,0:0:0:0:
472,195,160232,1,6,0:3:0:0:
381,27,160403,1,10,0:0:0:0:
512,49,160573,1,4,0:3:0:0:
364,194,160744,6,0,P|319:166|268:172,1,105.599991055298,10|4,0:0|0:3,0:0:0:0:
193,252,160999,1,2,0:0:0:0:
193,252,161084,2,0,L|299:245,1,105.599991055298,10|6,0:0|0:3,0:0:0:0:
408,340,161425,1,10,0:0:0:0:
434,223,161596,1,6,0:3:0:0:
413,317,161766,1,8,0:0:0:0:
467,131,161937,6,0,B|357:102|389:194|264:172,1,211.199982110596,6|6,0:3|0:3,0:0:0:0:
304,79,162448,1,10,0:0:0:0:
431,222,162618,1,6,0:3:0:0:
329,264,162789,1,10,0:0:0:0:
406,38,162959,1,6,0:3:0:0:
467,131,163130,1,10,0:0:0:0:
269,172,163300,1,6,0:3:0:0:
304,79,163471,1,10,0:0:0:0:
204,252,163641,5,10,0:0:0:0:
183,255,163726,1,8,0:0:0:0:
162,258,163812,2,0,L|172:198,1,52.7999955276491,8|8,0:0|0:0,0:0:0:0:
406,38,164153,5,10,0:0:0:0:
427,35,164238,1,8,0:0:0:0:
448,32,164324,2,0,L|438:92,1,52.7999955276491,8|0,0:0|0:0,0:0:0:0:
397,351,164664,5,2,0:0:0:0:
397,351,165005,5,6,0:3:0:0:
444,214,165175,1,10,0:0:0:0:
307,318,165346,5,6,0:3:0:0:
336,176,165516,1,10,0:0:0:0:
211,306,165687,6,0,L|199:245,1,52.7999955276491,10|10,0:0|0:0,0:0:0:0:
212,109,165857,2,0,L|224:170,1,52.7999955276491,10|8,0:3|0:3,0:0:0:0:
120,290,166028,6,0,L|100:230,1,52.7999955276491,10|8,0:0|0:0,0:0:0:0:
113,85,166198,2,0,L|132:144,1,52.7999955276491,6|4,0:3|0:3,0:0:0:0:
23,273,166369,5,4,0:0:0:0:
