osu file format v14

[General]
AudioFilename: audio.mp3
AudioLeadIn: 0
PreviewTime: 70335
Countdown: 0
SampleSet: Normal
StackLeniency: 0.7
Mode: 0
LetterboxInBreaks: 0
WidescreenStoryboard: 1

[Editor]
Bookmarks: 4972,11593,17800,31455,44282,57938,71179,84420,87731,92903,112558,120834,126627,140696,153938,167179,172144,187041
DistanceSpacing: 1
BeatDivisor: 4
GridSize: 8
TimelineZoom: 1.6

[Metadata]
Title:Nadeshiko color Heart
TitleUnicode:撫子色ハート
Artist:YURRY CANON
ArtistUnicode:ユリイ・カノン
Creator:kwk
Version:Normal
Source:
Tags:vocaloid megpoid gumi メグッポイド グミ Hatsune Miku 初音ミク traditional rock nadeshikoiro Saturnalize RVMathew moph
BeatmapID:1446881
BeatmapSetID:682996

[Difficulty]
HPDrainRate:3
CircleSize:3
OverallDifficulty:3
ApproachRate:5
SliderMultiplier:1.2
SliderTickRate:1

[Events]
//Background and Video events
0,0,"nadeshiko.png",0,0
//Break Periods
2,89465,91479
//Storyboard Layer 0 (Background)
//Storyboard Layer 1 (Fail)
//Storyboard Layer 2 (Pass)
//Storyboard Layer 3 (Foreground)
//Storyboard Sound Samples

[TimingPoints]
7,413.793103448276,4,1,2,40,1,0
834,428.571428571429,4,1,2,40,1,0
834,-100,4,1,2,40,0,0
2012,410.958904109589,4,1,2,40,1,0
2114,410.958904109589,4,1,2,40,1,0
3246,387.096774193548,4,1,2,40,1,0
3342,400,4,2,10,60,1,0
4742,428.571428571429,4,1,1,40,1,0
4956,413.793103448276,4,1,1,40,1,0
17784,-100,4,1,1,60,0,0
18196,-100,4,2,1,60,0,0
18197,-100,4,2,1,60,0,0
31438,-100,4,1,1,60,0,0
44266,-100,4,1,1,60,0,0
44679,-100,4,2,1,60,0,0
44680,-100,4,2,1,60,0,0
71162,-100,4,1,1,75,0,1
84404,-100,4,1,1,60,0,0
87714,310.350178451353,4,1,1,60,1,0
87714,-133.333333333333,4,1,1,60,0,0
88955,-133.333333333333,4,1,1,5,0,0
89162,-133.333333333333,4,2,1,60,0,0
113783,413.793103448276,4,1,1,60,1,0
113783,-100,4,1,1,60,0,0
114196,413.793103448276,4,1,1,30,1,0
114196,-100,4,1,1,30,0,0
125782,-100,4,1,1,60,0,0
126609,-100,4,2,1,60,0,0
126610,-100,4,2,1,60,0,0
140678,-100,4,1,1,75,0,1
167161,-100,4,1,1,60,0,0
173782,-100,4,1,1,75,0,0
173783,-100,4,1,1,75,0,0
187024,-100,4,1,1,75,0,0

[Colours]
Combo1 : 255,255,166
Combo2 : 255,128,128
Combo3 : 0,255,255
Combo4 : 0,255,128

[HitObjects]
64,296,4956,6,0,P|152:288|176:256,1,120,6|8,0:2|0:0,0:0:0:0:
199,216,5576,1,2,0:0:0:0:
216,160,5783,2,0,P|263:125|321:132,1,120,0|10,0:0|0:0,0:0:0:0:
420,200,6611,2,0,L|411:57,1,120,2|8,0:2|0:0,0:0:0:0:
360,50,7231,1,2,0:0:0:0:
314,12,7438,2,0,L|321:131,1,120,0|10,0:0|0:0,0:0:0:0:
327,251,8266,6,0,P|269:277|196:260,1,120,6|8,0:2|0:0,0:0:0:0:
187,323,8887,1,2,0:0:0:0:
129,339,9093,2,0,P|103:281|120:208,1,120,0|10,0:0|0:0,0:0:0:0:
57,118,9921,2,0,L|-3:80,2,60,2|0|8,0:2|0:0|0:0,0:0:0:0:
175,137,10749,1,0,0:0:0:0:
279,78,11162,1,10,0:0:0:0:
397,93,11576,6,0,L|383:236,1,120,6|8,0:2|0:0,0:0:0:0:
442,231,12197,1,2,0:0:0:0:
499,250,12404,2,0,L|513:393,1,120,0|10,0:0|0:0,0:0:0:0:
398,325,13231,2,0,P|333:313|274:338,1,120,2|8,0:2|0:0,0:0:0:0:
228,354,13852,1,2,0:0:0:0:
169,342,14059,2,0,P|104:354|45:329,1,120,0|10,0:0|0:0,0:0:0:0:
0,225,14887,2,0,L|45:113,1,120,2|8,0:2|0:0,0:0:0:0:
103,99,15507,1,2,0:0:0:0:
161,111,15714,2,0,L|206:222,1,120,0|10,0:0|0:0,0:0:0:0:
258,330,16542,5,10,0:0:0:0:
447,117,18197,6,0,P|390:108|329:133,1,120,6|8,1:2|0:1,0:0:0:0:
256,38,19024,2,0,P|220:83|212:148,1,120,0|8,1:0|0:1,0:0:0:0:
240,200,19645,1,0,0:0:0:0:
288,236,19852,2,0,P|324:281|332:346,1,120,0|8,1:0|0:1,0:0:0:0:
213,329,20680,2,0,L|154:342,2,60,0|0|8,1:0|0:0|0:1,0:0:0:0:
144,232,21507,6,0,L|13:258,1,120,6|8,1:2|0:1,0:0:0:0:
63,140,22335,2,0,L|180:116,1,120,0|8,1:0|0:1,0:0:0:0:
250,18,23162,1,0,1:0:0:0:
305,124,23576,1,8,0:1:0:0:
221,209,23990,2,0,L|149:225,2,60,0|2|10,1:0|0:1|1:0,0:0:0:0:
304,295,24818,6,0,P|366:314|441:289,1,120,4|8,1:2|0:1,0:0:0:0:
489,204,25645,2,0,P|508:142|483:67,1,120,0|8,1:0|0:1,0:0:0:0:
449,52,26266,1,0,0:0:0:0:
397,21,26473,2,0,L|260:62,1,120,0|8,1:0|0:1,0:0:0:0:
162,43,27300,2,0,L|99:7,2,60,0|0|8,1:0|0:0|0:1,0:0:0:0:
206,154,28128,6,0,L|183:297,1,120,6|8,1:2|0:1,0:0:0:0:
66,276,28956,2,0,L|46:157,1,120,0|8,1:0|0:1,0:0:0:0:
135,76,29783,2,0,P|232:47|314:144,1,240,8|8,1:0|1:0,0:0:0:0:
292,260,31024,1,8,1:0:0:0:
193,328,31438,6,0,L|92:257,1,120,6|8,1:2|1:0,0:0:0:0:
87,199,32059,1,2,0:1:0:0:
104,141,32266,2,0,L|202:210,1,120,0|10,0:0|0:0,0:0:0:0:
314,166,33093,2,0,L|344:49,1,120,2|8,0:2|0:0,0:0:0:0:
403,42,33714,1,2,0:0:0:0:
462,51,33921,2,0,L|492:168,1,120,0|10,0:0|0:0,0:0:0:0:
449,280,34749,6,0,P|392:296|334:281,1,120,6|8,0:2|0:0,0:0:0:0:
307,226,35369,1,2,0:0:0:0:
270,179,35576,2,0,P|207:164|155:181,1,120,0|10,0:0|0:0,0:0:0:0:
214,284,36404,2,0,L|248:346,2,60,2|0|8,0:2|0:0|0:0,0:0:0:0:
92,284,37231,1,0,0:0:0:0:
34,178,37645,1,10,0:0:0:0:
78,66,38059,6,0,P|134:49|192:64,1,120,6|8,0:2|0:0,0:0:0:0:
248,43,38680,1,2,0:0:0:0:
303,64,38887,2,0,P|289:120|247:163,1,120,0|10,0:0|0:0,0:0:0:0:
132,199,39714,6,0,L|-7:231,1,120,2|8,0:2|0:0,0:0:0:0:
3,285,40335,1,2,0:0:0:0:
42,330,40542,2,0,L|158:303,1,120,0|10,0:0|0:0,0:0:0:0:
275,331,41369,6,0,P|260:263|294:200,1,120,6|8,0:2|0:1,0:0:0:0:
337,206,41990,1,2,0:0:0:0:
398,213,42197,2,0,P|412:145|379:82,1,120,0|10,0:0|0:0,0:0:0:0:
299,25,43024,1,10,0:0:0:0:
37,119,44680,6,0,P|94:110|155:135,1,120,4|8,1:2|0:1,0:0:0:0:
228,40,45507,2,0,P|264:85|272:150,1,120,0|8,1:0|0:1,0:0:0:0:
234,191,46128,1,0,0:0:0:0:
185,227,46335,2,0,L|58:274,1,120,0|8,1:0|0:1,0:0:0:0:
93,152,47162,2,0,L|167:125,2,60,0|0|8,1:0|0:0|0:1,0:0:0:0:
0,74,47990,6,0,L|112:32,1,120,4|8,1:2|0:1,0:0:0:0:
231,29,48818,2,0,L|343:70,1,120,0|8,1:1|0:1,0:0:0:0:
315,187,49645,1,0,1:0:0:0:
370,293,50059,1,8,0:1:0:0:
434,191,50473,2,0,L|415:122,2,60,0|2|10,1:0|0:1|0:1,0:0:0:0:
484,300,51300,6,0,P|425:311|369:292,1,120,4|8,1:2|0:1,0:0:0:0:
269,225,52128,2,0,P|212:206|154:217,1,120,0|8,1:0|0:1,0:0:0:0:
107,255,52749,1,0,0:0:0:0:
59,291,52956,2,0,L|69:149,1,120,0|8,1:0|0:1,0:0:0:0:
102,56,53783,2,0,L|79:-16,2,60,0|0|8,1:0|0:0|0:1,0:0:0:0:
216,90,54611,6,0,P|274:101|330:82,1,120,6|8,1:2|0:1,0:0:0:0:
450,91,55438,2,0,P|488:136|500:194,1,120,0|8,1:0|0:1,0:0:0:0:
473,311,56266,2,0,P|376:340|294:243,1,240,8|8,1:0|1:0,0:0:0:0:
250,133,57507,2,0,L|188:76,1,60,8|8,1:0|0:1,0:0:0:0:
151,121,57921,6,0,P|86:138|23:111,2,120,4|8|0,1:2|0:1|1:0,0:0:0:0:
224,26,59162,1,8,0:1:0:0:
340,52,59576,2,0,P|405:35|468:62,1,120,0|8,1:0|0:1,0:0:0:0:
489,99,60197,1,0,1:0:0:0:
501,157,60404,2,0,L|514:226,2,60,0|8|8,1:0|1:0|1:0,0:0:0:0:
395,215,61231,6,0,L|423:357,1,120,0|8,1:0|0:1,0:0:0:0:
300,309,62059,2,0,L|276:191,1,120,0|8,1:0|0:1,0:0:0:0:
260,133,62680,1,0,1:0:0:0:
237,77,62887,2,0,P|183:61|107:95,1,120,0|8,1:0|0:1,0:0:0:0:
67,180,63714,2,0,L|-7:199,2,60,0|8|12,1:0|1:0|1:0,0:0:0:0:
185,157,64542,6,0,L|141:268,2,120,4|8|0,1:2|0:1|1:0,0:0:0:0:
244,52,65783,1,8,1:0:0:0:
297,159,66197,2,0,L|341:270,1,120,0|8,1:0|0:1,0:0:0:0:
251,347,67024,2,0,L|182:329,2,60,0|8|8,1:0|1:0|1:0,0:0:0:0:
369,368,67852,5,8,1:0:0:0:
428,358,68059,1,8,1:0:0:0:
417,178,68680,5,8,1:0:0:0:
358,168,68887,1,8,1:0:0:0:
180,136,69507,6,0,P|149:244|241:309,1,240,8|8,1:0|1:0,0:0:0:0:
481,327,71162,6,0,P|422:312|351:329,1,120,6|8,0:2|0:0,0:0:0:0:
251,361,71990,2,0,P|192:371|134:356,1,120,0|8,0:0|0:0,0:0:0:0:
87,318,72611,1,0,0:0:0:0:
51,270,72818,2,0,L|29:153,2,120,0|8|0,0:0|0:0|0:0,0:0:0:0:
158,216,74059,1,8,0:0:0:0:
253,291,74473,5,6,0:2:0:0:
368,265,74887,1,8,0:0:0:0:
408,152,75300,1,0,0:0:0:0:
356,44,75714,1,8,0:0:0:0:
236,48,76128,2,0,B|127:107,1,120,0|8,0:0|0:0,0:0:0:0:
236,161,76956,2,0,L|290:132,2,60,0|8|8,0:0|0:0|0:0,0:0:0:0:
135,227,77783,6,0,P|120:286|148:355,1,120,6|8,0:2|0:0,0:0:0:0:
256,358,78611,2,0,P|316:357|376:312,1,120,0|8,0:0|0:0,0:0:0:0:
381,267,79231,1,0,0:0:0:0:
395,208,79438,2,0,P|449:192|522:210,2,120,0|8|0,0:0|0:0|0:0,0:0:0:0:
293,271,80680,1,8,0:0:0:0:
198,346,81093,5,6,0:2:0:0:
83,320,81507,1,8,0:0:0:0:
37,208,81921,1,0,0:0:0:0:
89,100,82335,1,8,0:0:0:0:
207,78,82749,6,0,B|346:55,2,120,0|8|0,0:0|0:0|0:0,0:0:0:0:
172,193,83990,1,8,0:0:0:0:
257,279,84404,6,0,P|287:227|290:168,1,120,12|8,0:1|0:0,0:0:0:0:
207,78,85231,1,8,0:0:0:0:
89,102,85645,1,8,0:0:0:0:
55,217,86059,2,0,L|184:191,1,120,12|8,0:0|0:0,0:0:0:0:
224,224,86680,1,8,0:0:0:0:
275,255,86887,2,0,L|404:229,1,120,8|8,0:0|0:0,0:0:0:0:
256,192,87714,12,2,89265,0:1:0:0:
144,216,92679,6,0,P|136:272|16:264,2,180,6|0|0,0:0|1:0|1:0,0:0:0:0:
64,56,94541,1,0,1:0:0:0:
240,72,95162,2,0,P|328:104|416:56,1,180,0|0,1:0|1:0,0:0:0:0:
480,232,96403,2,0,P|392:200|304:248,1,180,0|0,1:0|1:0,0:0:0:0:
96,216,97645,6,0,P|88:168|160:48,2,180,0|0|0,1:2|1:0|1:0,0:0:0:0:
208,360,99507,1,0,1:0:0:0:
328,224,100128,2,0,P|416:192|504:232,1,180,0|0,1:0|1:0,0:0:0:0:
360,344,101369,2,0,L|192:256,1,180,0|0,1:0|1:3,0:0:0:0:
45,168,102610,6,0,P|21:104|61:-16,2,180,6|0|0,1:2|1:0|1:0,0:0:0:0:
200,260,104472,1,0,1:0:0:0:
248,86,105093,2,0,P|336:118|424:70,1,180,0|0,1:0|1:0,0:0:0:0:
484,249,106335,2,0,P|396:217|308:265,1,180,0|0,1:0|1:0,0:0:0:0:
144,192,107576,6,0,P|136:144|208:24,2,180,6|0|0,1:2|1:0|1:0,0:0:0:0:
184,367,109438,1,0,1:0:0:0:
321,250,110059,2,0,P|409:218|497:258,1,180,0|0,1:0|1:0,0:0:0:0:
346,361,111300,2,0,L|178:273,1,180,0|0,1:0|1:0,0:0:0:0:
30,366,112542,1,2,1:3:0:0:
24,64,114196,6,0,P|80:8|88:120,1,240,0|0,1:0|1:0,0:0:0:0:
32,208,115437,1,0,1:0:0:0:
152,224,115851,2,0,L|264:144,2,120,4|0|0,1:2|1:0|1:0,0:0:0:0:
144,344,117092,1,0,1:0:0:0:
248,288,117506,6,0,L|456:144,1,240,4|0,1:2|1:0,0:0:0:0:
408,40,118747,1,0,1:0:0:0:
319,119,119161,2,0,P|257:123|205:93,1,120,4|0,1:2|1:0,0:0:0:0:
104,32,119989,2,0,L|48:-16,2,60,0|8|0,0:0|0:2|0:0,0:0:0:0:
24,120,120816,6,0,P|16:232|120:272,1,240,0|0,0:0|0:0,0:0:0:0:
232,224,122058,1,0,0:0:0:0:
344,272,122471,2,0,P|408:248|480:264,2,120,4|0|0,0:2|0:0|0:0,0:0:0:0:
264,360,123713,1,0,0:0:0:0:
152,312,124127,6,0,P|64:200|88:104,1,240,4|0,0:2|0:0,0:0:0:0:
184,48,125368,1,0,0:0:0:0:
240,152,125782,2,0,P|304:168|360:32,1,240,8|8,0:0|1:0,0:0:0:0:
464,96,127023,2,0,L|448:168,1,60,8|8,1:0|1:0,0:0:0:0:
464,216,127437,6,0,P|481:281|454:344,2,120,4|8|0,1:2|1:0|1:0,0:0:0:0:
360,272,128678,1,8,1:0:0:0:
264,200,129092,2,0,P|247:135|274:72,1,120,0|8,1:0|1:0,0:0:0:0:
376,48,129920,2,0,L|440:32,2,60,0|8|8,1:0|1:0|1:0,0:0:0:0:
472,120,130747,6,0,L|334:151,1,120,0|8,1:0|1:0,0:0:0:0:
280,240,131575,2,0,L|162:213,1,120,0|8,1:0|1:0,0:0:0:0:
131,264,132196,1,0,1:0:0:0:
71,259,132402,2,0,P|60:192|101:132,1,120,0|8,1:0|1:0,0:0:0:0:
154,51,133230,2,0,L|117:-14,2,60,0|8|8,1:0|1:0|1:0,0:0:0:0:
200,160,134058,6,0,P|280:168|328:136,2,120,4|8|0,1:2|1:0|1:0,0:0:0:0:
248,48,135299,1,8,1:0:0:0:
368,48,135713,2,0,P|424:96|432:160,1,120,0|8,1:0|1:0,0:0:0:0:
427,198,136333,1,0,1:0:0:0:
392,248,136540,2,0,L|405:309,2,60,0|8|8,1:0|1:0|1:0,0:0:0:0:
287,188,137368,5,8,1:0:0:0:
228,178,137575,1,8,1:0:0:0:
405,149,138196,5,8,1:0:0:0:
457,133,138402,1,8,1:0:0:0:
320,24,139023,6,0,P|184:16|96:88,1,240,8|8,1:0|1:0,0:0:0:0:
10,290,140678,6,0,P|69:275|140:292,1,120,6|8,1:2|0:0,0:0:0:0:
186,178,141506,2,0,P|228:221|249:291,1,120,0|8,0:0|0:0,0:0:0:0:
277,328,142127,1,0,0:0:0:0:
334,344,142333,2,0,P|398:360|462:328,2,120,0|8|0,0:0|0:0|0:0,0:0:0:0:
376,232,143575,1,8,0:0:0:0:
343,115,143989,5,6,1:2:0:0:
234,68,144402,1,8,0:0:0:0:
128,128,144816,1,0,0:0:0:0:
107,246,145230,1,8,0:0:0:0:
206,313,145644,2,0,B|323:345,1,120,0|8,0:0|0:0,0:0:0:0:
441,358,146471,2,0,L|495:329,2,60,0|8|8,0:0|0:0|0:0,0:0:0:0:
383,252,147299,6,0,P|365:195|380:138,1,120,6|8,0:2|0:0,0:0:0:0:
428,103,147920,1,0,0:0:0:0:
430,43,148127,2,0,P|372:27|316:45,1,120,0|8,0:0|0:0,0:0:0:0:
205,92,148954,2,0,P|151:76|78:94,2,120,0|8|0,0:0|0:0|0:0,0:0:0:0:
302,167,150196,1,8,0:0:0:0:
294,288,150609,5,4,0:2:0:0:
198,356,151023,1,8,0:0:0:0:
86,313,151437,1,0,0:0:0:0:
41,202,151851,1,8,0:0:0:0:
103,100,152264,6,0,B|178:-18,2,120,4|8|8,0:2|0:0|0:0,0:0:0:0:
177,194,153506,1,8,0:0:0:0:
259,106,153920,6,0,P|318:91|389:108,1,120,6|8,0:2|0:0,0:0:0:0:
424,136,154540,1,0,0:0:0:0:
430,195,154747,2,0,P|371:210|300:193,1,120,0|8,0:0|0:0,0:0:0:0:
221,277,155575,2,0,L|93:293,2,120,0|8|0,0:0|0:0|0:0,0:0:0:0:
324,338,156816,1,8,0:0:0:0:
441,315,157230,5,4,0:2:0:0:
476,200,157644,1,8,0:0:0:0:
359,228,158058,1,0,0:0:0:0:
277,141,158471,1,8,0:0:0:0:
394,113,158885,2,0,B|512:94,1,120,0|8,0:0|0:0,0:0:0:0:
419,21,159713,2,0,L|334:35,2,60,0|8|8,1:0|0:0|0:0,0:0:0:0:
511,94,160540,6,0,P|528:150|513:207,1,120,4|8,0:2|0:0,0:0:0:0:
487,262,161161,1,0,0:0:0:0:
444,304,161368,2,0,P|387:321|330:306,1,120,0|8,0:0|0:0,0:0:0:0:
212,332,162196,2,0,P|158:316|85:334,2,120,0|8|0,0:0|0:0|0:0,0:0:0:0:
327,308,163437,1,8,0:0:0:0:
390,207,163851,5,4,0:2:0:0:
330,103,164264,1,8,0:0:0:0:
267,204,164678,1,0,0:0:0:0:
146,207,165092,1,8,0:0:0:0:
213,108,165506,2,0,B|279:4,1,120,0|8,0:0|0:0,0:0:0:0:
396,27,166333,2,0,L|479:8,2,60,0|0|8,0:0|0:0|0:0,0:0:0:0:
334,130,167161,6,0,L|462:106,1,120,12|8,0:0|0:0,0:0:0:0:
501,217,167989,1,8,0:0:0:0:
459,329,168402,1,8,0:0:0:0:
342,299,168816,2,0,L|224:322,1,120,12|8,0:0|0:0,0:0:0:0:
176,284,169437,1,8,0:0:0:0:
127,248,169644,2,0,L|9:271,1,120,8|8,0:0|0:0,0:0:0:0:
256,192,170471,12,10,172127,0:0:0:0:
358,52,173782,6,0,L|490:17,2,120,6|8|0,0:2|0:0|0:0,0:0:0:0:
276,139,175023,1,8,0:0:0:0:
388,181,175437,2,0,P|413:225|406:317,1,120,0|8,0:0|0:0,0:0:0:0:
374,337,176058,1,0,0:0:0:0:
323,371,176264,2,0,L|246:389,2,60,0|8|8,0:0|0:0|0:0,0:0:0:0:
245,278,177092,6,0,L|121:303,1,120,4|8,0:2|0:0,0:0:0:0:
24,239,177920,1,0,0:0:0:0:
52,122,178333,1,8,0:0:0:0:
159,176,178747,2,0,P|224:181|292:140,2,120,0|8|0,0:0|0:0|0:0,0:0:0:0:
202,64,179989,2,0,L|265:22,1,60,8|8,0:0|0:0,0:0:0:0:
307,53,180402,6,0,P|366:86|391:154,1,120,6|8,0:2|0:0,0:0:0:0:
458,229,181230,2,0,L|520:190,2,60,0|0|8,0:0|0:0|0:0,0:0:0:0:
337,228,182058,2,0,L|217:219,1,120,0|8,0:0|0:0,0:0:0:0:
183,169,182678,1,0,0:0:0:0:
151,118,182885,2,0,L|84:134,2,60,0|8|8,0:0|0:0|0:0,0:0:0:0:
212,14,183713,6,0,P|255:54|270:111,1,120,4|8,0:2|0:0,0:0:0:0:
215,217,184540,1,0,0:0:0:0:
260,328,184954,1,8,0:0:0:0:
335,234,185368,2,0,L|351:151,2,60,0|0|8,0:0|0:0|0:0,0:0:0:0:
412,325,186196,2,0,L|423:383,2,60,12|8|8,0:0|0:0|0:0,0:0:0:0:
256,192,187023,12,0,189506,0:0:0:0:
72,130,191161,6,0,L|202:116,1,120,0|10,0:0|0:0,0:0:0:0:
283,194,191989,2,0,L|344:205,2,60,2|0|8,0:2|0:0|0:0,0:0:0:0:
328,82,192816,1,0,0:0:0:0:
237,3,193230,1,10,0:0:0:0:
191,117,193644,6,0,L|155:253,1,120,6|8,0:2|0:0,0:0:0:0:
101,246,194264,1,2,0:0:0:0:
40,242,194471,2,0,L|9:125,1,120,0|10,0:0|0:0,0:0:0:0:
37,9,195299,2,0,P|93:-9|151:3,1,120,2|8,0:2|0:0,0:0:0:0:
195,44,195920,1,2,0:0:0:0:
239,84,196127,2,0,P|304:96|363:71,1,120,0|10,0:0|0:0,0:0:0:0:
464,32,196954,6,0,L|446:155,1,120,6|8,0:2|0:0,0:0:0:0:
402,191,197575,1,2,0:0:0:0:
343,175,197782,2,0,L|361:298,1,120,0|10,0:0|0:0,0:0:0:0:
256,192,198609,12,10,201092,0:0:0:0:
