osu file format v14

[General]
AudioFilename: audio.mp3
AudioLeadIn: 0
PreviewTime: 70335
Countdown: 0
SampleSet: Normal
StackLeniency: 0.3
Mode: 0
LetterboxInBreaks: 0
WidescreenStoryboard: 1

[Editor]
Bookmarks: 17800,44282,57921,71162,84420,92903,102818,114196,120834,127438,140696,153938,167179,173783,187023,187041
DistanceSpacing: 1.3
BeatDivisor: 4
GridSize: 8
TimelineZoom: 1.6

[Metadata]
Title:Nadeshiko color Heart
TitleUnicode:撫子色ハート
Artist:YURRY CANON
ArtistUnicode:ユリイ・カノン
Creator:kwk
Version:Insane Collab
Source:
Tags:vocaloid megpoid gumi メグッポイド グミ Hatsune Miku 初音ミク traditional rock nadeshikoiro Saturnalize RVMathew moph
BeatmapID:1483948
BeatmapSetID:682996

[Difficulty]
HPDrainRate:6
CircleSize:4
OverallDifficulty:8
ApproachRate:9
SliderMultiplier:2.5
SliderTickRate:1

[Events]
//Background and Video events
0,0,"nadeshiko.png",0,0
//Break Periods
//Storyboard Layer 0 (Background)
//Storyboard Layer 1 (Fail)
//Storyboard Layer 2 (Pass)
//Storyboard Layer 3 (Foreground)
//Storyboard Sound Samples

[TimingPoints]
7,413.793103448276,4,1,2,40,1,0
834,428.571428571429,4,1,2,40,1,0
834,-133.333333333333,4,1,2,40,0,0
2012,410.958904109589,4,1,2,40,1,0
2114,410.958904109589,4,1,2,40,1,0
2114,-138.888888888889,4,1,2,40,0,0
3246,387.096774193548,4,1,2,40,1,0
3342,400,4,2,10,60,1,0
3392,-100,4,2,10,20,0,0
3492,-100,4,2,10,65,0,0
3592,-100,4,2,10,20,0,0
3692,-100,4,2,10,70,0,0
3792,-100,4,2,10,20,0,0
3892,-100,4,2,10,75,0,0
3992,-100,4,2,10,20,0,0
4092,-100,4,2,10,80,0,0
4442,-100,4,1,1,60,0,0
4742,428.571428571429,4,1,1,60,1,0
4956,413.793103448276,4,1,1,60,1,0
17783,-200,4,1,1,60,0,0
18196,-133.333333333333,4,2,1,60,0,0
31438,-100,4,1,1,60,0,0
44265,-200,4,1,1,60,0,0
44679,-133.333333333333,4,2,1,60,0,0
57093,-100,4,2,1,60,0,0
57921,-100,4,2,1,60,0,0
69507,-200,4,2,1,60,0,0
70335,-133.333333333333,4,2,1,60,0,0
71162,-88.8888888888889,4,1,1,75,0,1
84404,-100,4,1,1,60,0,0
87714,310.350178451353,4,1,2,40,1,0
89783,-175.438596491228,4,2,1,60,0,0
102610,-149.253731343284,4,2,1,60,0,0
113783,413.793103448276,4,1,2,40,1,0
113783,-200,4,1,2,40,0,0
114196,413.793103448276,4,1,2,40,1,0
114196,-200,4,1,2,40,0,0
125782,-100,4,1,1,60,0,0
126609,-100,4,2,1,60,0,0
139023,-200,4,2,1,60,0,0
140678,-88.8888888888889,4,1,1,75,0,1
167161,-100,4,1,1,60,0,0
173782,-88.8888888888889,4,1,1,75,0,0
187023,-100,4,1,1,75,0,0

[Colours]
Combo1 : 255,255,166
Combo2 : 255,128,128
Combo3 : 0,255,255
Combo4 : 0,255,128

[HitObjects]
209,87,834,6,0,P|183:82|131:104,5,62.5000023841859,0|0|0|0|0|0,0:0|0:0|0:0|0:0|0:0|0:0,0:0:0:0:
115,136,1691,2,0,L|104:64,3,46.8750017881394,0|0|0|0,0:0|0:0|0:0|0:0,0:0:0:0:
105,193,2114,2,0,L|61:131,3,45.0000010986328,0|0|0|0,0:0|0:0|0:0|0:0,0:0:0:0:
120,237,2524,5,0,0:0:0:0:
154,264,2627,1,0,0:0:0:0:
197,260,2730,1,0,0:0:0:0:
235,239,2833,1,0,0:0:0:0:
275,222,2935,1,0,0:0:0:0:
318,226,3038,1,0,0:0:0:0:
355,249,3141,1,0,0:0:0:0:
370,290,3246,1,0,0:0:0:0:
360,333,3342,5,4,1:0:0:0:
321,181,3542,1,4,1:0:0:0:
233,372,3742,1,4,1:0:0:0:
175,142,3942,1,4,1:0:0:0:
75,371,4142,1,4,1:0:0:0:
49,58,4442,5,8,2:1:0:0:
49,58,4542,1,8,2:1:0:0:
82,182,4742,1,8,2:1:0:0:
261,86,4956,6,0,P|331:73|415:135,1,125,6|0,0:2|0:0,0:0:0:0:
442,173,5266,1,2,0:1:0:0:
442,173,5369,2,0,L|292:165,1,125,8|2,0:0|0:0,0:0:0:0:
278,239,5680,1,0,0:0:0:0:
303,320,5783,2,0,P|244:339|184:325,1,125,0|2,0:0|0:0,0:0:0:0:
119,276,6093,1,0,0:0:0:0:
119,276,6197,1,10,0:0:0:0:
153,106,6404,1,0,0:0:0:0:
12,201,6611,6,0,L|151:187,1,125,2|0,0:2|0:0,0:0:0:0:
215,251,6921,1,2,0:0:0:0:
215,251,7024,2,0,L|238:82,1,125,8|2,0:0|0:0,0:0:0:0:
282,61,7335,1,0,0:0:0:0:
354,26,7438,2,0,P|423:22|485:57,1,125,0|2,0:0|0:0,0:0:0:0:
508,151,7749,1,0,0:0:0:0:
508,151,7852,2,0,L|434:118,1,62.5,10|0,0:0|0:0,0:0:0:0:
322,166,8059,2,0,L|379:191,1,62.5,0|0,0:0|0:0,0:0:0:0:
503,251,8266,6,0,P|510:323|427:382,1,125,6|0,0:2|0:0,0:0:0:0:
404,336,8576,1,2,0:0:0:0:
324,356,8680,2,0,P|264:367|215:330,1,125,8|2,0:0|0:0,0:0:0:0:
124,317,8990,1,0,0:0:0:0:
124,317,9093,2,0,P|150:261|206:237,1,125,0|2,0:0|0:0,0:0:0:0:
281,271,9404,1,0,0:0:0:0:
281,271,9507,1,10,0:0:0:0:
255,141,9714,1,0,0:0:0:0:
360,236,9921,6,0,P|408:193|404:113,1,125,2|0,0:2|0:0,0:0:0:0:
337,39,10231,1,2,0:0:0:0:
337,39,10335,2,0,B|344:88|344:88|332:110|332:110|340:168,1,125,8|2,0:0|0:0,0:0:0:0:
282,219,10645,1,0,0:0:0:0:
256,141,10749,2,0,B|249:92|249:92|261:70|261:70|253:12,1,125,0|0,0:0|0:0,0:0:0:0:
177,53,11059,1,2,0:0:0:0:
177,53,11162,2,0,P|140:53|115:45,1,62.5,10|0,0:0|0:0,0:0:0:0:
7,114,11369,2,0,P|44:114|69:122,1,62.5,2|2,0:0|0:0,0:0:0:0:
176,216,11576,6,0,P|198:276|131:364,1,125,6|0,0:2|0:0,0:0:0:0:
268,384,11887,1,2,0:0:0:0:
268,384,11990,2,0,P|308:334|418:348,1,125,8|2,0:0|0:0,0:0:0:0:
446,340,12300,1,0,0:0:0:0:
497,276,12404,2,0,P|516:198|491:139,1,125,0|2,0:0|0:0,0:0:0:0:
442,102,12714,1,0,0:0:0:0:
442,102,12818,1,10,0:0:0:0:
416,259,13024,1,0,0:0:0:0:
266,207,13231,6,0,P|192:202|141:227,1,125,2|0,0:2|0:0,0:0:0:0:
90,282,13542,1,2,0:0:0:0:
15,250,13645,2,0,B|14:95,1,125,8|2,0:0|0:0,0:0:0:0:
112,30,13956,1,0,0:0:0:0:
112,30,14059,2,0,L|95:184,1,125,0|2,0:0|0:0,0:0:0:0:
196,199,14369,1,0,0:0:0:0:
196,199,14473,2,0,L|186:131,1,62.5,10|0,0:0|0:0,0:0:0:0:
260,28,14680,2,0,L|273:104,1,62.5,0|0,0:0|0:0,0:0:0:0:
295,210,14887,6,0,B|354:181|354:181|446:198,1,125,2|0,0:2|0:0,0:0:0:0:
478,239,15197,1,2,0:0:0:0:
446,313,15300,2,0,L|322:374,1,125,8|2,0:0|0:0,0:0:0:0:
251,377,15611,1,0,0:0:0:0:
180,336,15714,2,0,P|173:273|242:215,1,125,0|2,0:0|0:0,0:0:0:0:
218,146,16024,1,0,0:0:0:0:
218,146,16128,1,10,0:0:0:0:
95,230,16335,1,0,0:0:0:0:
257,297,16542,5,10,0:0:0:0:
257,297,16645,1,10,0:0:0:0:
136,153,16852,1,10,0:0:0:0:
95,359,17059,1,10,0:0:0:0:
208,226,17266,1,10,0:0:0:0:
208,226,17369,1,10,0:0:0:0:
95,359,17783,6,0,P|110:288|85:249,1,93.75,4|0,0:3|2:0,0:0:0:0:
53,201,18197,5,6,1:2:0:0:
71,201,18300,1,0,0:0:0:0:
89,198,18404,1,0,0:0:0:0:
106,190,18507,1,0,0:0:0:0:
125,151,18611,5,8,0:1:0:0:
143,151,18714,1,0,0:1:0:0:
161,154,18818,1,0,0:1:0:0:
178,162,18921,1,0,0:1:0:0:
226,233,19024,6,0,L|342:225,1,93.7500035762788,0|0,1:0|0:1,0:0:0:0:
361,40,19438,1,8,0:1:0:0:
367,296,19645,1,0,0:0:0:0:
468,114,19852,6,0,L|352:122,1,93.7500035762788,0|0,1:0|0:0,0:0:0:0:
298,94,20162,1,0,0:0:0:0:
223,63,20266,2,0,L|107:71,1,93.7500035762788,8|0,0:1|0:0,0:0:0:0:
197,247,20680,2,0,B|204:200|204:200|178:146,1,93.7500035762788,0|0,1:0|0:0,0:0:0:0:
23,251,21093,2,0,B|16:298|16:298|42:352,1,93.7500035762788,8|0,0:1|0:0,0:0:0:0:
153,337,21507,5,6,1:2:0:0:
171,332,21611,1,0,0:0:0:0:
189,332,21714,1,0,0:0:0:0:
207,336,21818,1,0,0:0:0:0:
239,363,21921,5,8,0:1:0:0:
257,368,22024,1,0,0:0:0:0:
275,368,22128,1,0,0:1:0:0:
293,364,22231,1,0,0:0:0:0:
338,299,22335,6,0,L|442:323,1,93.7500035762788,0|0,1:0|0:0,0:0:0:0:
486,263,22645,1,0,0:0:0:0:
464,185,22749,2,0,L|367:163,1,93.7500035762788,8|0,0:1|0:0,0:0:0:0:
414,6,23162,6,0,P|428:53|414:98,1,93.7500035762788,0|0,1:0|0:0,0:0:0:0:
335,95,23473,1,0,0:0:0:0:
335,95,23576,2,0,L|243:115,1,93.7500035762788,8|0,0:1|0:0,0:0:0:0:
198,48,23887,1,0,0:0:0:0:
201,52,23990,1,0,1:0:0:0:
246,272,24197,1,2,0:1:0:0:
97,182,24404,2,0,L|188:202,1,93.7500035762788,10|2,1:0|0:0,0:0:0:0:
100,378,24818,5,4,1:2:0:0:
88,361,24921,1,0,0:0:0:0:
84,343,25024,1,0,0:0:0:0:
86,324,25128,1,0,0:0:0:0:
114,299,25231,5,8,0:1:0:0:
116,280,25335,1,0,0:0:0:0:
112,261,25438,1,0,0:0:0:0:
100,245,25542,1,0,0:0:0:0:
36,196,25645,6,0,B|51:134|51:134|72:106,1,93.7500035762788,0|0,1:0|0:0,0:0:0:0:
126,52,25956,1,0,0:0:0:0:
178,111,26059,2,0,B|195:134|195:134|210:196,1,93.7500035762788,8|0,0:1|0:0,0:0:0:0:
393,127,26473,6,0,P|345:115|295:134,1,93.7500035762788,0|0,1:0|0:0,0:0:0:0:
306,207,26783,1,0,0:0:0:0:
306,207,26887,2,0,B|319:253|319:253|300:318,1,93.7500035762788,8|0,0:1|0:0,0:0:0:0:
285,374,27197,1,0,0:0:0:0:
285,374,27300,1,0,1:0:0:0:
454,256,27507,1,0,0:0:0:0:
293,126,27714,2,0,L|300:78,3,46.8750017881394,8|0|0|0,0:1|0:0|0:0|0:0,0:0:0:0:
218,155,28128,5,6,1:2:0:0:
199,157,28231,1,0,0:0:0:0:
180,154,28335,1,0,0:0:0:0:
162,146,28438,1,0,0:0:0:0:
133,122,28542,5,8,0:1:0:0:
114,120,28645,1,0,0:0:0:0:
95,123,28749,1,0,0:0:0:0:
77,131,28852,1,0,0:0:0:0:
21,188,28956,6,0,B|60:249|60:249|62:283,1,93.7500035762788,0|0,1:0|0:0,0:0:0:0:
22,340,29266,1,0,0:0:0:0:
101,340,29369,2,0,B|122:336|122:336|190:360,1,93.7500035762788,8|0,0:1|0:0,0:0:0:0:
404,327,29783,5,8,1:0:0:0:
240,159,29990,1,8,1:0:0:0:
450,261,30197,5,8,1:0:0:0:
216,236,30404,1,8,1:0:0:0:
444,182,30611,5,8,1:0:0:0:
249,312,30818,1,8,1:0:0:0:
386,123,31024,1,8,1:0:0:0:
386,123,31128,2,0,B|371:78|371:78|386:33,1,93.7500035762788,2|0,1:0|0:0,0:0:0:0:
399,43,31438,6,0,L|269:26,1,125,6|0,1:2|0:0,0:0:0:0:
246,104,31749,1,2,0:1:0:0:
246,104,31852,2,0,L|116:87,1,125,8|2,1:0|0:1,0:0:0:0:
48,123,32162,1,0,0:0:0:0:
10,195,32266,2,0,P|-2:255|34:332,1,125,0|2,0:0|0:0,0:0:0:0:
89,358,32576,1,0,0:0:0:0:
89,358,32680,1,10,0:0:0:0:
132,242,32887,1,0,0:0:0:0:
224,342,33093,6,0,L|360:315,1,125,2|0,0:2|0:0,0:0:0:0:
428,328,33404,1,2,0:0:0:0:
428,328,33507,2,0,B|410:265|410:265|433:202,1,125,8|2,0:0|0:0,0:0:0:0:
450,129,33818,1,0,0:0:0:0:
413,56,33921,2,0,L|277:83,1,125,0|2,0:0|0:0,0:0:0:0:
277,160,34231,1,0,0:0:0:0:
277,160,34335,2,0,L|195:136,1,62.5,10|0,0:0|0:0,0:0:0:0:
57,107,34542,2,0,L|139:83,1,62.5,0|0,0:0|0:0,0:0:0:0:
216,24,34749,6,0,B|196:84|196:84|219:149,1,125,6|0,0:2|0:0,0:0:0:0:
156,197,35059,1,2,0:0:0:0:
156,197,35162,2,0,P|86:197|31:242,1,125,8|2,0:0|0:0,0:0:0:0:
23,307,35473,1,0,0:0:0:0:
80,363,35576,2,0,L|204:318,1,125,0|2,0:0|0:0,0:0:0:0:
271,368,35887,1,0,0:0:0:0:
271,368,35990,1,10,0:0:0:0:
298,208,36197,1,0,0:0:0:0:
475,311,36404,6,0,L|351:266,1,125,2|0,0:2|0:0,0:0:0:0:
277,285,36714,1,2,0:0:0:0:
217,229,36818,2,0,P|225:166|276:126,1,125,8|2,0:0|0:0,0:0:0:0:
350,140,37128,1,0,0:0:0:0:
350,140,37231,2,0,L|336:10,1,125,0|0,0:0|0:0,0:0:0:0:
420,32,37542,1,2,0:0:0:0:
420,32,37645,2,0,L|505:28,1,62.5,10|0,0:0|0:0,0:0:0:0:
269,128,37852,2,0,L|184:124,1,62.5,2|2,0:0|0:0,0:0:0:0:
85,27,38059,6,0,P|122:73|107:150,1,125,6|0,0:2|0:0,0:0:0:0:
46,177,38369,1,2,0:0:0:0:
46,177,38473,2,0,P|9:223|24:300,1,125,8|2,0:0|0:0,0:0:0:0:
48,360,38783,1,0,0:0:0:0:
127,340,38887,2,0,B|183:325|183:325|261:345,1,125,0|2,0:0|0:0,0:0:0:0:
329,366,39197,1,0,0:0:0:0:
329,366,39300,1,10,0:0:0:0:
309,204,39507,1,0,0:0:0:0:
506,231,39714,6,0,B|446:249|446:249|372:226,1,125,2|0,0:2|0:0,0:0:0:0:
377,148,40024,1,2,0:0:0:0:
377,148,40128,2,0,P|398:84|365:19,1,125,8|2,0:0|0:0,0:0:0:0:
297,17,40438,1,0,0:0:0:0:
252,85,40542,2,0,L|128:49,1,125,0|2,0:0|0:0,0:0:0:0:
50,42,40852,1,0,0:0:0:0:
50,42,40956,2,0,L|79:130,1,62.5,10|0,0:0|0:0,0:0:0:0:
187,157,41162,2,0,L|158:245,1,62.5,0|0,0:0|0:0,0:0:0:0:
40,282,41369,6,0,P|108:284|155:350,1,125,6|0,0:2|0:0,0:0:0:0:
204,380,41680,1,2,0:0:0:0:
204,380,41783,2,0,L|325:352,1,125,8|2,0:1|0:0,0:0:0:0:
404,373,42093,1,0,0:0:0:0:
454,308,42197,2,0,B|436:247|436:247|456:166,1,125,0|2,0:0|0:0,0:0:0:0:
508,108,42507,1,0,0:0:0:0:
508,108,42611,1,10,0:0:0:0:
348,194,42818,1,0,0:0:0:0:
463,31,43024,5,10,0:0:0:0:
463,31,43128,1,10,0:0:0:0:
286,125,43335,1,10,0:0:0:0:
508,108,43542,1,10,0:0:0:0:
330,39,43749,1,10,0:0:0:0:
330,39,43852,1,10,0:0:0:0:
508,108,44266,6,0,P|445:145|434:190,1,93.75,2|0,3:0|2:0,0:0:0:0:
407,244,44680,5,4,1:2:0:0:
389,244,44783,1,0,0:0:0:0:
371,241,44887,1,0,0:0:0:0:
354,233,44990,1,0,0:0:0:0:
335,194,45093,5,8,0:1:0:0:
317,194,45197,1,0,0:1:0:0:
299,197,45300,1,0,0:1:0:0:
282,205,45404,1,0,0:1:0:0:
226,271,45507,6,0,L|222:384,1,93.7500035762788,0|0,1:0|0:0,0:0:0:0:
163,197,45921,1,8,0:1:0:0:
324,293,46128,1,0,0:0:0:0:
133,373,46335,6,0,L|17:381,1,93.7500035762788,0|0,1:0|0:0,0:0:0:0:
3,308,46645,1,0,0:0:0:0:
3,227,46749,2,0,L|39:111,1,93.7500035762788,8|0,0:1|0:0,0:0:0:0:
119,270,47162,2,0,B|164:299|224:264,1,93.7500035762788,0|0,1:0|0:0,0:0:0:0:
383,346,47576,2,8,B|385:292|325:258,1,93.7500035762788,8|0,1:1|0:0,0:1:0:0:
163,197,47990,5,4,1:2:0:0:
161,178,48093,1,0,0:0:0:0:
164,160,48197,1,0,0:0:0:0:
172,143,48300,1,0,0:0:0:0:
204,117,48404,5,8,0:1:0:0:
213,100,48507,1,0,0:1:0:0:
216,83,48611,1,0,0:1:0:0:
216,65,48714,1,0,0:1:0:0:
128,77,48818,6,0,L|19:82,1,93.7500035762788,0|0,1:1|0:0,0:0:0:0:
7,157,49128,1,0,0:0:0:0:
38,230,49231,2,0,L|142:221,1,93.7500035762788,8|0,0:1|0:0,0:0:0:0:
290,259,49645,6,0,P|304:306|290:351,1,93.7500035762788,0|0,1:0|0:0,0:0:0:0:
211,349,49956,1,0,0:0:0:0:
211,349,50059,2,0,L|106:339,1,93.7500035762788,8|0,0:1|0:0,0:0:0:0:
37,330,50369,1,0,0:0:0:0:
40,334,50473,1,0,1:0:0:0:
198,257,50680,1,2,0:1:0:0:
365,354,50887,2,0,L|437:262,1,93.7500035762788,10|2,0:1|0:0,0:0:0:0:
393,139,51300,5,4,1:2:0:0:
375,127,51404,1,0,0:0:0:0:
357,123,51507,1,0,0:0:0:0:
337,126,51611,1,0,0:0:0:0:
313,154,51714,5,8,0:1:0:0:
294,156,51818,1,0,0:0:0:0:
275,153,51921,1,0,0:0:0:0:
259,141,52024,1,0,0:0:0:0:
255,60,52128,6,0,P|312:43|351:57,1,93.7500035762788,0|0,1:0|0:0,0:0:0:0:
411,96,52438,1,0,2:1:0:0:
444,167,52542,2,0,P|442:226|415:259,1,93.7500035762788,8|0,0:1|0:0,0:0:0:0:
322,314,52956,6,0,B|274:302|274:302|224:321,1,93.7500035762788,0|0,1:0|0:0,0:0:0:0:
168,365,53266,1,0,0:0:0:0:
168,365,53369,2,0,B|155:319|155:319|174:254,1,93.7500035762788,8|0,0:1|0:0,0:0:0:0:
236,233,53680,1,0,0:0:0:0:
236,233,53783,1,0,1:0:0:0:
384,374,53990,1,0,0:0:0:0:
493,225,54197,2,0,L|500:177,3,46.8750017881394,8|0|0|0,0:1|0:0|0:0|0:0,0:0:0:0:
456,302,54611,5,6,1:2:0:0:
437,304,54714,1,0,0:0:0:0:
418,301,54818,1,0,0:0:0:0:
400,293,54921,1,0,0:0:0:0:
371,269,55024,5,8,0:1:0:0:
352,267,55128,1,0,0:0:0:0:
333,270,55231,1,0,0:0:0:0:
315,278,55335,1,0,0:0:0:0:
261,338,55438,6,0,B|228:350|228:350|158:333,1,93.7500035762788,0|0,1:0|0:0,0:0:0:0:
98,370,55749,1,0,0:0:0:0:
104,290,55852,2,0,B|100:255|100:255|54:199,1,93.7500035762788,8|0,0:1|0:0,0:0:0:0:
91,47,56266,5,8,1:0:0:0:
308,190,56473,1,8,1:0:0:0:
201,0,56680,5,8,1:0:0:0:
222,248,56887,1,8,1:0:0:0:
428,75,57093,5,8,1:0:0:0:
439,73,57197,1,0,0:0:0:0:
451,72,57300,1,0,0:0:0:0:
463,71,57404,1,0,0:0:0:0:
499,101,57507,5,8,1:0:0:0:
512,141,57611,1,8,0:1:0:0:
509,178,57714,1,8,0:1:0:0:
489,210,57818,1,8,0:1:0:0:
430,150,57921,6,0,L|294:162,1,125,4|0,1:2|0:0,0:0:0:0:
274,236,58231,1,0,0:0:0:0:
274,236,58335,1,8,0:1:0:0:
463,282,58542,1,0,1:0:0:0:
463,282,58645,1,0,0:0:0:0:
431,357,58749,2,0,L|306:367,1,125,0|0,0:0|0:0,0:0:0:0:
264,296,59059,1,0,1:0:0:0:
264,296,59162,2,0,P|264:262|281:225,1,62.5,8|0,0:1|0:0,0:0:0:0:
145,137,59369,2,0,P|155:166|154:197,1,62.5,0|0,1:1|0:0,0:0:0:0:
19,315,59576,6,0,L|142:292,1,125,0|0,1:0|0:0,0:0:0:0:
77,58,59990,2,0,B|62:161|62:161|78:187,1,125,8|0,0:1|1:0,0:0:0:0:
153,197,60300,1,0,0:0:0:0:
153,197,60404,1,0,1:0:0:0:
19,315,60611,1,8,1:0:0:0:
184,372,60818,1,8,1:0:0:0:
120,291,61024,1,0,0:0:0:0:
120,291,61128,1,0,0:0:0:0:
196,265,61231,6,0,B|250:271|250:271|258:281|258:281|323:288,1,125,0|0,1:0|0:0,0:0:0:0:
392,330,61542,1,0,0:0:0:0:
392,330,61645,1,8,0:1:0:0:
421,156,61852,1,0,0:0:0:0:
421,156,61956,1,0,0:0:0:0:
343,179,62059,2,0,B|289:173|289:173|281:163|281:163|223:156,1,125,0|0,1:0|1:0,0:0:0:0:
165,107,62369,1,0,1:0:0:0:
165,107,62473,2,0,P|165:73|177:45,1,62.5,8|0,0:1|0:0,0:0:0:0:
32,9,62680,2,0,P|43:37|42:69,1,62.5,0|0,1:0|0:0,0:0:0:0:
0,208,62887,6,0,B|94:188|94:188|121:206,1,125,0|0,1:0|0:0,0:0:0:0:
179,258,63197,1,0,0:0:0:0:
158,336,63300,2,0,B|252:356|252:356|279:338,1,125,8|0,0:1|1:0,0:0:0:0:
345,294,63611,1,0,0:0:0:0:
345,294,63714,2,0,L|365:353,1,62.5,0|0,1:0|0:0,0:0:0:0:
479,286,63921,2,0,L|499:227,1,62.5,8|0,1:0|0:0,0:0:0:0:
325,185,64128,1,12,1:0:0:0:
358,167,64231,1,0,0:0:0:0:
391,150,64335,1,0,0:0:0:0:
423,131,64438,1,0,0:0:0:0:
455,111,64542,6,0,L|415:229,1,125,4|0,1:2|0:0,0:0:0:0:
479,286,64852,1,0,0:0:0:0:
479,286,64956,1,8,0:1:0:0:
288,357,65162,1,0,0:0:0:0:
288,357,65266,1,0,0:0:0:0:
352,300,65369,2,0,L|312:182,1,125,0|0,1:0|1:0,0:0:0:0:
318,100,65680,1,0,1:0:0:0:
318,100,65783,2,0,P|285:103|253:123,1,62.5,8|0,1:0|0:0,0:0:0:0:
151,169,65990,2,0,P|184:172|216:192,1,62.5,0|0,1:0|0:0,0:0:0:0:
211,341,66197,6,0,B|153:344|153:344|142:351|142:351|70:357,1,125,0|0,1:0|0:0,0:0:0:0:
53,283,66507,1,0,0:0:0:0:
53,283,66611,2,0,B|111:280|111:280|122:273|122:273|194:267,1,125,8|0,0:1|1:0,0:0:0:0:
257,272,66921,1,0,0:0:0:0:
257,272,67024,1,0,1:0:0:0:
80,201,67231,1,8,1:0:0:0:
170,68,67438,2,0,B|148:127|148:127|179:206,1,125,8|0,1:0|1:0,0:0:0:0:
319,136,67852,5,8,1:0:0:0:
459,188,68059,1,8,1:0:0:0:
459,188,68162,2,0,B|481:130|481:130|459:71,1,125,8|0,1:0|0:0,0:0:0:0:
386,32,68473,1,0,1:0:0:0:
375,38,68576,1,0,1:0:0:0:
364,44,68680,1,8,1:0:0:0:
256,137,68887,2,0,L|336:135,1,62.5,8|8,1:0|1:0,0:0:0:0:
368,210,69093,1,8,1:3:0:0:
394,244,69197,1,8,1:3:0:0:
404,286,69300,1,4,1:3:0:0:
394,328,69404,1,4,1:3:0:0:
364,360,69507,6,0,B|321:331|259:353|287:374|224:392|167:358,1,187.5,8|0,1:0|0:0,0:0:0:0:
184,366,70335,5,8,1:0:0:0:
164,173,70542,1,8,1:0:0:0:
164,173,70645,1,8,1:0:0:0:
164,173,70749,1,8,1:0:0:0:
171,266,70956,1,8,1:0:0:0:
282,125,71162,6,0,B|316:-19|316:-19|344:49,1,210.937508046627,6|0,0:2|0:0,0:0:0:0:
376,115,71576,2,0,P|453:128|524:84,1,140.625005364418,8|0,0:0|0:0,0:0:0:0:
338,222,71990,2,0,P|261:209|190:253,1,140.625005364418
160,328,72300,1,0,0:0:0:0:
160,328,72404,1,8,0:0:0:0:
103,98,72611,1,0,0:0:0:0:
0,226,72818,6,0,P|68:237|130:207,1,140.625005364418
220,106,73128,1,0,0:0:0:0:
220,106,73231,2,0,P|301:90|401:143,1,140.625005364418,8|0,0:0|0:0,0:0:0:0:
436,218,73542,1,0,0:0:0:0:
436,218,73645,2,0,L|291:289,1,140.625005364418,0|0,0:0|0:0,0:0:0:0:
114,384,74059,2,0,P|202:335|205:231,1,210.937508046627,8|0,0:0|0:0,0:0:0:0:
111,197,74473,5,6,0:2:0:0:
111,197,74576,1,0,0:0:0:0:
206,24,74783,1,0,0:0:0:0:
206,24,74887,1,8,0:0:0:0:
206,24,74990,1,0,0:0:0:0:
326,179,75197,1,0,0:0:0:0:
326,179,75300,1,0,0:0:0:0:
326,179,75404,1,0,0:0:0:0:
461,36,75611,1,0,0:0:0:0:
461,36,75714,2,0,L|477:155,1,70.3125026822091,8|0,0:0|0:0,0:0:0:0:
482,190,75921,1,0,0:0:0:0:
382,370,76128,6,0,B|337:345|337:345|238:363,1,140.625005364418,0|0,0:0|0:0,0:0:0:0:
37,290,76542,2,0,B|82:315|82:315|181:297,1,140.625005364418,8|0,0:0|0:0,0:0:0:0:
398,253,76956,5,0,0:0:0:0:
417,215,77059,1,0,0:0:0:0:
417,173,77162,1,8,0:0:0:0:
392,138,77266,1,0,0:0:0:0:
317,173,77369,5,8,0:0:0:0:
292,138,77473,1,0,0:0:0:0:
292,96,77576,1,0,0:0:0:0:
311,58,77680,1,0,0:0:0:0:
371,116,77783,6,0,P|445:122|436:0,1,210.937508046627,6|0,0:2|0:0,0:0:0:0:
374,16,78197,2,0,L|224:38,1,140.625005364418,8|0,0:0|0:0,0:0:0:0:
62,115,78611,2,0,B|133:101|133:101|209:128,1,140.625005364418,0|0,0:0|0:0,0:0:0:0:
277,152,78921,1,0,0:0:0:0:
277,152,79024,1,8,0:0:0:0:
239,347,79231,1,0,0:0:0:0:
470,246,79438,6,0,B|433:259|433:259|383:243|383:243|296:268,1,140.625005364418,0|0,0:0|0:0,0:0:0:0:
239,347,79749,1,0,0:0:0:0:
239,347,79852,2,0,P|251:265|194:185,1,140.625005364418,8|0,0:0|0:0,0:0:0:0:
87,225,80162,1,0,0:0:0:0:
87,225,80266,2,0,P|75:307|132:387,1,140.625005364418,0|0,0:0|0:0,0:0:0:0:
332,379,80680,1,8,0:0:0:0:
431,176,80887,1,0,0:0:0:0:
188,175,81093,5,6,0:2:0:0:
44,75,81300,1,0,0:0:0:0:
44,75,81404,1,0,0:0:0:0:
44,75,81507,1,8,0:0:0:0:
193,181,81714,1,0,0:0:0:0:
193,181,81818,1,0,0:0:0:0:
193,181,81921,1,0,0:0:0:0:
23,288,82128,1,0,0:0:0:0:
23,288,82231,1,0,0:0:0:0:
23,288,82335,1,8,0:0:0:0:
195,381,82542,1,0,0:0:0:0:
419,327,82749,5,0,0:0:0:0:
438,289,82852,1,0,0:0:0:0:
440,246,82956,1,0,0:0:0:0:
422,207,83059,1,0,0:0:0:0:
363,267,83162,5,8,0:0:0:0:
324,284,83266,1,0,0:0:0:0:
282,281,83369,1,0,0:0:0:0:
248,255,83473,1,0,0:0:0:0:
236,171,83576,6,0,L|255:76,1,70.3125026822091,0|0,0:0|0:0,0:0:0:0:
351,26,83783,1,0,0:0:0:0:
351,26,83887,1,0,0:0:0:0:
351,26,83990,2,0,L|364:132,1,70.3125026822091,8|0,0:0|0:0,0:0:0:0:
438,171,84197,2,0,L|417:269,1,70.3125026822091,0|0,0:0|0:0,0:0:0:0:
376,368,84404,6,0,L|437:360,1,62.5,12|0,0:1|0:0,0:0:0:0:
314,292,84611,5,0,0:0:0:0:
305,282,84714,1,0,0:0:0:0:
296,272,84818,2,0,L|357:280,1,62.5,8|0,0:0|0:0,0:0:0:0:
198,341,85024,5,0,0:0:0:0:
189,351,85128,1,0,0:0:0:0:
180,361,85231,2,0,L|241:353,1,62.5,8|0,0:0|0:0,0:0:0:0:
75,225,85438,5,0,0:0:0:0:
52,262,85542,1,0,0:0:0:0:
28,298,85645,2,0,L|89:306,1,62.5,8|8,0:0|0:3,0:0:0:0:
213,258,85852,2,0,L|152:250,1,62.5,8|4,0:3|0:3,0:0:0:0:
64,125,86059,5,12,0:0:0:0:
55,135,86162,1,0,0:0:0:0:
46,145,86266,2,0,L|107:137,1,62.5,8|0,0:0|0:0,0:0:0:0:
157,57,86473,2,0,L|194:105,1,62.5,8|0,0:0|0:0,0:0:0:0:
293,94,86680,2,0,L|269:150,1,62.5,8|0,0:0|0:0,0:0:0:0:
280,255,86887,5,8,0:0:0:0:
289,245,86990,1,0,0:0:0:0:
298,235,87093,2,0,L|237:243,1,62.5,8|0,0:0|0:0,0:0:0:0:
187,323,87300,2,0,L|149:274,1,62.5,8|0,0:0|0:0,0:0:0:0:
51,286,87507,2,0,L|74:229,1,62.5,8|0,0:0|0:0,0:0:0:0:
107,136,87714,5,4,0:2:0:0:
256,192,87869,12,0,88955,0:0:0:0:
69,115,89783,5,2,0:1:0:0:
69,115,89886,2,0,P|141:134|153:169,1,94.9999988403321,2|2,0:1|0:1,0:0:0:0:
274,196,90196,6,0,P|202:215|189:258,1,94.9999988403321,2|0,0:0|0:0,0:0:0:0:
193,314,90507,1,2,0:1:0:0:
53,323,90714,2,0,B|116:315|116:315|130:323|130:323|206:312,1,142.499998260498,4|0,3:0|0:0,0:0:0:0:
311,254,91127,2,0,P|295:308|324:361,1,94.9999988403321,2|4,0:1|3:0,0:0:0:0:
464,302,91438,6,0,B|393:292|393:292|358:305,1,94.9999988403321,4|0,0:3|0:0,0:0:0:0:
400,374,91748,1,2,0:1:0:0:
378,211,91955,2,0,B|361:170|361:170|381:54,1,142.499998260498,4|8,3:0|0:0,0:0:0:0:
272,144,92369,2,0,P|222:137|186:102,1,94.9999988403321,8|8,0:0|0:0,0:0:0:0:
184,26,92679,5,6,0:0:0:0:
272,144,92886,1,0,0:0:0:0:
272,144,92989,1,8,0:1:0:0:
120,62,93196,1,0,1:0:0:0:
120,62,93300,2,0,P|104:116|133:169,1,94.9999988403321,0|0,1:0|0:0,0:0:0:0:
188,189,93610,1,8,0:1:0:0:
281,83,93817,1,0,1:0:0:0:
281,83,93921,6,0,L|159:116,1,94.9999988403321,0|0,1:0|0:0,0:0:0:0:
266,169,94231,2,0,L|359:141,1,94.9999988403321,8|0,0:1|1:0,0:0:0:0:
424,186,94541,1,0,1:0:0:0:
508,303,94748,1,8,1:0:0:0:
508,303,94852,2,0,L|417:273,1,94.9999988403321,8|8,1:0|1:0,0:0:0:0:
355,325,95162,5,0,1:0:0:0:
424,194,95369,1,0,0:0:0:0:
424,194,95472,1,8,0:1:0:0:
341,50,95679,1,0,1:0:0:0:
341,50,95783,2,0,P|312:98|327:156,1,94.9999988403321,0|0,1:0|0:0,0:0:0:0:
259,194,96093,1,8,0:1:0:0:
140,113,96300,1,0,1:0:0:0:
140,113,96403,6,0,L|257:118,1,94.9999988403321,0|0,1:0|0:0,0:0:0:0:
178,194,96714,2,0,L|59:189,1,94.9999988403321,8|0,0:1|1:0,0:0:0:0:
42,260,97024,1,0,1:0:0:0:
131,371,97231,2,0,B|165:340|165:340|295:345,1,142.499998260498,8|8,1:0|1:0,0:0:0:0:
341,348,97645,5,0,1:2:0:0:
428,234,97852,1,0,0:0:0:0:
428,234,97955,1,8,0:1:0:0:
369,99,98162,1,0,1:0:0:0:
369,99,98265,2,0,P|313:107|262:89,1,94.9999988403321,0|0,1:0|0:0,0:0:0:0:
198,72,98576,1,8,1:0:0:0:
200,247,98783,1,0,1:0:0:0:
200,247,98886,6,0,L|217:120,1,94.9999988403321,0|0,1:0|0:0,0:0:0:0:
127,188,99196,2,0,L|114:282,1,94.9999988403321,8|0,0:1|1:0,0:0:0:0:
41,317,99507,1,0,1:0:0:0:
167,372,99714,1,8,0:1:0:0:
167,372,99817,2,0,P|211:385|291:362,1,94.9999988403321,8|8,0:1|0:1,0:0:0:0:
333,345,100128,5,0,1:0:0:0:
493,370,100334,1,0,0:0:0:0:
493,370,100438,1,8,0:1:0:0:
393,256,100645,1,0,1:0:0:0:
393,256,100748,2,0,P|398:199|445:161,1,94.9999988403321,0|0,1:0|0:0,0:0:0:0:
474,236,101059,1,8,0:1:0:0:
311,275,101265,1,0,1:0:0:0:
311,275,101369,6,0,L|184:292,1,94.9999988403321,0|0,1:0|0:0,0:0:0:0:
252,202,101679,2,0,L|346:189,1,94.9999988403321,8|0,0:1|1:3,0:0:0:0:
381,116,101990,1,0,1:3:0:0:
202,37,102197,1,8,0:1:0:0:
202,37,102300,2,0,B|205:133,1,94.9999988403321,8|8,0:1|0:1,0:0:0:0:
172,213,102610,5,6,1:2:0:0:
50,81,102817,1,0,0:0:0:0:
50,81,102921,1,10,0:1:0:0:
18,257,103128,1,0,1:0:0:0:
18,257,103231,2,0,P|75:252|130:293,1,111.666661384583,0|0,1:0|0:0,0:0:0:0:
172,352,103541,1,10,0:1:0:0:
277,207,103748,1,0,1:0:0:0:
277,207,103852,6,0,B|259:259|259:259|280:332,1,111.666661384583,0|0,1:0|0:0,0:0:0:0:
461,272,104162,2,0,L|330:263,1,111.666661384583,10|0,0:1|1:0,0:0:0:0:
274,313,104472,1,0,1:0:0:0:
354,153,104679,1,10,0:1:0:0:
354,153,104783,2,0,P|298:117|241:122,1,111.666661384583,10|10,0:1|1:0,0:0:0:0:
175,160,105093,5,0,1:0:0:0:
78,13,105300,1,0,0:0:0:0:
78,13,105403,1,10,1:0:0:0:
260,6,105610,1,0,1:0:0:0:
260,6,105714,2,0,L|253:146,1,111.666661384583,0|0,1:0|0:0,0:0:0:0:
250,207,106024,1,10,1:0:0:0:
76,249,106231,1,0,1:0:0:0:
76,249,106335,6,0,B|128:230|128:230|197:258,1,111.666661384583,0|0,1:0|0:0,0:0:0:0:
294,372,106645,2,0,P|281:313|306:258,1,111.666661384583,10|0,1:0|1:0,0:0:0:0:
359,200,106955,1,0,1:0:0:0:
481,329,107162,1,10,1:0:0:0:
481,329,107266,2,0,L|353:320,1,111.666661384583,10|10,1:0|1:0,0:0:0:0:
298,266,107576,5,6,1:2:0:0:
474,237,107783,1,0,0:0:0:0:
474,237,107886,1,10,1:0:0:0:
360,94,108093,1,0,1:0:0:0:
360,94,108197,2,0,B|378:147|378:147|352:217,1,111.666661384583,0|0,1:0|0:0,0:0:0:0:
298,266,108507,1,10,1:0:0:0:
167,143,108714,1,0,1:0:0:0:
167,143,108817,6,0,L|282:151,1,111.666661384583,0|0,1:0|0:0,0:0:0:0:
236,325,109128,2,0,P|215:252|242:204,1,111.666661384583,10|0,1:0|1:0,0:0:0:0:
278,150,109438,1,0,1:0:0:0:
127,245,109645,1,10,1:0:0:0:
127,245,109748,2,0,L|12:237,1,111.666661384583,10|10,1:0|1:0,0:0:0:0:
31,326,110059,5,0,1:0:0:0:
54,148,110266,1,0,0:0:0:0:
54,148,110369,1,10,1:0:0:0:
222,206,110576,1,0,1:0:0:0:
222,206,110679,2,0,B|206:277|206:277|217:320,1,111.666661384583,0|0,1:0|0:0,0:0:0:0:
288,368,110990,1,10,1:0:0:0:
458,268,111197,5,0,1:0:0:0:
426,245,111300,1,0,1:0:0:0:
387,237,111404,1,0,0:0:0:0:
349,246,111507,1,0,0:0:0:0:
319,271,111610,2,0,L|344:139,1,111.666661384583,10|0,1:0|1:0,0:0:0:0:
419,117,111921,1,0,1:0:0:0:
241,183,112128,1,10,1:0:0:0:
241,183,112231,1,10,1:0:0:0:
359,34,112438,1,10,1:0:0:0:
359,34,112542,5,2,1:3:0:0:
323,60,112645,1,2,1:3:0:0:
280,74,112748,1,2,1:3:0:0:
235,67,112852,1,2,1:3:0:0:
42,83,113059,5,2,1:3:0:0:
87,76,113162,1,2,1:3:0:0:
130,90,113266,1,2,1:3:0:0:
166,116,113369,1,2,1:3:0:0:
166,116,113783,6,0,L|147:229,1,93.75,4|0,2:3|2:0,0:0:0:0:
148,226,114196,5,0,1:0:0:0:
147,239,114609,1,0,1:0:0:0:
146,252,115023,1,0,1:0:0:0:
145,265,115437,1,0,1:0:0:0:
303,349,115851,5,4,1:2:0:0:
302,336,116264,1,0,1:0:0:0:
301,323,116678,1,0,1:0:0:0:
200,357,116885,1,0,0:0:0:0:
300,310,117092,1,0,1:0:0:0:
420,325,117299,1,0,0:0:0:0:
466,174,117506,5,4,1:2:0:0:
453,173,117920,1,0,1:0:0:0:
440,172,118333,1,0,1:0:0:0:
427,171,118747,1,0,1:0:0:0:
256,257,119161,5,4,1:2:0:0:
269,256,119575,1,0,1:0:0:0:
282,255,119989,1,0,0:0:0:0:
349,172,120196,1,8,0:2:0:0:
306,74,120402,1,0,0:0:0:0:
199,74,120609,1,0,0:2:0:0:
149,168,120816,5,0,0:0:0:0:
136,165,121230,1,0,0:0:0:0:
124,160,121644,1,0,0:0:0:0:
111,156,122058,1,0,0:0:0:0:
37,309,122471,5,4,0:2:0:0:
50,306,122885,1,0,0:0:0:0:
62,301,123299,1,0,0:0:0:0:
96,200,123506,1,0,0:0:0:0:
75,297,123713,1,0,0:0:0:0:
160,359,123920,1,0,0:0:0:0:
317,294,124127,5,4,0:2:0:0:
329,296,124540,1,0,0:0:0:0:
341,298,124954,1,0,0:0:0:0:
353,300,125368,1,0,0:0:0:0:
447,250,125575,1,0,0:0:0:0:
247,226,125782,5,8,0:0:0:0:
453,116,125989,1,8,0:0:0:0:
353,300,126196,5,8,0:0:0:0:
360,31,126402,1,8,0:0:0:0:
173,90,126609,5,8,1:0:0:0:
159,90,126713,1,0,0:0:0:0:
146,90,126816,1,0,0:0:0:0:
133,92,126920,1,0,0:0:0:0:
122,92,127023,5,8,1:0:0:0:
150,125,127127,1,8,1:0:0:0:
157,167,127230,1,8,1:0:0:0:
147,209,127333,1,8,1:0:0:0:
98,292,127437,6,0,L|222:281,1,125,4|0,1:2|2:0,0:0:0:0:
303,270,127747,1,0,2:0:0:0:
303,270,127851,1,8,1:0:0:0:
410,110,128058,1,0,1:0:0:0:
410,110,128161,1,0,2:0:0:0:
378,185,128264,2,0,L|253:195,1,125,0|0,1:0|1:0,0:0:0:0:
183,154,128575,1,0,1:0:0:0:
183,154,128678,2,0,P|179:123|188:93,1,62.5,8|0,1:0|0:0,0:0:0:0:
175,231,128885,2,0,P|150:249|119:255,1,62.5,0|0,1:0|0:0,0:0:0:0:
29,341,129092,6,0,P|-8:265|38:186,1,125,0|0,1:0|0:0,0:0:0:0:
73,56,129506,2,0,B|101:200,1,125,8|0,1:0|1:0,0:0:0:0:
119,255,129816,1,0,0:0:0:0:
119,255,129920,1,0,1:0:0:0:
9,138,130127,1,8,1:0:0:0:
162,99,130333,1,8,1:0:0:0:
182,197,130540,1,0,1:0:0:0:
182,197,130644,1,0,0:0:0:0:
262,207,130747,6,0,B|256:153|256:153|246:145|246:145|239:80,1,125,0|0,1:0|0:0,0:0:0:0:
278,14,131058,1,0,0:0:0:0:
278,14,131161,1,8,1:0:0:0:
453,87,131368,5,0,0:0:0:0:
453,87,131471,1,0,0:0:0:0:
491,160,131575,2,0,B|484:217|484:217|474:225|474:225|468:279,1,125,0|0,1:0|1:0,0:0:0:0:
403,326,131885,1,0,1:0:0:0:
403,326,131989,2,0,P|363:331|327:313,1,62.5,8|0,1:0|0:0,0:0:0:0:
247,249,132196,2,0,P|216:243|186:250,1,62.5,0|0,1:0|0:0,0:0:0:0:
56,373,132402,6,0,B|36:279|36:279|54:252,1,125,0|0,1:0|0:0,0:0:0:0:
106,193,132713,1,0,0:0:0:0:
163,136,132816,2,0,B|183:42|183:42|165:15,1,125,8|0,1:0|1:0,0:0:0:0:
101,67,133127,1,0,0:0:0:0:
101,67,133230,2,0,L|15:57,1,62.5,0|0,1:0|0:0,0:0:0:0:
253,112,133437,2,0,L|339:102,1,62.5,8|0,1:0|0:0,0:0:0:0:
470,201,133644,1,8,1:0:0:0:
480,237,133747,1,0,0:0:0:0:
489,273,133851,1,4,0:1:0:0:
500,308,133954,1,0,0:0:0:0:
512,344,134058,6,0,L|406:278,1,125,4|0,1:2|0:0,0:0:0:0:
325,295,134368,1,0,0:0:0:0:
325,295,134471,1,8,1:0:0:0:
118,270,134678,1,0,0:0:0:0:
118,270,134782,1,0,0:0:0:0:
131,350,134885,2,0,L|261:287,1,125,0|0,1:0|1:0,0:0:0:0:
293,230,135196,1,0,1:0:0:0:
293,230,135299,2,0,P|290:197|270:165,1,62.5,8|0,1:0|0:0,0:0:0:0:
199,71,135506,2,0,P|196:104|176:136,1,62.5,0|0,1:0|0:0,0:0:0:0:
30,159,135713,6,0,B|29:217|29:217|36:228|36:228|38:300,1,125,0|0,1:0|0:0,0:0:0:0:
118,270,136023,1,0,0:0:0:0:
118,270,136127,2,0,B|118:211|118:211|111:200|111:200|109:128,1,125,8|0,1:0|1:0,0:0:0:0:
59,82,136437,1,0,0:0:0:0:
59,82,136540,1,0,1:0:0:0:
194,236,136747,1,8,1:0:0:0:
276,66,136954,6,0,B|339:26|414:75,1,125,8|0,1:0|1:0,0:0:0:0:
464,199,137368,1,8,1:0:0:0:
403,336,137575,1,8,1:0:0:0:
403,336,137678,2,0,B|340:376|265:327,1,125,8|0,1:0|0:0,0:0:0:0:
212,297,137989,1,0,3:0:0:0:
206,308,138092,1,0,3:0:0:0:
200,319,138196,1,8,1:0:0:0:
45,377,138402,2,0,L|22:293,1,62.5,8|8,1:0|1:0,0:0:0:0:
29,208,138609,1,0,1:0:0:0:
63,182,138713,1,8,3:0:0:0:
105,172,138816,1,4,3:0:0:0:
147,182,138920,1,4,3:3:0:0:
179,212,139023,6,0,B|222:241|284:219|256:198|319:179|375:214,1,187.5,8|0,1:0|0:0,0:0:0:0:
358,205,139851,5,8,1:0:0:0:
451,374,140058,1,8,1:0:0:0:
451,374,140161,1,8,1:0:0:0:
451,374,140264,1,8,1:0:0:0:
409,291,140471,1,8,1:0:0:0:
256,304,140678,6,0,B|227:266|129:282|119:340|119:340|138:321|176:322,1,210.937508046627,6|0,1:2|0:0,0:0:0:0:
162,208,141092,2,0,B|153:148|153:148|160:134|160:134|148:53,1,140.625005364418,8|0,0:0|0:0,0:0:0:0:
360,122,141506,2,0,P|292:172|240:165,1,140.625005364418
159,108,141816,1,0,0:0:0:0:
159,108,141920,1,8,0:0:0:0:
256,304,142127,1,0,0:0:0:0:
28,320,142333,6,0,P|96:270|148:277,1,140.625005364418
252,369,142644,1,0,0:0:0:0:
252,369,142747,2,0,B|256:300|256:300|248:285|248:285|253:199,1,140.625005364418,8|0,0:0|0:0,0:0:0:0:
358,311,143058,1,0,0:0:0:0:
358,311,143161,2,0,P|426:313|477:267,1,140.625005364418
428,22,143575,2,0,B|488:26|525:109|481:162|481:162|470:136|448:120,1,210.937508046627,8|0,0:0|0:0,0:0:0:0:
371,108,143989,5,6,1:2:0:0:
371,108,144092,1,0,0:0:0:0:
213,225,144299,1,0,0:2:0:0:
213,225,144402,1,8,0:0:0:0:
213,225,144506,1,0,0:0:0:0:
244,30,144713,1,0,0:2:0:0:
244,30,144816,1,0,0:0:0:0:
244,30,144920,1,0,0:0:0:0:
85,146,145127,1,0,0:2:0:0:
85,146,145230,2,0,L|171:132,1,70.3125026822091,8|0,0:0|0:0,0:0:0:0:
265,117,145437,1,0,0:0:0:0:
370,270,145644,6,0,P|297:258|253:337,1,140.625005364418,0|0,0:0|0:0,0:0:0:0:
59,324,146058,2,0,P|132:312|176:391,1,140.625005364418,8|0,0:0|0:0,0:0:0:0:
456,332,146471,5,0,0:0:0:0:
478,295,146575,1,0,0:0:0:0:
480,253,146678,1,8,0:0:0:0:
462,214,146782,1,0,0:0:0:0:
371,212,146885,5,8,0:0:0:0:
349,175,146989,1,0,0:0:0:0:
347,133,147092,1,0,0:0:0:0:
365,94,147196,1,0,0:0:0:0:
460,80,147299,6,0,B|412:119|345:105|331:50|331:50|302:75|241:52,1,210.937508046627,6|0,0:2|0:0,0:0:0:0:
209,13,147713,2,0,B|204:82|204:82|211:97|211:97|207:157,1,140.625005364418,8|0,0:0|0:0,0:0:0:0:
16,140,148127,2,0,B|129:126|129:126|111:179,1,140.625005364418,0|0,0:0|0:0,0:0:0:0:
63,232,148437,1,0,0:0:0:0:
63,232,148540,1,8,0:0:0:0:
254,295,148747,1,0,0:0:0:0:
60,362,148954,6,0,P|40:284|77:217,1,140.625005364418
181,300,149264,1,0,0:0:0:0:
181,300,149368,2,0,B|238:304|238:304|252:295|252:295|318:298,1,140.625005364418,8|0,0:0|0:0,0:0:0:0:
435,363,149678,1,0,0:0:0:0:
435,363,149782,2,0,P|455:285|418:218,1,140.625005364418
351,13,150196,1,8,0:0:0:0:
275,225,150402,1,0,0:0:0:0:
439,73,150609,5,4,0:2:0:0:
225,144,150816,1,0,0:0:0:0:
225,144,150920,1,0,0:0:0:0:
225,144,151023,1,8,0:0:0:0:
448,172,151230,1,0,0:0:0:0:
448,172,151333,1,0,0:0:0:0:
448,172,151437,1,0,0:0:0:0:
258,50,151644,1,0,0:0:0:0:
258,50,151747,1,0,0:0:0:0:
258,50,151851,1,8,0:0:0:0:
376,241,152058,1,0,0:0:0:0:
206,375,152264,5,4,0:2:0:0:
187,337,152368,1,0,0:0:0:0:
185,294,152471,1,0,0:0:0:0:
203,255,152575,1,0,0:0:0:0:
283,213,152678,5,8,0:0:0:0:
302,175,152782,1,0,0:0:0:0:
304,132,152885,1,0,0:0:0:0:
286,93,152989,1,0,0:0:0:0:
208,42,153092,5,8,0:0:0:0:
416,159,153299,1,8,0:0:0:0:
416,159,153402,1,8,0:0:0:0:
416,159,153506,1,8,0:0:0:0:
203,255,153713,1,8,0:0:0:0:
110,62,153920,6,0,P|19:93|103:138,1,210.937508046627,6|0,0:2|0:0,0:0:0:0:
178,149,154333,2,0,P|246:143|306:200,1,140.625005364418,8|0,0:0|0:0,0:0:0:0:
382,326,154747,2,0,B|372:254|372:254|426:174,1,140.625005364418,0|0,0:0|0:0,0:0:0:0:
459,126,155058,1,0,0:0:0:0:
459,126,155161,1,8,0:0:0:0:
299,186,155368,1,0,0:0:0:0:
157,17,155575,6,0,P|201:78|171:179,1,140.625005364418,0|0,0:0|0:0,0:0:0:0:
80,163,155885,1,0,0:0:0:0:
80,163,155989,2,0,P|36:224|66:325,1,140.625005364418,8|0,0:0|0:0,0:0:0:0:
193,356,156299,1,0,0:0:0:0:
193,356,156402,2,0,B|237:336|237:336|355:368,1,140.625005364418,0|0,0:0|0:0,0:0:0:0:
455,202,156816,2,0,L|317:278,1,140.625005364418,8|0,0:0|0:0,0:0:0:0:
91,372,157230,5,4,0:2:0:0:
47,207,157437,1,0,0:0:0:0:
47,207,157540,1,0,0:0:0:0:
47,207,157644,2,0,L|151:219,1,70.3125026822091,8|0,0:0|0:0,0:0:0:0:
89,50,157954,1,0,0:0:0:0:
89,50,158058,1,0,0:0:0:0:
89,50,158161,1,0,0:0:0:0:
308,15,158368,1,0,0:0:0:0:
308,15,158471,2,0,L|274:112,1,70.3125026822091,8|0,0:0|0:0,0:0:0:0:
305,164,158678,1,0,0:0:0:0:
245,364,158885,6,0,B|193:371|193:371|146:349|146:349|86:361,1,140.625005364418
0,239,159299,2,0,B|52:246|52:246|99:224|99:224|159:236,1,140.625005364418,8|0,0:0|0:0,0:0:0:0:
249,29,159713,5,0,1:0:0:0:
271,66,159816,1,0,0:0:0:0:
273,108,159920,1,8,0:0:0:0:
255,147,160023,1,0,0:0:0:0:
164,149,160127,5,8,0:0:0:0:
142,186,160230,1,0,0:0:0:0:
140,228,160333,1,0,0:0:0:0:
158,267,160437,1,0,0:0:0:0:
258,293,160540,6,0,B|391:257|391:257|330:361,1,210.937508046627,4|0,0:2|0:0,0:0:0:0:
503,352,160954,2,0,B|465:301|465:301|527:176,1,140.625005364418,8|0,0:0|0:0,0:0:0:0:
420,53,161368,2,0,P|457:134|409:189,1,140.625005364418,0|0,0:0|0:0,0:0:0:0:
352,195,161678,1,0,0:0:0:0:
352,195,161782,1,8,0:0:0:0:
194,92,161989,1,0,0:0:0:0:
38,246,162196,6,0,P|91:271|184:244,1,140.625005364418,0|0,0:0|0:0,0:0:0:0:
307,298,162506,1,0,0:0:0:0:
307,298,162609,2,0,P|345:213|311:139,1,140.625005364418,8|0,0:0|0:0,0:0:0:0:
194,92,163023,2,0,L|266:240,1,140.625005364418
314,59,163437,1,8,0:0:0:0:
115,12,163644,1,0,0:0:0:0:
127,210,163851,5,4,0:2:0:0:
365,119,164058,1,0,0:0:0:0:
384,156,164161,1,0,0:0:0:0:
387,197,164264,1,8,0:0:0:0:
368,235,164368,1,0,0:0:0:0:
358,276,164471,1,0,0:0:0:0:
379,312,164575,1,0,0:0:0:0:
443,263,164678,6,0,L|475:201,1,70.3125026822091,0|0,0:0|0:0,0:0:0:0:
463,115,164885,1,0,0:0:0:0:
463,115,164989,1,0,0:0:0:0:
463,115,165092,1,8,0:0:0:0:
481,340,165299,1,0,0:0:0:0:
335,265,165506,5,0,0:0:0:0:
295,250,165609,1,0,0:0:0:0:
252,254,165713,1,0,0:0:0:0:
219,280,165816,1,0,0:0:0:0:
130,332,165920,5,8,0:0:0:0:
145,292,166023,1,0,0:0:0:0:
143,248,166127,1,0,0:0:0:0:
119,215,166230,1,0,0:0:0:0:
60,135,166333,6,0,L|185:137,1,70.3125026822091,0|0,0:0|0:0,0:0:0:0:
266,196,166540,2,0,L|163:193,1,70.3125026822091,0|0,0:0|0:0,0:0:0:0:
146,55,166747,1,8,0:0:0:0:
53,283,166954,1,0,0:0:0:0:
251,374,167161,6,0,L|328:348,1,62.5,12|0,0:0|0:0,0:0:0:0:
188,271,167368,5,0,0:0:0:0:
182,259,167471,1,0,0:0:0:0:
175,245,167575,2,0,L|254:260,1,62.5,8|0,0:0|0:0,0:0:0:0:
271,159,167782,5,0,0:0:0:0:
271,145,167885,1,0,0:0:0:0:
271,132,167989,2,0,L|331:184,1,62.5,8|0,0:0|0:0,0:0:0:0:
439,225,168196,5,0,0:0:0:0:
460,262,168299,1,0,0:0:0:0:
482,299,168402,2,0,L|403:284,1,62.5,8|0,0:0|0:0,0:0:0:0:
318,172,168609,2,0,L|397:157,1,62.5,0|0,0:0|0:0,0:0:0:0:
462,48,168816,5,12,0:0:0:0:
469,58,168920,1,0,0:0:0:0:
476,67,169023,2,0,L|397:82,1,62.5,8|0,0:0|0:0,0:0:0:0:
323,55,169230,2,0,L|244:70,1,62.5,8|0,0:0|0:0,0:0:0:0:
172,36,169437,2,0,L|93:51,1,62.5,8|0,0:0|0:0,0:0:0:0:
21,174,169644,5,8,0:0:0:0:
14,164,169747,1,0,0:0:0:0:
7,155,169851,2,0,L|86:140,1,62.5,8|0,0:0|0:0,0:0:0:0:
160,167,170058,2,0,L|239:152,1,62.5,8|0,0:0|0:0,0:0:0:0:
311,186,170264,2,0,L|390:171,1,62.5,8|0,0:0|0:0,0:0:0:0:
459,208,170471,5,6,0:2:0:0:
256,192,170575,12,0,172023,0:0:0:0:
319,292,172127,5,10,0:0:0:0:
203,337,172333,1,10,0:0:0:0:
244,189,172540,1,10,0:0:0:0:
34,345,172747,1,10,0:0:0:0:
104,93,172954,1,10,0:0:0:0:
104,93,173264,5,8,0:1:0:0:
104,93,173368,1,8,0:1:0:0:
34,345,173575,1,8,0:0:0:0:
230,224,173782,6,0,P|297:191|394:210,1,140.625005364418,6|0,0:2|0:0,0:0:0:0:
498,302,174196,1,8,0:0:0:0:
376,92,174402,1,0,0:0:0:0:
322,331,174609,6,0,P|258:373|160:351,1,140.625005364418,0|0,0:0|0:0,0:0:0:0:
117,299,174920,1,0,0:0:0:0:
117,299,175023,1,8,0:0:0:0:
157,119,175230,1,0,0:0:0:0:
26,320,175437,5,0,0:0:0:0:
245,156,175644,1,0,0:0:0:0:
38,205,175851,1,8,0:0:0:0:
227,284,176058,1,0,0:0:0:0:
399,194,176264,6,0,P|496:118|523:112,2,140.625005364418,0|8|8,0:0|0:0|0:0,0:0:0:0:
376,371,176885,1,4,0:3:0:0:
227,284,177092,6,0,P|141:307|55:240,1,140.625005364418,4|0,0:2|0:0,0:0:0:0:
162,183,177506,1,8,0:0:0:0:
162,183,177609,2,0,P|193:98|149:23,1,140.625005364418,0|0,0:0|0:0,0:0:0:0:
99,11,177920,5,0,0:0:0:0:
273,76,178127,1,0,0:0:0:0:
97,111,178333,1,8,0:0:0:0:
97,111,178437,1,0,0:0:0:0:
272,171,178644,1,0,0:0:0:0:
272,171,178747,1,0,0:0:0:0:
95,211,178954,1,0,0:0:0:0:
171,286,179161,1,8,0:0:0:0:
171,286,179264,2,0,P|195:246|170:137,1,140.625005364418,0|0,0:0|0:0,0:0:0:0:
223,41,179575,6,0,B|163:45|126:128|170:181|170:181|181:155|203:139,1,210.937508046627,0|0,0:0|0:0,0:0:0:0:
270,133,179989,1,8,0:0:0:0:
310,122,180092,1,8,0:0:0:0:
352,127,180196,1,8,0:0:0:0:
388,146,180299,1,8,0:0:0:0:
439,218,180402,6,0,P|448:270|368:353,1,140.625005364418,6|0,0:2|0:0,0:0:0:0:
265,209,180816,1,8,0:0:0:0:
133,358,181023,1,0,0:0:0:0:
315,310,181230,1,0,0:0:0:0:
207,97,181437,1,0,0:0:0:0:
172,235,181644,1,8,0:0:0:0:
342,109,181851,2,0,P|379:97|440:138,1,70.3125026822091
426,142,182058,6,0,P|372:186|263:156,1,140.625005364418,0|0,0:0|0:0,0:0:0:0:
128,11,182471,1,8,0:0:0:0:
33,199,182678,1,0,0:0:0:0:
207,97,182885,6,0,P|115:97|38:141,2,140.625005364418,0|8|8,0:0|0:0|0:0,0:0:0:0:
248,198,183506,1,4,0:3:0:0:
406,0,183713,6,0,P|353:93|397:199,1,210.937508046627,4|0,0:2|0:0,0:0:0:0:
483,159,184127,1,8,0:0:0:0:
483,159,184230,2,0,L|471:307,1,140.625005364418,0|0,0:0|0:0,0:0:0:0:
390,358,184540,5,0,0:0:0:0:
211,139,184747,1,0,0:0:0:0:
239,317,184954,1,8,0:0:0:0:
239,317,185058,2,0,L|125:287,1,70.3125026822091,0|0,0:0|0:0,0:0:0:0:
79,336,185264,1,0,0:0:0:0:
79,336,185368,5,0,0:0:0:0:
79,336,185471,1,0,0:0:0:0:
76,100,185678,1,0,0:0:0:0:
40,177,185782,1,8,0:0:0:0:
81,250,185885,2,0,P|137:261|259:187,1,140.625005364418,0|0,0:0|0:0,0:0:0:0:
263,165,186196,5,12,0:0:0:0:
409,85,186402,1,8,0:0:0:0:
430,121,186506,1,8,0:0:0:0:
448,158,186609,1,8,0:0:0:0:
451,200,186713,1,8,0:0:0:0:
443,241,186816,1,8,0:0:0:0:
435,282,186920,1,8,0:0:0:0:
478,347,187023,6,0,P|394:347|358:276,1,125,6|0,0:2|0:0,0:0:0:0:
358,239,187333,1,2,0:0:0:0:
358,239,187437,2,0,L|246:295,1,125,8|2,0:0|0:0,0:0:0:0:
194,358,187747,1,0,0:0:0:0:
112,357,187851,2,0,P|61:326|52:246,1,125,0|2,0:0|0:0,0:0:0:0:
76,189,188161,1,0,0:0:0:0:
76,189,188264,1,10,0:0:0:0:
238,197,188471,1,0,0:0:0:0:
169,24,188678,6,0,L|158:161,1,125,2|0,0:2|0:0,0:0:0:0:
143,229,188989,1,2,0:0:0:0:
143,229,189092,2,0,B|182:224|206:211|206:211|227:229|269:234,1,125,8|2,0:0|0:0,0:0:0:0:
329,277,189402,1,0,0:0:0:0:
396,232,189506,2,0,P|417:165|382:102,1,125,0|2,0:0|0:0,0:0:0:0:
340,57,189816,1,0,0:0:0:0:
340,57,189920,2,0,L|281:80,1,62.5,10|0,0:0|0:0,0:0:0:0:
270,254,190127,2,0,L|329:277,1,62.5,0|0,0:0|0:0,0:0:0:0:
494,315,190333,6,0,P|427:311|385:367,1,125,6|0,0:2|0:0,0:0:0:0:
310,371,190644,1,2,0:0:0:0:
310,371,190747,2,0,L|186:320,1,125,8|2,0:0|0:0,0:0:0:0:
173,243,191058,1,0,0:0:0:0:
100,207,191161,2,0,P|53:252|46:319,1,125,0|2,0:0|0:0,0:0:0:0:
115,350,191471,1,0,0:0:0:0:
115,350,191575,1,10,0:0:0:0:
11,170,191782,1,0,0:0:0:0:
184,43,191989,6,0,L|335:56,1,125,2|0,0:2|0:0,0:0:0:0:
386,30,192299,1,2,0:0:0:0:
459,64,192402,2,0,P|479:121|452:195,1,125,8|2,0:0|0:0,0:0:0:0:
383,206,192713,1,0,0:0:0:0:
383,206,192816,2,0,B|361:265|361:265|391:344,1,125,0|0,0:0|0:0,0:0:0:0:
447,271,193127,1,2,0:0:0:0:
447,271,193230,2,0,L|508:262,1,62.5,10|0,0:0|0:0,0:0:0:0:
312,351,193437,2,0,L|234:343,1,62.5,2|2,0:0|0:0,0:0:0:0:
17,265,193644,6,0,P|89:262|133:307,1,125,6|0,0:2|0:0,0:0:0:0:
173,362,193954,1,2,0:0:0:0:
173,362,194058,2,0,L|162:204,1,125,8|2,0:0|0:0,0:0:0:0:
116,171,194368,1,0,0:0:0:0:
56,115,194471,2,0,P|108:89|186:121,1,125,0|2,0:0|0:0,0:0:0:0:
217,173,194782,1,0,0:0:0:0:
217,173,194885,1,10,0:0:0:0:
341,6,195092,1,0,0:0:0:0:
505,159,195299,6,0,P|453:185|375:153,1,125,2|0,0:2|0:0,0:0:0:0:
346,99,195609,1,2,0:0:0:0:
346,99,195713,2,0,L|358:228,1,125,8|2,0:0|0:0,0:0:0:0:
298,279,196023,1,0,0:0:0:0:
313,359,196127,2,0,P|375:374|434:348,1,125,0|2,0:0|0:0,0:0:0:0:
436,270,196437,1,0,0:0:0:0:
436,270,196540,2,0,L|507:262,1,62.5,10|0,0:0|0:0,0:0:0:0:
298,279,196747,2,0,L|227:287,1,62.5,0|0,0:0|0:0,0:0:0:0:
57,362,196954,6,0,P|125:360|172:294,1,125,6|0,0:2|0:0,0:0:0:0:
119,252,197264,1,2,0:0:0:0:
119,252,197368,2,0,B|117:195|117:195|126:182|126:182|127:115,1,125,8|2,0:0|0:0,0:0:0:0:
60,82,197678,1,0,0:0:0:0:
130,40,197782,2,0,L|257:58,1,125,0|2,0:0|0:0,0:0:0:0:
329,27,198092,1,0,0:0:0:0:
329,27,198196,1,10,0:0:0:0:
490,93,198402,1,0,0:0:0:0:
259,145,198609,5,10,0:0:0:0:
259,145,198713,1,10,0:0:0:0:
430,19,198920,1,10,0:0:0:0:
319,219,199127,1,10,0:0:0:0:
490,93,199333,1,10,0:0:0:0:
490,93,199437,5,10,0:0:0:0:
482,129,199540,1,10,0:0:0:0:
474,166,199644,1,10,0:0:0:0:
466,202,199747,1,10,0:0:0:0:
401,246,199851,5,8,0:3:0:0:
406,263,199954,1,8,0:3:0:0:
410,281,200058,1,4,0:3:0:0:
414,299,200161,1,4,0:3:0:0:
475,358,200264,5,10,0:0:0:0:
475,358,200368,1,10,0:0:0:0:
323,304,200575,1,10,0:0:0:0:
171,357,200782,1,10,0:0:0:0:
322,195,200989,1,10,0:0:0:0:
322,195,201092,1,10,0:0:0:0:
