osu file format v14

[General]
AudioFilename: audio.mp3
AudioLeadIn: 0
PreviewTime: 70335
Countdown: 0
SampleSet: Soft
StackLeniency: 0.7
Mode: 0
LetterboxInBreaks: 0
WidescreenStoryboard: 1

[Editor]
Bookmarks: 4972,11593,17800,31455,44282,57938,71179,84420,87731,92903,112558,120834,126627,140696,153938,167179,172144,187041
DistanceSpacing: 1.2
BeatDivisor: 4
GridSize: 8
TimelineZoom: 2

[Metadata]
Title:Nadeshiko color Heart
TitleUnicode:撫子色ハート
Artist:YURRY CANON
ArtistUnicode:ユリイ・カノン
Creator:kwk
Version:Advanced
Source:
Tags:vocaloid megpoid gumi メグッポイド グミ Hatsune Miku 初音ミク traditional rock nadeshikoiro Saturnalize RVMathew moph
BeatmapID:1449514
BeatmapSetID:682996

[Difficulty]
HPDrainRate:5
CircleSize:3.4
OverallDifficulty:5
ApproachRate:7
SliderMultiplier:1.6
SliderTickRate:1

[Events]
//Background and Video events
0,0,"nadeshiko.png",0,0
//Break Periods
2,89465,91779
//Storyboard Layer 0 (Background)
//Storyboard Layer 1 (Fail)
//Storyboard Layer 2 (Pass)
//Storyboard Layer 3 (Foreground)
//Storyboard Sound Samples

[TimingPoints]
7,413.793103448276,4,1,2,40,1,0
834,428.571428571429,4,1,2,40,1,0
2012,410.958904109589,4,1,2,40,1,0
2114,410.958904109589,4,1,2,40,1,0
3246,387.096774193548,4,1,2,40,1,0
3342,400,4,2,10,60,1,0
4742,428.571428571429,4,1,1,40,1,0
4956,413.793103448276,4,1,2,40,1,0
17783,-100,4,1,1,60,0,0
18196,-100,4,2,1,60,0,0
18197,-100,4,2,1,60,0,0
31438,-100,4,1,1,60,0,0
44266,-100,4,1,1,60,0,0
44679,-100,4,2,1,60,0,0
44680,-100,4,2,1,60,0,0
71162,-100,4,1,1,75,0,1
84404,-100,4,1,1,60,0,0
87714,310.350178451353,4,1,1,60,1,0
87714,-133.333333333333,4,1,1,60,0,0
88955,-133.333333333333,4,1,1,5,0,0
89162,-133.333333333333,4,2,1,60,0,0
113783,413.793103448276,4,1,1,60,1,0
113783,-100,4,1,1,60,0,0
114196,413.793103448276,4,1,1,30,1,0
114196,-111.111111111111,4,1,1,30,0,0
125782,-111.111111111111,4,1,1,60,0,0
126609,-111.111111111111,4,2,1,60,0,0
126610,-111.111111111111,4,2,1,60,0,0
127437,-100,4,2,1,60,0,0
140678,-100,4,1,1,75,0,1
167161,-100,4,1,1,60,0,0
173782,-90.9090909090909,4,1,1,75,0,0
187023,-100,4,1,1,75,0,0

[Colours]
Combo1 : 255,255,166
Combo2 : 255,128,128
Combo3 : 0,255,255
Combo4 : 0,255,128

[HitObjects]
24,224,4956,6,0,P|75:214|102:111,1,160,6|8,0:2|0:0,0:0:0:0:
77,29,5576,1,2,0:0:0:0:
170,49,5783,2,0,P|232:61|285:26,1,120,0|0,0:0|0:0,0:0:0:0:
317,4,6197,2,0,L|324:106,1,80,10|0,0:0|0:0,0:0:0:0:
252,149,6611,6,0,B|196:230|256:315,1,160,2|8,0:2|0:0,0:0:0:0:
339,328,7231,1,2,0:0:0:0:
431,303,7438,2,0,B|479:232|444:170,1,120,0|0,0:0|0:0,0:0:0:0:
434,145,7852,2,0,P|423:89|442:43,1,80,10|0,0:0|0:0,0:0:0:0:
330,49,8266,6,0,P|265:25|158:83,1,160,6|8,0:2|0:0,0:0:0:0:
161,147,8887,1,2,0:0:0:0:
256,137,9093,2,0,P|273:204|247:268,1,120,0|0,0:0|0:0,0:0:0:0:
274,296,9507,2,0,L|188:262,1,80,10|0,0:0|0:0,0:0:0:0:
115,313,9921,6,0,P|100:267|109:231,1,80,2|0,0:2|0:0,0:0:0:0:
132,196,10231,1,2,0:0:0:0:
132,196,10335,2,0,P|131:147|115:110,1,80,8|2,0:0|0:0,0:0:0:0:
71,34,10749,2,0,L|180:39,1,80,0|0,0:0|0:0,0:0:0:0:
193,59,11059,1,2,0:0:0:0:
193,59,11162,2,0,L|285:48,1,80,10|2,0:0|0:0,0:0:0:0:
360,9,11576,6,0,B|341:87|341:87|371:182,1,160,6|8,0:2|0:0,0:0:0:0:
461,187,12197,1,2,0:0:0:0:
401,262,12404,2,0,B|344:290|344:290|292:266,1,120,0|0,0:0|0:0,0:0:0:0:
245,257,12818,2,0,L|159:302,1,80,10|0,0:0|0:0,0:0:0:0:
92,353,13231,6,0,P|75:284|142:210,1,160,2|8,0:2|0:0,0:0:0:0:
211,174,13852,1,2,0:0:0:0:
302,145,14059,2,0,P|314:80|285:22,1,120,0|0,0:0|0:0,0:0:0:0:
248,14,14473,2,0,L|158:24,1,80,10|0,0:0|0:0,0:0:0:0:
89,74,14887,6,0,P|79:151|123:215,1,160,2|8,0:2|0:0,0:0:0:0:
211,174,15507,1,2,0:0:0:0:
305,190,15714,2,0,P|336:246|325:313,1,120,0|0,0:0|0:0,0:0:0:0:
337,347,16128,2,0,L|251:348,1,80,10|0,0:0|0:0,0:0:0:0:
160,350,16542,5,10,0:0:0:0:
160,350,16645,1,10,0:0:0:0:
111,266,16852,2,0,P|119:199|106:178,2,80,10|10|10,0:0|0:0|0:0,0:0:0:0:
68,288,17369,2,0,P|44:200|90:129,1,160,10|4,0:0|0:3,0:0:0:0:
229,45,18197,6,0,L|339:27,1,80,6|0,1:2|0:0,0:0:0:0:
342,52,18507,1,0,0:0:0:0:
379,67,18611,2,0,L|458:54,1,80,0|0,0:1|0:1,0:0:0:0:
430,147,19024,2,0,L|268:175,1,160,0|8,1:0|0:1,0:0:0:0:
175,150,19645,1,0,0:0:0:0:
215,62,19852,6,0,L|294:49,2,80,0|0|8,1:0|0:0|0:1,0:0:0:0:
136,7,20473,1,0,0:0:0:0:
103,98,20680,2,0,P|89:175|172:238,1,160,0|8,1:0|0:1,0:0:0:0:
331,231,21507,6,0,P|358:171|351:124,1,80,6|0,1:2|0:0,0:0:0:0:
347,118,21818,1,0,0:0:0:0:
332,77,21921,2,0,P|325:33|347:-11,1,80,8|0,0:1|0:1,0:0:0:0:
434,2,22335,2,0,P|466:61|432:162,1,160,0|8,1:0|0:1,0:0:0:0:
431,243,22956,1,0,0:0:0:0:
461,335,23162,6,0,L|346:350,1,80,0|0,1:0|0:0,0:0:0:0:
323,268,23576,2,0,L|214:280,1,80,8|0,0:1|0:0,0:0:0:0:
178,347,23990,1,0,1:0:0:0:
158,253,24197,1,2,0:1:0:0:
86,317,24404,2,0,L|-1:325,1,80,10|2,1:0|0:0,0:0:0:0:
0,227,24818,6,0,P|-18:170|-5:122,1,80,4|0,1:2|0:0,0:0:0:0:
3,115,25128,1,0,0:0:0:0:
35,92,25231,2,0,L|128:133,1,80,8|0,0:1|0:0,0:0:0:0:
187,179,25645,2,0,P|204:122|189:76,1,80,0|0,1:0|0:0,0:0:0:0:
181,67,25956,1,0,0:0:0:0:
161,32,26059,2,0,L|252:63,1,80,8|0,0:1|0:0,0:0:0:0:
333,59,26473,6,0,L|414:6,2,80,0|0|8,1:0|0:0|0:1,0:0:0:0:
328,154,27093,1,0,0:0:0:0:
413,110,27300,2,0,P|422:182|351:251,1,160,0|8,1:0|0:1,0:0:0:0:
213,363,28128,6,0,B|184:312|184:312|199:257,1,80,6|0,1:2|0:0,0:0:0:0:
215,261,28438,1,0,0:0:0:0:
213,219,28542,2,0,L|167:138,1,80,8|0,0:1|0:0,0:0:0:0:
96,91,28956,2,0,B|77:156|77:156|131:256,1,160,0|8,1:0|0:1,0:0:0:0:
98,331,29576,1,0,0:0:0:0:
39,255,29783,6,0,L|-13:165,2,80,8|8|8,1:0|1:0|1:0,0:0:0:0:
3,344,30404,1,8,1:0:0:0:
98,331,30611,2,0,L|210:340,2,80,8|8|8,1:0|1:0|1:0,0:0:0:0:
69,140,31438,6,0,P|145:128|219:178,1,160,6|8,1:2|1:0,0:0:0:0:
292,226,32059,1,2,0:1:0:0:
376,179,32266,2,0,P|388:117|353:64,1,120,0|0,0:0|0:0,0:0:0:0:
345,24,32680,2,0,L|282:84,1,80,10|0,0:0|0:0,0:0:0:0:
214,141,33093,6,0,B|144:190|65:136,1,160,2|8,0:2|0:0,0:0:0:0:
0,208,33714,1,2,0:0:0:0:
50,289,33921,2,0,B|112:299|112:299|184:251,1,120,0|0,0:0|0:0,0:0:0:0:
198,239,34335,2,0,P|236:228|297:249,1,80,10|0,0:0|0:0,0:0:0:0:
340,305,34749,6,0,P|370:242|317:144,1,160,6|8,0:2|0:0,0:0:0:0:
246,140,35369,1,2,0:0:0:0:
275,235,35576,2,0,P|208:252|144:226,1,120,0|0,0:0|0:0,0:0:0:0:
119,263,35990,2,0,L|110:167,1,80,10|0,0:0|0:0,0:0:0:0:
82,91,36404,6,0,P|127:66|175:71,1,80,2|0,0:2|0:0,0:0:0:0:
195,91,36714,1,2,0:0:0:0:
195,91,36818,2,0,P|234:87|267:65,1,80,8|2,0:0|0:0,0:0:0:0:
358,33,37231,2,0,P|399:63|415:108,1,80,0|0,0:0|0:0,0:0:0:0:
406,136,37542,1,2,0:0:0:0:
406,136,37645,2,0,P|426:170|459:190,1,80,10|2,0:0|0:0,0:0:0:0:
470,286,38059,6,0,B|396:238|308:281,1,160,6|8,0:2|0:0,0:0:0:0:
274,362,38680,1,2,0:0:0:0:
216,285,38887,2,0,B|215:217|276:183,1,120,0|0,0:0|0:0,0:0:0:0:
318,175,39300,2,0,P|336:134|328:91,1,80,10|0,0:0|0:0,0:0:0:0:
257,37,39714,6,0,L|91:69,1,160,2|8,0:2|0:0,0:0:0:0:
41,143,40335,1,2,0:0:0:0:
77,231,40542,2,0,P|142:243|200:214,1,120,0|0,0:0|0:0,0:0:0:0:
222,186,40956,2,0,L|212:268,1,80,10|0,0:0|0:0,0:0:0:0:
302,231,41369,6,0,P|379:221|443:265,1,160,6|8,0:2|0:1,0:0:0:0:
494,347,41990,1,2,0:0:0:0:
397,348,42197,2,0,L|285:327,1,80,0|2,0:0|0:0,0:0:0:0:
228,300,42611,2,0,L|128:315,1,80,10|0,0:0|0:0,0:0:0:0:
62,355,43024,5,10,0:0:0:0:
62,355,43128,1,10,0:0:0:0:
48,260,43335,2,0,P|56:193|43:172,2,80,10|10|10,0:0|0:0|0:0,0:0:0:0:
12,282,43852,2,0,P|-12:194|34:123,1,160,10|2,0:0|3:0,0:0:0:0:
211,103,44680,6,0,P|251:117|291:177,1,80,4|0,1:2|0:0,0:0:0:0:
294,179,44990,1,0,0:0:0:0:
308,217,45093,2,0,L|237:253,1,80,8|0,0:1|0:1,0:0:0:0:
186,336,45507,2,0,P|146:268|166:193,1,160,0|8,1:0|0:1,0:0:0:0:
211,103,46128,1,0,0:0:0:0:
145,32,46335,6,0,L|52:39,2,80,0|0|8,1:0|0:0|0:1,0:0:0:0:
238,10,46956,1,0,0:0:0:0:
305,78,47162,2,0,P|315:156|267:217,1,160,0|8,1:0|0:1,0:0:0:0:
79,188,47990,6,0,P|61:248|78:292,1,80,4|0,1:2|0:0,0:0:0:0:
75,302,48300,1,0,0:0:0:0:
97,336,48404,2,0,L|197:293,1,80,8|0,0:1|0:1,0:0:0:0:
250,357,48818,2,0,L|406:292,1,160,0|8,1:1|0:1,0:0:0:0:
356,208,49438,1,0,0:0:0:0:
428,144,49645,6,0,P|450:176|450:216,1,80,0|0,1:0|0:0,0:0:0:0:
397,295,50059,2,0,P|360:309|321:301,1,80,8|0,0:1|0:0,0:0:0:0:
260,225,50473,1,0,1:0:0:0:
293,135,50680,1,2,0:1:0:0:
260,44,50887,2,0,P|221:35|184:50,1,80,10|2,0:1|0:0,0:0:0:0:
136,133,51300,6,0,B|187:162|187:162|239:148,1,80,4|0,1:2|0:0,0:0:0:0:
246,145,51611,1,0,0:0:0:0:
284,135,51714,2,0,L|368:180,1,80,8|0,0:1|0:0,0:0:0:0:
419,253,52128,2,0,B|363:271|363:271|311:247,1,80,0|0,1:0|0:0,0:0:0:0:
308,242,52438,1,0,2:1:0:0:
271,224,52542,2,0,L|183:253,1,80,8|0,0:1|0:0,0:0:0:0:
107,290,52956,6,0,P|93:252|102:214,2,80,0|0|8,1:0|0:0|0:1,0:0:0:0:
182,348,53576,1,0,0:0:0:0:
273,318,53783,2,0,P|361:313|379:391,1,160,0|8,1:0|0:1,0:0:0:0:
499,219,54611,6,0,B|498:127,1,80,6|0,1:2|0:0,0:0:0:0:
461,123,54921,1,0,0:0:0:0:
426,103,55024,2,0,L|433:18,1,80,8|0,0:1|0:0,0:0:0:0:
340,47,55438,2,0,B|334:141|334:141|410:195,1,160,0|8,1:0|0:1,0:0:0:0:
343,265,56059,1,0,0:0:0:0:
438,259,56266,6,0,L|541:217,2,80,8|8|8,1:0|1:0|1:0,0:0:0:0:
395,345,56887,1,8,1:0:0:0:
343,265,57093,2,0,P|281:252|211:267,1,120,8|0,1:0|0:0,0:0:0:0:
183,283,57507,2,0,L|162:337,2,40,8|8|8,1:0|0:1|0:1,0:0:0:0:
129,202,57921,6,0,P|178:156|236:148,1,120,4|0,1:2|0:0,0:0:0:0:
275,158,58335,2,0,P|316:160|374:143,1,80,8|0,0:1|1:0,0:0:0:0:
421,81,58749,2,0,L|436:-1,2,80,0|0|8,1:0|1:0|0:1,0:0:0:0:
456,171,59369,1,0,1:1:0:0:
502,255,59576,2,0,P|428:232|337:272,1,160,0|8,1:0|0:1,0:0:0:0:
289,330,60197,1,0,1:0:0:0:
194,315,60404,2,0,L|160:206,1,80,0|8,1:0|1:0,0:0:0:0:
78,209,60818,1,8,1:0:0:0:
267,235,61231,6,0,P|311:162|306:84,1,160,0|8,1:0|0:1,0:0:0:0:
244,16,61852,1,0,0:0:0:0:
149,34,62059,2,0,L|74:120,1,80,0|0,1:0|1:0,0:0:0:0:
69,123,62369,1,0,1:0:0:0:
43,155,62473,2,0,L|73:243,1,80,8|0,0:1|1:0,0:0:0:0:
41,331,62887,6,0,P|111:304|208:324,1,160,0|8,1:0|0:1,0:0:0:0:
283,351,63507,1,0,1:0:0:0:
369,309,63714,2,0,P|410:297|464:302,2,80,0|8|12,1:0|1:0|1:0,0:0:0:0:
286,259,64335,1,0,0:0:0:0:
195,225,64542,6,0,P|133:221|51:285,1,160,4|8,1:2|0:1,0:0:0:0:
28,369,65162,1,0,0:0:0:0:
122,349,65369,2,0,L|225:310,1,80,0|0,1:0|1:0,0:0:0:0:
236,330,65680,1,0,1:0:0:0:
274,338,65783,2,0,L|285:258,1,80,8|0,1:0|1:0,0:0:0:0:
227,175,66197,6,0,P|303:157|367:200,1,160,0|8,1:0|0:1,0:0:0:0:
412,285,66818,1,0,1:0:0:0:
471,209,67024,2,0,L|464:105,1,80,0|8,1:0|1:0,0:0:0:0:
454,33,67438,1,8,1:0:0:0:
285,126,67852,6,0,P|228:121|192:61,1,120,8|8,1:0|1:0,0:0:0:0:
45,52,68473,2,0,L|87:83,1,40,0|0,1:0|1:0,0:0:0:0:
112,108,68680,2,0,P|121:155|76:203,1,80,8|8,1:0|1:0,0:0:0:0:
85,225,68990,1,8,1:0:0:0:
85,225,69093,2,0,L|183:203,1,80,8|4,1:3|1:3,0:0:0:0:
256,192,69507,12,8,70335,1:0:0:0:
508,101,71162,6,0,L|328:85,1,160,6|8,0:2|0:0,0:0:0:0:
267,138,71783,1,0,0:0:0:0:
198,70,71990,2,0,P|170:120|201:209,1,120,0|0,0:0|0:0,0:0:0:0:
211,214,72404,2,0,P|227:246|212:308,1,80,8|0,0:0|0:0,0:0:0:0:
145,346,72818,6,0,L|127:251,1,80,0|0,0:0|0:0,0:0:0:0:
34,251,73231,2,0,L|88:171,1,80,8|0,0:0|0:0,0:0:0:0:
20,108,73645,2,0,L|115:90,1,80,0|0,0:0|0:0,0:0:0:0:
189,125,74059,2,0,P|256:139|309:117,1,120,8|0,0:0|0:0,0:0:0:0:
319,76,74473,6,0,L|301:31,2,40,6|0|0,0:2|0:0|0:0,0:0:0:0:
411,104,74887,2,0,L|456:86,2,40,8|0|0,0:0|0:0|0:0,0:0:0:0:
382,195,75300,2,0,L|400:240,2,40,0|0|0,0:0|0:0|0:0,0:0:0:0:
291,168,75714,2,0,L|246:186,2,40,8|0|0,0:0|0:0|0:0,0:0:0:0:
315,75,76128,6,0,P|378:118|380:201,1,160,0|8,0:0|0:0,0:0:0:0:
316,264,76749,1,0,0:0:0:0:
219,265,76956,2,0,P|157:222|151:158,1,120,0|0,0:0|0:0,0:0:0:0:
184,151,77369,2,0,P|176:102|132:66,1,80,8|0,0:0|0:0,0:0:0:0:
60,84,77783,6,0,P|28:158|64:248,1,160,6|8,0:2|0:0,0:0:0:0:
9,319,78404,1,0,0:0:0:0:
105,314,78611,2,0,L|239:276,1,120,0|0,0:0|0:0,0:0:0:0:
246,321,79024,2,0,L|274:246,1,80,8|0,0:0|0:0,0:0:0:0:
233,158,79438,6,0,P|272:150|311:159,1,80,0|0,0:0|0:0,0:0:0:0:
362,76,79852,2,0,P|394:98|416:131,1,80,8|0,0:0|0:0,0:0:0:0:
512,109,80266,2,0,P|519:148|510:187,1,80,0|0,0:0|0:0,0:0:0:0:
450,263,80680,1,8,0:0:0:0:
355,246,80887,1,0,0:0:0:0:
306,163,81093,6,0,L|319:116,2,40,6|0|0,0:2|0:0|0:0,0:0:0:0:
224,216,81507,2,0,L|177:202,2,40,8|0|0,0:0|0:0|0:0,0:0:0:0:
271,298,81921,2,0,L|257:344,2,40,0|0|0,0:0|0:0|0:0,0:0:0:0:
355,247,82335,2,0,L|401:260,2,40,8|0|0,0:0|0:0|0:0,0:0:0:0:
306,163,82749,6,0,P|256:226|276:304,1,160,0|8,0:0|0:0,0:0:0:0:
360,334,83369,1,0,0:0:0:0:
449,298,83576,2,0,L|436:207,1,80,0|0,0:0|0:0,0:0:0:0:
411,177,83887,1,0,0:0:0:0:
411,177,83990,2,0,L|397:80,1,80,8|0,0:0|0:0,0:0:0:0:
306,122,84404,6,0,P|228:134|147:61,1,160,12|8,0:1|0:0,0:0:0:0:
121,5,85024,1,0,0:0:0:0:
38,54,85231,2,0,P|26:109|76:187,1,120,8|0,0:0|0:0,0:0:0:0:
94,184,85645,2,0,P|110:216|95:278,1,80,8|8,0:0|0:3,0:0:0:0:
90,354,86059,6,0,L|195:328,1,80,12|8,0:0|0:0,0:0:0:0:
231,262,86473,1,8,0:0:0:0:
264,352,86680,1,8,0:0:0:0:
327,280,86887,2,0,P|402:247|488:296,2,160,8|8|4,0:0|0:0|0:2,0:0:0:0:
256,192,87869,12,2,89265,0:1:0:0:
30,264,92679,6,0,P|20:210|45:171,1,80,6|0,0:0|0:0,0:0:0:0:
57,148,92989,2,0,P|60:70|16:27,2,120,8|0|8,0:1|1:0|0:1,0:0:0:0:
112,226,93817,1,0,1:0:0:0:
151,198,93921,2,0,P|205:188|258:209,1,80,0|0,1:0|0:0,0:0:0:0:
270,217,94231,2,0,P|345:219|389:186,1,120,8|0,0:1|1:0,0:0:0:0:
460,74,94852,1,8,1:0:0:0:
328,15,95162,6,0,P|305:47|300:86,1,80.0000030517579,0|0,1:0|0:0,0:0:0:0:
316,132,95472,2,0,P|338:202|298:260,2,120.000004577637,8|0|8,0:1|1:0|0:1,0:0:0:0:
239,190,96300,1,0,1:0:0:0:
193,203,96403,2,0,P|152:207|105:180,1,80.0000030517579,0|0,1:0|0:0,0:0:0:0:
110,143,96714,2,0,P|41:122|-11:147,1,120.000004577637,8|0,0:1|1:0,0:0:0:0:
56,270,97334,1,8,1:0:0:0:
162,367,97645,6,0,P|207:375|247:356,1,80,0|0,1:2|0:0,0:0:0:0:
278,337,97955,2,0,P|350:333|403:356,2,120,8|0|8,0:1|1:0|1:0,0:0:0:0:
206,272,98783,1,0,1:0:0:0:
225,228,98886,2,0,L|338:239,1,80,0|0,1:0|0:0,0:0:0:0:
352,229,99196,2,0,P|379:162|338:98,1,120,8|0,0:1|1:0,0:0:0:0:
276,0,99817,1,8,0:1:0:0:
183,110,100128,6,0,L|95:124,1,80,0|0,1:0|0:0,0:0:0:0:
56,111,100438,2,0,P|29:44|70:-20,2,120,8|0|8,0:1|1:0|0:1,0:0:0:0:
106,192,101265,1,0,1:0:0:0:
150,211,101369,2,0,P|168:259|154:320,1,80,0|0,1:0|0:0,0:0:0:0:
151,332,101679,2,0,L|283:312,1,120,8|0,0:1|1:3,0:0:0:0:
408,353,102300,1,8,0:1:0:0:
510,252,102610,6,0,L|407:240,1,80,6|0,1:2|0:0,0:0:0:0:
397,207,102921,2,0,P|388:140|441:82,2,120,10|0|10,0:1|1:0|0:1,0:0:0:0:
484,167,103748,1,0,1:0:0:0:
507,124,103852,2,0,P|498:58|469:26,1,80,0|0,1:0|0:0,0:0:0:0:
460,11,104162,2,0,P|390:21|322:2,1,120.000004577637,10|0,0:1|1:0,0:0:0:0:
199,32,104783,1,10,0:1:0:0:
290,143,105093,6,0,P|341:152|388:133,1,80.0000030517579,0|0,1:0|0:0,0:0:0:0:
397,106,105403,2,0,P|460:86|533:120,2,120,10|0|10,1:0|1:0|1:0,0:0:0:0:
457,181,106231,1,0,1:0:0:0:
499,204,106335,2,0,P|507:242|496:281,1,80,0|0,1:0|0:0,0:0:0:0:
475,324,106645,2,0,P|423:353|364:351,1,120.000004577637,10|0,1:0|1:0,0:0:0:0:
224,314,107266,1,10,1:0:0:0:
133,202,107576,6,0,L|213:210,1,80,6|0,1:2|0:0,0:0:0:0:
255,187,107886,2,0,P|255:127|220:80,2,120,10|0|10,1:0|1:0|1:0,0:0:0:0:
212,273,108714,1,0,1:0:0:0:
168,292,108817,2,0,L|72:284,1,80,0|0,1:0|0:0,0:0:0:0:
39,281,109128,2,0,P|15:201|39:145,1,120,10|0,1:0|1:0,0:0:0:0:
82,36,109748,1,10,1:0:0:0:
220,77,110059,6,0,L|316:53,1,80,0|0,1:0|0:0,0:0:0:0:
347,60,110369,2,0,B|403:76|403:76|491:44,2,120,10|0|10,1:0|1:0|1:0,0:0:0:0:
279,129,111197,1,0,1:0:0:0:
263,174,111300,2,0,L|295:286,1,80,0|0,1:0|0:0,0:0:0:0:
310,292,111610,2,0,B|286:356|286:356|238:388,2,120,10|0|10,1:0|1:0|1:0,0:0:0:0:
428,208,112542,6,0,L|489:197,3,40.000001525879,2|2|2|2,1:3|1:3|1:3|1:3,0:0:0:0:
472,104,113059,2,0,L|542:95,3,40.000001525879,2|2|2|2,1:3|1:3|1:3|1:3,0:0:0:0:
326,43,113783,1,4,2:3:0:0:
326,43,114196,6,0,P|272:85|282:175,1,143.999995605469,0|0,1:0|1:0,0:0:0:0:
323,224,114816,1,0,0:0:0:0:
409,224,115023,2,0,P|423:270|393:345,1,107.999996704102,0|0,1:0|0:0,0:0:0:0:
364,329,115437,2,0,L|263:312,1,71.9999978027344,0|0,1:0|0:0,0:0:0:0:
221,366,115851,6,0,L|204:282,1,71.9999978027344,4|0,1:2|0:0,0:0:0:0:
267,233,116264,2,0,L|272:148,1,71.9999978027344,0|0,1:0|0:0,0:0:0:0:
199,111,116678,2,0,L|180:26,1,71.9999978027344,0|0,1:0|0:0,0:0:0:0:
265,11,117092,2,0,P|320:-7|395:23,1,107.999996704102,0|0,1:0|0:0,0:0:0:0:
402,31,117506,6,0,P|428:89|401:167,1,143.999995605469,4|0,1:2|1:0,0:0:0:0:
335,213,118127,1,0,0:0:0:0:
246,210,118333,2,0,L|124:188,1,107.999996704102,0|0,1:0|0:0,0:0:0:0:
112,224,118747,2,0,L|75:136,1,71.9999978027344,0|0,1:0|0:0,0:0:0:0:
21,97,119161,6,0,P|47:75|108:82,1,71.9999978027344,4|0,1:2|0:0,0:0:0:0:
161,109,119575,2,0,P|196:105|223:83,1,71.9999978027344,0|0,1:0|0:0,0:0:0:0:
286,23,119989,1,0,0:0:0:0:
315,103,120196,1,8,0:2:0:0:
375,41,120402,2,0,P|436:47|480:107,1,107.999996704102,0|0,0:0|0:0,0:0:0:0:
475,120,120816,6,0,P|438:166|334:194,1,143.999995605469,0|0,0:0|0:0,0:0:0:0:
274,185,121437,1,0,0:0:0:0:
199,139,121644,2,0,P|119:141|78:175,1,107.999996704102,0|0,0:0|0:0,0:0:0:0:
62,179,122058,2,0,L|36:259,1,71.9999978027344,0|0,0:0|0:0,0:0:0:0:
74,328,122471,6,0,P|158:347|218:309,1,143.999995605469,4|0,0:2|0:0,0:0:0:0:
251,247,123092,1,0,0:0:0:0:
235,162,123299,2,0,L|187:74,1,71.9999978027344,0|0,0:0|0:0,0:0:0:0:
114,112,123713,2,0,L|125:22,1,71.9999978027344,0|0,0:0|0:0,0:0:0:0:
204,11,124127,6,0,P|282:-11|369:22,1,143.999995605469,4|0,0:2|0:0,0:0:0:0:
413,52,124747,1,0,0:0:0:0:
443,132,124954,2,0,B|455:181|455:181|442:242,1,107.999996704102,0|0,0:0|0:0,0:0:0:0:
417,272,125368,2,0,L|321:275,1,71.9999978027344,0|0,0:0|0:0,0:0:0:0:
295,204,125782,5,8,0:0:0:0:
212,230,125989,1,8,0:0:0:0:
212,317,126196,1,8,0:0:0:0:
295,344,126402,1,8,0:0:0:0:
345,274,126609,2,0,L|314:142,1,107.999996704102,8|0,1:0|0:0,0:0:0:0:
364,158,127023,2,0,L|422:164,2,35.9999989013672,8|8|8,1:0|1:0|1:0,0:0:0:0:
309,90,127437,6,0,P|247:127|251:197,1,120,4|0,1:2|2:0,0:0:0:0:
261,212,127851,2,0,P|263:253|232:311,1,80,8|0,1:0|1:0,0:0:0:0:
153,295,128264,2,0,P|115:289|61:319,2,80,0|0|8,1:0|1:0|1:0,0:0:0:0:
206,375,128885,1,0,1:0:0:0:
301,370,129092,2,0,P|375:347|466:387,1,160,0|8,1:0|1:0,0:0:0:0:
505,294,129713,1,0,1:0:0:0:
484,200,129920,2,0,L|450:91,1,80,0|8,1:0|1:0,0:0:0:0:
419,36,130333,1,8,1:0:0:0:
356,217,130747,6,0,P|281:242|205:223,1,160,0|8,1:0|1:0,0:0:0:0:
150,142,131368,1,0,0:0:0:0:
179,52,131575,2,0,L|288:19,1,80,0|0,1:0|1:0,0:0:0:0:
294,18,131885,1,0,1:0:0:0:
332,7,131989,2,0,P|357:34|359:101,1,80,8|0,1:0|1:0,0:0:0:0:
308,150,132402,6,0,P|281:220|301:317,1,160,0|8,1:0|1:0,0:0:0:0:
350,380,133023,1,0,1:0:0:0:
434,332,133230,2,0,P|475:320|529:325,2,80,0|8|8,1:0|1:0|1:0,0:0:0:0:
373,257,133851,1,4,0:1:0:0:
317,178,134058,6,0,B|323:100|323:100|390:49,1,160,4|8,1:2|1:0,0:0:0:0:
481,26,134678,1,0,0:0:0:0:
482,121,134885,2,0,L|414:175,1,80,0|0,1:0|1:0,0:0:0:0:
373,257,135299,2,0,L|357:344,1,80,8|0,1:0|1:0,0:0:0:0:
267,365,135713,6,0,P|211:375|128:301,1,160,0|8,1:0|1:0,0:0:0:0:
110,222,136333,1,0,1:0:0:0:
140,130,136540,2,0,L|233:91,1,80,0|8,1:0|1:0,0:0:0:0:
303,62,136954,1,8,1:0:0:0:
413,123,137368,6,0,P|408:180|348:216,1,120,8|8,1:0|1:0,0:0:0:0:
339,356,137989,2,0,L|370:314,1,40,0|0,3:0|3:0,0:0:0:0:
395,289,138196,2,0,P|442:280|490:325,1,80,8|8,1:0|1:0,0:0:0:0:
512,316,138506,1,8,1:0:0:0:
512,316,138609,2,0,L|490:218,1,80,0|4,1:0|3:0,0:0:0:0:
256,192,139023,12,8,139851,1:0:0:0:
1,265,140678,6,0,L|181:249,1,160,6|8,1:2|0:0,0:0:0:0:
245,296,141299,1,0,0:0:0:0:
331,253,141506,2,0,P|339:194|311:142,1,120,0|0,0:0|0:0,0:0:0:0:
269,120,141920,2,0,P|264:80|281:44,1,80,8|0,0:0|0:0,0:0:0:0:
371,9,142333,6,0,L|389:104,1,80,0|0,0:0|0:0,0:0:0:0:
482,104,142747,2,0,L|428:184,1,80,8|0,0:0|0:0,0:0:0:0:
496,247,143161,2,0,L|401:265,1,80,0|0,0:0|0:0,0:0:0:0:
325,233,143575,2,0,B|265:220|265:220|209:239,1,120,8|0,0:0|0:0,0:0:0:0:
181,278,143989,6,0,L|199:323,2,40,6|0|0,1:2|0:0|0:0,0:0:0:0:
89,250,144402,2,0,L|44:268,2,40,8|0|0,0:0|0:0|0:0,0:0:0:0:
113,156,144816,2,0,L|95:111,2,40,0|0|0,0:0|0:0|0:0,0:0:0:0:
205,184,145230,2,0,L|250:166,2,40,8|0|0,0:0|0:0|0:0,0:0:0:0:
181,278,145644,6,0,P|118:235|116:152,1,160,0|8,0:0|0:0,0:0:0:0:
187,92,146264,1,0,0:0:0:0:
280,68,146471,2,0,L|430:97,1,120,0|0,0:0|0:0,0:0:0:0:
438,64,146885,2,0,L|468:159,1,80,8|0,0:0|0:0,0:0:0:0:
506,226,147299,6,0,P|429:237|371:186,1,160,6|8,0:2|0:0,0:0:0:0:
322,103,147920,1,0,0:0:0:0:
225,101,148127,2,0,L|167:166,1,80,0|0,0:0|0:0,0:0:0:0:
78,135,148540,2,0,L|70:221,1,80,8|0,0:0|0:0,0:0:0:0:
102,305,148954,6,0,P|141:301|176:282,1,80,0|0,0:0|0:0,0:0:0:0:
256,339,149368,2,0,P|280:309|292:271,1,80,8|0,0:0|0:0,0:0:0:0:
389,275,149782,2,0,P|384:235|365:200,1,80,0|0,0:0|0:0,0:0:0:0:
270,180,150196,1,8,0:0:0:0:
257,85,150402,1,0,0:0:0:0:
341,39,150609,6,0,L|328:-8,2,40,4|0|0,0:2|0:0|0:0,0:0:0:0:
422,90,151023,2,0,L|469:76,2,40,8|0|0,0:0|0:0|0:0,0:0:0:0:
375,174,151437,2,0,L|389:220,2,40,0|0|0,0:0|0:0|0:0,0:0:0:0:
292,123,151851,2,0,L|246:136,2,40,8|0|0,0:0|0:0|0:0,0:0:0:0:
340,38,152264,6,0,P|390:101|370:179,1,160,4|8,0:2|0:0,0:0:0:0:
294,227,152885,1,0,0:0:0:0:
197,224,153092,2,0,L|142:159,1,80,8|8,0:0|0:0,0:0:0:0:
52,190,153506,2,0,L|60:90,1,80,8|8,0:0|0:0,0:0:0:0:
145,69,153920,6,0,B|200:50|200:50|243:61|243:61|328:30,1,160,6|8,0:2|0:0,0:0:0:0:
296,137,154540,1,0,0:0:0:0:
200,143,154747,2,0,P|171:194|180:253,1,120,0|0,0:0|0:0,0:0:0:0:
161,297,155161,2,0,L|242:264,1,80,8|0,0:0|0:0,0:0:0:0:
315,214,155575,6,0,P|333:248|329:287,1,80,0|0,0:0|0:0,0:0:0:0:
401,352,155989,2,0,P|418:320|482:303,1,80,8|0,0:0|0:0,0:0:0:0:
478,208,156402,2,0,P|442:208|395:161,1,80,0|0,0:0|0:0,0:0:0:0:
315,214,156816,2,0,P|257:198|197:222,1,120,8|0,0:0|0:0,0:0:0:0:
157,199,157230,6,0,L|170:152,2,40,4|0|0,0:2|0:0|0:0,0:0:0:0:
76,250,157644,2,0,L|29:236,2,40,8|0|0,0:0|0:0|0:0,0:0:0:0:
123,334,158058,2,0,L|109:380,2,40,0|0|0,0:0|0:0|0:0,0:0:0:0:
206,283,158471,2,0,L|252:296,2,40,8|0|0,0:0|0:0|0:0,0:0:0:0:
157,199,158885,6,0,P|107:262|127:340,1,160,0|8,0:0|0:0,0:0:0:0:
208,378,159506,1,0,0:0:0:0:
302,363,159713,2,0,P|347:339|402:337,1,80,0|8,1:0|0:0,0:0:0:0:
422,345,160023,1,0,0:0:0:0:
422,345,160127,2,0,P|439:302|430:238,1,80,8|0,0:0|0:0,0:0:0:0:
499,193,160540,6,0,P|435:167|356:218,1,160,4|8,0:2|0:0,0:0:0:0:
317,295,161161,1,0,0:0:0:0:
221,308,161368,2,0,P|192:271|185:225,1,80,0|0,0:0|0:0,0:0:0:0:
216,148,161782,2,0,P|211:101|185:62,1,80,8|0,0:0|0:0,0:0:0:0:
105,40,162196,6,0,L|0:80,1,80,0|0,0:0|0:0,0:0:0:0:
30,164,162609,2,0,L|104:135,1,80,8|0,0:0|0:0,0:0:0:0:
114,231,163023,2,0,L|39:259,1,80,0|0,0:0|0:0,0:0:0:0:
109,325,163437,1,8,0:0:0:0:
199,293,163644,1,0,0:0:0:0:
220,198,163851,6,0,L|193:157,2,40,4|0|0,0:2|0:0|0:0,0:0:0:0:
313,221,164264,2,0,L|353:193,2,40,8|0|0,0:0|0:0|0:0,0:0:0:0:
294,316,164678,2,0,L|321:355,2,40,0|0|0,0:0|0:0|0:0,0:0:0:0:
199,293,165092,2,0,L|159:319,2,40,8|0|0,0:0|0:0|0:0,0:0:0:0:
220,198,165506,6,0,P|287:242|292:322,1,160,0|8,0:0|0:0,0:0:0:0:
374,369,166127,1,0,0:0:0:0:
461,330,166333,2,0,L|482:233,1,80,0|0,0:0|0:0,0:0:0:0:
439,222,166644,1,0,0:0:0:0:
439,222,166747,2,0,L|422:122,1,80,8|0,0:0|0:0,0:0:0:0:
475,60,167161,6,0,L|371:52,1,80,12|0,0:0|0:0,0:0:0:0:
356,82,167471,1,0,0:0:0:0:
356,82,167575,2,0,L|262:95,1,80,8|0,0:0|0:0,0:0:0:0:
251,185,167989,2,0,L|147:177,1,80,8|0,0:0|0:0,0:0:0:0:
132,207,168299,1,0,0:0:0:0:
132,207,168402,2,0,L|38:220,2,80,8|0|12,0:0|0:0|0:0,0:0:0:0:
185,286,169023,6,0,L|301:268,1,80,8|8,0:0|0:0,0:0:0:0:
359,258,169437,1,8,0:0:0:0:
434,317,169644,2,0,P|454:222|388:159,1,160,8|8,0:0|0:0,0:0:0:0:
324,168,170264,1,8,0:0:0:0:
359,258,170471,1,6,0:2:0:0:
256,192,170678,12,10,172127,0:0:0:0:
26,165,172954,5,10,0:0:0:0:
158,115,173264,1,8,0:1:0:0:
158,115,173368,2,0,P|200:123|241:101,1,80,8|8,0:1|0:0,0:0:0:0:
299,25,173782,6,0,P|349:9|420:24,1,88.000002685547,6|0,0:2|0:0,0:0:0:0:
458,86,174196,2,0,P|465:129|441:205,1,88.000002685547,8|0,0:0|0:0,0:0:0:0:
350,161,174609,2,0,P|329:218|347:311,1,132.00000402832,0|0,0:0|0:0,0:0:0:0:
373,325,175023,2,0,P|411:311|453:260,1,88.000002685547,8|0,0:0|0:0,0:0:0:0:
455,173,175437,6,0,L|407:76,1,88.000002685547,0|0,0:0|0:0,0:0:0:0:
305,68,175851,2,0,P|267:82|235:145,1,88.000002685547,8|0,0:0|0:0,0:0:0:0:
160,190,176264,2,0,P|116:209|62:194,2,88.000002685547,0|8|8,0:0|0:0|0:0,0:0:0:0:
371,180,177092,6,0,P|399:231|377:288,1,88.000002685547,4|0,0:2|0:0,0:0:0:0:
348,354,177506,2,0,L|212:325,1,132.00000402832,8|0,0:0|0:0,0:0:0:0:
171,351,177920,2,0,P|159:310|166:267,1,88.000002685547,0|0,0:0|0:0,0:0:0:0:
73,215,178333,2,0,P|102:183|143:167,1,88.000002685547,8|0,0:0|0:0,0:0:0:0:
195,179,178644,1,0,0:0:0:0:
195,179,178747,6,0,P|253:189|320:167,1,88.000002685547,0|0,0:0|0:0,0:0:0:0:
347,101,179161,2,0,P|433:122|464:193,1,132.00000402832,8|0,0:0|0:0,0:0:0:0:
477,202,179575,2,0,P|483:241|472:318,1,88.000002685547,0|8,0:0|0:0,0:0:0:0:
383,333,179989,2,0,L|372:375,2,44.0000013427735,8|8|8,0:0|0:0|0:0,0:0:0:0:
325,244,180402,6,0,P|280:258|218:236,1,88.000002685547,6|0,0:2|0:0,0:0:0:0:
213,353,180816,2,0,P|171:331|142:271,1,88.000002685547,8|0,0:0|0:0,0:0:0:0:
62,359,181230,1,0,0:0:0:0:
35,256,181437,2,0,L|46:140,1,88.000002685547,0|8,0:0|0:0,0:0:0:0:
7,68,181851,1,0,0:0:0:0:
107,98,182058,6,0,P|167:112|229:65,1,132.00000402832,0|0,0:0|0:0,0:0:0:0:
259,37,182471,2,0,P|309:22|371:42,1,88.000002685547,8|0,0:0|0:0,0:0:0:0:
401,116,182885,2,0,L|517:98,2,88.000002685547,0|8|8,0:0|0:0|0:0,0:0:0:0:
401,222,183506,1,4,0:3:0:0:
306,175,183713,6,0,P|256:155|179:192,1,132.00000402832,4|0,0:2|0:0,0:0:0:0:
140,208,184127,2,0,L|163:114,1,88.000002685547,8|0,0:0|0:0,0:0:0:0:
60,157,184540,2,0,L|34:251,1,88.000002685547,0|0,0:0|0:0,0:0:0:0:
106,322,184954,2,0,L|255:301,1,132.00000402832,8|0,0:0|0:0,0:0:0:0:
280,332,185368,6,0,P|255:268|282:208,1,132.00000402832,0|0,0:0|0:0,0:0:0:0:
330,221,185782,1,8,0:0:0:0:
330,221,185885,2,0,P|344:165|326:107,1,88.000002685547,0|0,0:0|0:0,0:0:0:0:
305,95,186196,2,0,L|217:108,1,88.000002685547,12|8,0:0|0:0,0:0:0:0:
198,158,186506,1,8,0:0:0:0:
198,158,186609,2,0,L|92:149,1,88.000002685547,8|8,0:0|0:0,0:0:0:0:
49,75,187023,6,0,P|11:142|39:217,1,160,6|8,0:2|0:0,0:0:0:0:
131,239,187644,1,2,0:0:0:0:
222,206,187851,2,0,P|284:194|343:225,1,120,0|0,0:0|0:0,0:0:0:0:
377,235,188264,2,0,L|361:339,1,80,10|0,0:0|0:0,0:0:0:0:
269,323,188678,6,0,L|81:351,1,160,2|8,0:2|0:0,0:0:0:0:
24,303,189299,1,2,0:0:0:0:
11,207,189506,2,0,P|23:143|66:103,1,120,0|0,0:0|0:0,0:0:0:0:
55,57,189920,2,0,L|154:84,1,80,10|0,0:0|0:0,0:0:0:0:
193,152,190333,6,0,P|258:176|365:118,1,160,6|8,0:2|0:0,0:0:0:0:
407,77,190954,1,2,0:0:0:0:
479,139,191161,2,0,P|496:206|470:270,1,120,0|0,0:0|0:0,0:0:0:0:
443,282,191575,2,0,L|357:248,1,80,10|0,0:0|0:0,0:0:0:0:
338,344,191989,6,0,P|290:351|256:337,1,80,2|0,0:2|0:0,0:0:0:0:
220,316,192299,1,2,0:0:0:0:
220,316,192402,2,0,P|171:309|132:319,1,80,8|2,0:0|0:0,0:0:0:0:
46,299,192816,2,0,P|63:253|92:231,1,80,0|0,0:0|0:0,0:0:0:0:
129,211,193127,1,2,0:0:0:0:
129,211,193230,2,0,P|159:172|169:133,1,80,10|2,0:0|0:0,0:0:0:0:
262,119,193644,6,0,P|256:209|307:271,1,160,6|8,0:2|0:0,0:0:0:0:
386,293,194264,1,2,0:0:0:0:
478,266,194471,2,0,P|500:222|486:136,1,120,0|0,0:0|0:0,0:0:0:0:
471,110,194885,2,0,L|387:85,1,80,10|0,0:0|0:0,0:0:0:0:
358,176,195299,6,0,P|289:193|215:126,1,160,2|8,0:2|0:0,0:0:0:0:
230,47,195920,1,2,0:0:0:0:
146,0,196127,2,0,P|81:-12|23:17,1,120,0|0,0:0|0:0,0:0:0:0:
4,47,196540,2,0,L|21:141,1,80,10|0,0:0|0:0,0:0:0:0:
114,127,196954,6,0,P|156:191|145:268,1,160,6|8,0:2|0:0,0:0:0:0:
67,327,197575,1,2,0:0:0:0:
158,356,197782,2,0,L|295:317,1,120,0|0,0:0|0:0,0:0:0:0:
321,321,198196,2,0,L|405:346,1,80,10|0,0:0|0:0,0:0:0:0:
485,302,198609,5,10,0:0:0:0:
485,302,198713,1,10,0:0:0:0:
462,208,198920,2,0,L|486:116,2,80,10|10|10,0:0|0:0|0:0,0:0:0:0:
422,236,199437,2,0,L|425:162,2,40,10|10|10,0:0|0:0|0:0,0:0:0:0:
366,314,199851,2,0,L|364:353,2,40,8|8|4,0:3|0:3|0:3,0:0:0:0:
316,231,200264,5,10,0:0:0:0:
316,231,200368,1,10,0:0:0:0:
228,269,200575,2,0,P|184:283|146:274,1,80,10|10,0:0|0:0,0:0:0:0:
74,218,200989,1,10,0:0:0:0:
74,218,201092,1,10,0:0:0:0:
