osu file format v14

[General]
AudioFilename: audio.mp3
AudioLeadIn: 0
PreviewTime: 4297
Countdown: 0
SampleSet: Normal
StackLeniency: 0.7
Mode: 3
LetterboxInBreaks: 0
SpecialStyle: 0
WidescreenStoryboard: 1

[Editor]
DistanceSpacing: 1.2
BeatDivisor: 4
GridSize: 8
TimelineZoom: 2.799999

[Metadata]
Title:Nadeshiko color Heart
TitleUnicode:撫子色ハート
Artist:YURRY CANON
ArtistUnicode:ユリイ・カノン
Creator:ExNeko
Version:Insane
Source:
Tags:
BeatmapID:2141021
BeatmapSetID:1023478

[Difficulty]
HPDrainRate:8
CircleSize:4
OverallDifficulty:7
ApproachRate:5
SliderMultiplier:1.4
SliderTickRate:1

[Events]
//Background and Video events
0,0,"20190806170120.jpg",0,0
//Break Periods
//Storyboard Layer 0 (Background)
//Storyboard Layer 1 (Fail)
//Storyboard Layer 2 (Pass)
//Storyboard Layer 3 (Foreground)
//Storyboard Layer 4 (Overlay)
//Storyboard Sound Samples

[TimingPoints]
160,413.793103448276,4,1,1,0,1,0
4297,413.793103448276,4,1,1,0,1,0
87055,310.345362664418,4,1,1,0,1,0
87055,-133.333333333333,4,1,1,0,0,0
113124,413.793103448276,4,1,1,0,1,0
113537,413.793103448276,4,1,1,0,1,0

[HitObjects]
448,192,160,5,0,0:0:0:0:
320,192,263,1,0,0:0:0:0:
448,192,366,1,0,0:0:0:0:
320,192,470,1,0,0:0:0:0:
448,192,573,1,0,0:0:0:0:
320,192,677,1,0,0:0:0:0:
448,192,780,1,0,0:0:0:0:
320,192,884,1,0,0:0:0:0:
448,192,987,1,0,0:0:0:0:
320,192,1091,1,0,0:0:0:0:
192,192,1194,1,0,0:0:0:0:
64,192,1297,1,0,0:0:0:0:
192,192,1401,1,0,0:0:0:0:
448,192,1504,1,0,0:0:0:0:
320,192,1608,1,0,0:0:0:0:
64,192,1711,1,0,0:0:0:0:
320,192,1815,1,0,0:0:0:0:
192,192,1918,1,0,0:0:0:0:
448,192,2022,1,0,0:0:0:0:
64,192,2125,1,0,0:0:0:0:
192,192,2228,1,0,0:0:0:0:
320,192,2332,1,0,0:0:0:0:
192,192,2435,1,0,0:0:0:0:
64,192,2539,1,0,0:0:0:0:
320,192,2642,1,0,0:0:0:0:
448,192,2642,1,0,0:0:0:0:
192,192,2849,1,0,0:0:0:0:
320,192,2849,1,0,0:0:0:0:
192,192,3056,1,0,0:0:0:0:
64,192,3056,1,0,0:0:0:0:
192,192,3263,1,0,0:0:0:0:
320,192,3263,1,0,0:0:0:0:
320,192,3470,1,0,0:0:0:0:
448,192,3470,1,0,0:0:0:0:
448,192,3780,1,0,0:0:0:0:
64,192,3780,1,0,0:0:0:0:
448,192,3884,1,0,0:0:0:0:
64,192,3884,1,0,0:0:0:0:
448,192,4091,1,0,0:0:0:0:
64,192,4091,1,0,0:0:0:0:
64,192,4297,128,0,4503:0:0:0:0:
320,192,4297,1,0,0:0:0:0:
192,192,4297,1,0,0:0:0:0:
320,192,4503,1,0,0:0:0:0:
448,192,4503,1,0,0:0:0:0:
192,192,4607,1,0,0:0:0:0:
64,192,4710,1,0,0:0:0:0:
448,192,4710,128,0,5021:0:0:0:0:
320,192,4710,1,0,0:0:0:0:
64,192,4917,128,0,5124:0:0:0:0:
192,192,4917,1,0,0:0:0:0:
448,192,5124,1,0,0:0:0:0:
320,192,5124,128,0,5331:0:0:0:0:
64,192,5331,1,0,0:0:0:0:
192,192,5331,1,0,0:0:0:0:
320,192,5434,1,0,0:0:0:0:
448,192,5538,1,0,0:0:0:0:
64,192,5538,1,0,0:0:0:0:
192,192,5538,128,0,5848:0:0:0:0:
320,192,5745,1,0,0:0:0:0:
448,192,5745,128,0,5952:0:0:0:0:
192,192,5952,1,0,0:0:0:0:
64,192,5952,128,0,6159:0:0:0:0:
192,192,6159,1,0,0:0:0:0:
448,192,6159,1,0,0:0:0:0:
320,192,6262,1,0,0:0:0:0:
192,192,6365,1,0,0:0:0:0:
64,192,6365,1,0,0:0:0:0:
448,192,6365,128,0,6676:0:0:0:0:
192,192,6572,128,0,6779:0:0:0:0:
320,192,6572,1,0,0:0:0:0:
448,192,6779,1,0,0:0:0:0:
64,192,6779,128,0,6986:0:0:0:0:
320,192,6986,1,0,0:0:0:0:
448,192,6986,1,0,0:0:0:0:
64,192,7090,1,0,0:0:0:0:
192,192,7193,1,0,0:0:0:0:
448,192,7193,1,0,0:0:0:0:
320,192,7193,128,0,7503:0:0:0:0:
64,192,7400,128,0,7607:0:0:0:0:
192,192,7400,1,0,0:0:0:0:
320,192,7607,1,0,0:0:0:0:
448,192,7607,128,0,7814:0:0:0:0:
64,192,7814,1,0,0:0:0:0:
192,192,7814,1,0,0:0:0:0:
320,192,7917,1,0,0:0:0:0:
192,192,8021,1,0,0:0:0:0:
64,192,8021,1,0,0:0:0:0:
448,192,8021,128,0,8331:0:0:0:0:
64,192,8228,128,0,8434:0:0:0:0:
320,192,8228,1,0,0:0:0:0:
448,192,8434,1,0,0:0:0:0:
192,192,8434,128,0,8641:0:0:0:0:
320,192,8641,1,0,0:0:0:0:
448,192,8641,1,0,0:0:0:0:
192,192,8745,1,0,0:0:0:0:
64,192,8848,1,0,0:0:0:0:
448,192,8848,1,0,0:0:0:0:
320,192,8848,128,0,9159:0:0:0:0:
192,192,9055,128,0,9262:0:0:0:0:
64,192,9055,1,0,0:0:0:0:
320,192,9262,1,0,0:0:0:0:
448,192,9262,128,0,9469:0:0:0:0:
64,192,9469,1,0,0:0:0:0:
192,192,9469,1,0,0:0:0:0:
448,192,9572,1,0,0:0:0:0:
192,192,9676,1,0,0:0:0:0:
320,192,9676,1,0,0:0:0:0:
64,192,9676,128,0,9986:0:0:0:0:
448,192,9883,128,0,10090:0:0:0:0:
320,192,9883,1,0,0:0:0:0:
64,192,10090,1,0,0:0:0:0:
192,192,10090,128,0,10297:0:0:0:0:
320,192,10297,1,0,0:0:0:0:
448,192,10297,1,0,0:0:0:0:
192,192,10400,1,0,0:0:0:0:
64,192,10503,1,0,0:0:0:0:
448,192,10503,128,0,10814:0:0:0:0:
320,192,10503,1,0,0:0:0:0:
192,192,10710,128,0,10814:0:0:0:0:
64,192,10710,128,0,10814:0:0:0:0:
192,192,10917,1,0,0:0:0:0:
64,192,10917,128,0,11228:0:0:0:0:
448,192,10917,128,0,11124:0:0:0:0:
320,192,11124,128,0,11228:0:0:0:0:
192,192,11228,128,0,11331:0:0:0:0:
64,192,11331,128,0,11641:0:0:0:0:
320,192,11331,1,0,0:0:0:0:
448,192,11331,128,0,11538:0:0:0:0:
192,192,11538,128,0,11745:0:0:0:0:
64,192,11745,128,0,12055:0:0:0:0:
320,192,11745,128,0,11952:0:0:0:0:
448,192,11952,128,0,12055:0:0:0:0:
192,192,12055,128,0,12159:0:0:0:0:
64,192,12159,128,0,12469:0:0:0:0:
448,192,12159,1,0,0:0:0:0:
320,192,12159,128,0,12365:0:0:0:0:
192,192,12365,128,0,12572:0:0:0:0:
448,192,12572,128,0,12883:0:0:0:0:
64,192,12572,128,0,12779:0:0:0:0:
320,192,12779,128,0,12883:0:0:0:0:
192,192,12883,128,0,12986:0:0:0:0:
448,192,12986,128,0,13297:0:0:0:0:
64,192,12986,128,0,13193:0:0:0:0:
320,192,12986,1,0,0:0:0:0:
320,192,13193,128,0,13400:0:0:0:0:
448,192,13400,128,0,13710:0:0:0:0:
192,192,13400,128,0,13607:0:0:0:0:
64,192,13607,128,0,13710:0:0:0:0:
320,192,13710,128,0,13814:0:0:0:0:
448,192,13814,128,0,14124:0:0:0:0:
64,192,13814,1,0,0:0:0:0:
192,192,13814,128,0,14021:0:0:0:0:
64,192,14021,128,0,14228:0:0:0:0:
320,192,14228,128,0,14538:0:0:0:0:
448,192,14228,128,0,14434:0:0:0:0:
64,192,14434,128,0,14538:0:0:0:0:
192,192,14538,128,0,14641:0:0:0:0:
320,192,14641,128,0,14952:0:0:0:0:
448,192,14641,128,0,14848:0:0:0:0:
64,192,14641,1,0,0:0:0:0:
64,192,14848,128,0,15055:0:0:0:0:
320,192,15055,128,0,15365:0:0:0:0:
192,192,15055,128,0,15262:0:0:0:0:
64,192,15262,128,0,15365:0:0:0:0:
448,192,15365,128,0,15469:0:0:0:0:
320,192,15469,128,0,15779:0:0:0:0:
192,192,15469,128,0,15676:0:0:0:0:
64,192,15676,128,0,15883:0:0:0:0:
320,192,15883,1,0,0:0:0:0:
448,192,15883,1,0,0:0:0:0:
192,192,15883,1,0,0:0:0:0:
192,192,15986,1,0,0:0:0:0:
320,192,15986,1,0,0:0:0:0:
448,192,15986,1,0,0:0:0:0:
64,192,16193,1,0,0:0:0:0:
192,192,16193,1,0,0:0:0:0:
320,192,16193,1,0,0:0:0:0:
192,192,16400,1,0,0:0:0:0:
320,192,16400,1,0,0:0:0:0:
448,192,16400,1,0,0:0:0:0:
320,192,16607,1,0,0:0:0:0:
192,192,16607,1,0,0:0:0:0:
64,192,16607,1,0,0:0:0:0:
64,192,16710,1,0,0:0:0:0:
192,192,16710,1,0,0:0:0:0:
320,192,16710,1,0,0:0:0:0:
320,192,17124,1,0,0:0:0:0:
448,192,17124,128,0,17434:0:0:0:0:
448,192,17538,1,0,0:0:0:0:
64,192,17538,1,0,0:0:0:0:
320,192,17641,1,0,0:0:0:0:
192,192,17745,1,0,0:0:0:0:
320,192,17848,1,0,0:0:0:0:
448,192,17952,1,0,0:0:0:0:
192,192,17952,1,0,0:0:0:0:
64,192,17952,1,0,0:0:0:0:
320,192,18055,1,0,0:0:0:0:
192,192,18159,1,0,0:0:0:0:
320,192,18262,1,0,0:0:0:0:
448,192,18365,1,0,0:0:0:0:
64,192,18365,128,0,18572:0:0:0:0:
320,192,18572,1,0,0:0:0:0:
192,192,18676,1,0,0:0:0:0:
320,192,18779,1,0,0:0:0:0:
448,192,18779,1,0,0:0:0:0:
64,192,18779,1,0,0:0:0:0:
64,192,18986,128,0,19090:0:0:0:0:
448,192,19193,128,0,19503:0:0:0:0:
320,192,19193,1,0,0:0:0:0:
192,192,19400,128,0,19607:0:0:0:0:
64,192,19607,128,0,19917:0:0:0:0:
320,192,19607,1,0,0:0:0:0:
448,192,19607,1,0,0:0:0:0:
320,192,19814,128,0,20021:0:0:0:0:
192,192,20021,1,0,0:0:0:0:
64,192,20021,1,0,0:0:0:0:
320,192,20228,1,0,0:0:0:0:
320,192,20434,1,0,0:0:0:0:
448,192,20434,1,0,0:0:0:0:
64,192,20434,128,0,20745:0:0:0:0:
64,192,20848,1,0,0:0:0:0:
448,192,20848,1,0,0:0:0:0:
192,192,20952,1,0,0:0:0:0:
320,192,21055,1,0,0:0:0:0:
192,192,21159,1,0,0:0:0:0:
64,192,21262,1,0,0:0:0:0:
320,192,21262,1,0,0:0:0:0:
448,192,21262,1,0,0:0:0:0:
192,192,21365,1,0,0:0:0:0:
320,192,21469,1,0,0:0:0:0:
192,192,21572,1,0,0:0:0:0:
64,192,21676,1,0,0:0:0:0:
448,192,21676,128,0,21883:0:0:0:0:
320,192,21883,1,0,0:0:0:0:
192,192,21986,1,0,0:0:0:0:
64,192,22090,1,0,0:0:0:0:
320,192,22090,1,0,0:0:0:0:
448,192,22090,1,0,0:0:0:0:
448,192,22297,128,0,22400:0:0:0:0:
64,192,22503,128,0,22814:0:0:0:0:
320,192,22710,128,0,22814:0:0:0:0:
320,192,22917,1,0,0:0:0:0:
64,192,22917,1,0,0:0:0:0:
448,192,22917,128,0,23228:0:0:0:0:
192,192,23124,128,0,23228:0:0:0:0:
192,192,23331,1,0,0:0:0:0:
448,192,23331,1,0,0:0:0:0:
320,192,23538,1,0,0:0:0:0:
64,192,23538,1,0,0:0:0:0:
64,192,23745,1,0,0:0:0:0:
320,192,23745,1,0,0:0:0:0:
448,192,23745,128,0,24055:0:0:0:0:
192,192,24159,1,0,0:0:0:0:
448,192,24159,1,0,0:0:0:0:
192,192,24365,1,0,0:0:0:0:
448,192,24469,1,0,0:0:0:0:
320,192,24572,1,0,0:0:0:0:
192,192,24572,1,0,0:0:0:0:
64,192,24572,1,0,0:0:0:0:
320,192,24779,1,0,0:0:0:0:
64,192,24883,1,0,0:0:0:0:
448,192,24986,1,0,0:0:0:0:
320,192,24986,1,0,0:0:0:0:
64,192,25193,1,0,0:0:0:0:
192,192,25297,1,0,0:0:0:0:
448,192,25400,1,0,0:0:0:0:
64,192,25400,1,0,0:0:0:0:
320,192,25400,1,0,0:0:0:0:
448,192,25607,128,0,25814:0:0:0:0:
64,192,25814,1,0,0:0:0:0:
192,192,25814,128,0,26021:0:0:0:0:
320,192,26021,128,0,26228:0:0:0:0:
192,192,26228,128,0,26434:0:0:0:0:
448,192,26228,1,0,0:0:0:0:
64,192,26228,1,0,0:0:0:0:
320,192,26434,128,0,26641:0:0:0:0:
192,192,26641,1,0,0:0:0:0:
64,192,26641,1,0,0:0:0:0:
448,192,26848,1,0,0:0:0:0:
320,192,27055,1,0,0:0:0:0:
64,192,27055,1,0,0:0:0:0:
448,192,27055,128,0,27365:0:0:0:0:
448,192,27469,1,0,0:0:0:0:
192,192,27469,1,0,0:0:0:0:
64,192,27469,1,0,0:0:0:0:
320,192,27572,1,0,0:0:0:0:
192,192,27676,1,0,0:0:0:0:
320,192,27779,1,0,0:0:0:0:
448,192,27883,1,0,0:0:0:0:
192,192,27883,1,0,0:0:0:0:
64,192,27883,1,0,0:0:0:0:
320,192,27986,1,0,0:0:0:0:
192,192,28090,1,0,0:0:0:0:
320,192,28193,1,0,0:0:0:0:
448,192,28297,1,0,0:0:0:0:
64,192,28297,128,0,28503:0:0:0:0:
320,192,28503,1,0,0:0:0:0:
64,192,28607,1,0,0:0:0:0:
448,192,28710,128,0,29021:0:0:0:0:
320,192,28710,1,0,0:0:0:0:
192,192,28710,1,0,0:0:0:0:
64,192,28917,128,0,29021:0:0:0:0:
64,192,29124,1,0,0:0:0:0:
320,192,29124,1,0,0:0:0:0:
448,192,29124,1,0,0:0:0:0:
192,192,29331,1,0,0:0:0:0:
64,192,29331,1,0,0:0:0:0:
448,192,29331,1,0,0:0:0:0:
320,192,29538,1,0,0:0:0:0:
192,192,29538,1,0,0:0:0:0:
64,192,29538,1,0,0:0:0:0:
64,192,29745,1,0,0:0:0:0:
192,192,29745,1,0,0:0:0:0:
448,192,29745,1,0,0:0:0:0:
448,192,29952,1,0,0:0:0:0:
320,192,29952,1,0,0:0:0:0:
64,192,29952,128,0,30676:0:0:0:0:
320,192,30159,1,0,0:0:0:0:
448,192,30159,1,0,0:0:0:0:
320,192,30365,1,0,0:0:0:0:
448,192,30365,128,0,30676:0:0:0:0:
320,192,30779,128,0,30986:0:0:0:0:
64,192,30779,1,0,0:0:0:0:
448,192,30779,1,0,0:0:0:0:
64,192,30986,1,0,0:0:0:0:
192,192,30986,1,0,0:0:0:0:
448,192,31090,1,0,0:0:0:0:
320,192,31193,1,0,0:0:0:0:
192,192,31193,128,0,31503:0:0:0:0:
64,192,31193,1,0,0:0:0:0:
320,192,31400,128,0,31607:0:0:0:0:
448,192,31400,1,0,0:0:0:0:
192,192,31607,1,0,0:0:0:0:
64,192,31607,128,0,31814:0:0:0:0:
320,192,31814,1,0,0:0:0:0:
448,192,31814,1,0,0:0:0:0:
64,192,31917,1,0,0:0:0:0:
192,192,32021,1,0,0:0:0:0:
320,192,32021,1,0,0:0:0:0:
448,192,32021,128,0,32331:0:0:0:0:
64,192,32228,1,0,0:0:0:0:
192,192,32228,128,0,32434:0:0:0:0:
448,192,32434,1,0,0:0:0:0:
320,192,32434,128,0,32641:0:0:0:0:
64,192,32641,1,0,0:0:0:0:
192,192,32641,1,0,0:0:0:0:
320,192,32745,1,0,0:0:0:0:
448,192,32848,1,0,0:0:0:0:
64,192,32848,1,0,0:0:0:0:
192,192,32848,128,0,33159:0:0:0:0:
448,192,33055,128,0,33262:0:0:0:0:
320,192,33055,1,0,0:0:0:0:
192,192,33262,1,0,0:0:0:0:
320,192,33262,128,0,33469:0:0:0:0:
64,192,33469,1,0,0:0:0:0:
192,192,33469,1,0,0:0:0:0:
320,192,33572,1,0,0:0:0:0:
448,192,33676,1,0,0:0:0:0:
192,192,33676,1,0,0:0:0:0:
64,192,33676,128,0,33986:0:0:0:0:
320,192,33883,128,0,34090:0:0:0:0:
448,192,33883,1,0,0:0:0:0:
64,192,34090,1,0,0:0:0:0:
192,192,34090,128,0,34297:0:0:0:0:
320,192,34297,1,0,0:0:0:0:
448,192,34297,1,0,0:0:0:0:
64,192,34400,1,0,0:0:0:0:
448,192,34503,1,0,0:0:0:0:
320,192,34503,1,0,0:0:0:0:
192,192,34503,128,0,34814:0:0:0:0:
320,192,34710,128,0,34917:0:0:0:0:
64,192,34710,1,0,0:0:0:0:
192,192,34917,1,0,0:0:0:0:
448,192,34917,128,0,35124:0:0:0:0:
64,192,35124,1,0,0:0:0:0:
192,192,35124,1,0,0:0:0:0:
448,192,35228,1,0,0:0:0:0:
320,192,35331,1,0,0:0:0:0:
192,192,35331,1,0,0:0:0:0:
64,192,35331,128,0,35641:0:0:0:0:
448,192,35538,128,0,35745:0:0:0:0:
320,192,35538,1,0,0:0:0:0:
64,192,35745,1,0,0:0:0:0:
192,192,35745,128,0,35952:0:0:0:0:
320,192,35952,1,0,0:0:0:0:
448,192,35952,1,0,0:0:0:0:
192,192,36055,1,0,0:0:0:0:
448,192,36159,1,0,0:0:0:0:
64,192,36159,1,0,0:0:0:0:
320,192,36159,128,0,36469:0:0:0:0:
192,192,36365,128,0,36572:0:0:0:0:
64,192,36365,1,0,0:0:0:0:
320,192,36572,1,0,0:0:0:0:
448,192,36572,128,0,36779:0:0:0:0:
64,192,36779,1,0,0:0:0:0:
192,192,36779,1,0,0:0:0:0:
448,192,36883,1,0,0:0:0:0:
320,192,36986,1,0,0:0:0:0:
192,192,36986,128,0,37297:0:0:0:0:
64,192,36986,1,0,0:0:0:0:
448,192,37193,128,0,37297:0:0:0:0:
320,192,37193,128,0,37297:0:0:0:0:
448,192,37400,1,0,0:0:0:0:
320,192,37400,128,0,37710:0:0:0:0:
192,192,37400,128,0,37607:0:0:0:0:
64,192,37607,128,0,37710:0:0:0:0:
448,192,37710,128,0,37814:0:0:0:0:
320,192,37814,128,0,38124:0:0:0:0:
64,192,37814,1,0,0:0:0:0:
192,192,37814,128,0,38021:0:0:0:0:
448,192,38021,128,0,38228:0:0:0:0:
320,192,38228,128,0,38538:0:0:0:0:
64,192,38228,128,0,38434:0:0:0:0:
192,192,38434,128,0,38538:0:0:0:0:
448,192,38538,128,0,38641:0:0:0:0:
320,192,38641,128,0,38952:0:0:0:0:
192,192,38641,1,0,0:0:0:0:
64,192,38641,128,0,38848:0:0:0:0:
448,192,38848,128,0,39055:0:0:0:0:
192,192,39055,128,0,39365:0:0:0:0:
320,192,39055,128,0,39262:0:0:0:0:
64,192,39262,128,0,39365:0:0:0:0:
448,192,39365,128,0,39469:0:0:0:0:
192,192,39469,128,0,39779:0:0:0:0:
320,192,39469,128,0,39676:0:0:0:0:
64,192,39469,1,0,0:0:0:0:
64,192,39676,128,0,39883:0:0:0:0:
192,192,39883,128,0,40193:0:0:0:0:
448,192,39883,128,0,40090:0:0:0:0:
320,192,40090,128,0,40193:0:0:0:0:
64,192,40193,128,0,40297:0:0:0:0:
192,192,40297,128,0,40607:0:0:0:0:
320,192,40297,1,0,0:0:0:0:
448,192,40297,128,0,40503:0:0:0:0:
320,192,40503,128,0,40710:0:0:0:0:
64,192,40710,128,0,41021:0:0:0:0:
192,192,40710,128,0,40917:0:0:0:0:
320,192,40917,128,0,41021:0:0:0:0:
448,192,41021,128,0,41124:0:0:0:0:
64,192,41124,128,0,41434:0:0:0:0:
192,192,41124,128,0,41331:0:0:0:0:
320,192,41124,1,0,0:0:0:0:
320,192,41331,128,0,41538:0:0:0:0:
64,192,41538,128,0,41848:0:0:0:0:
448,192,41538,128,0,41745:0:0:0:0:
320,192,41745,128,0,41848:0:0:0:0:
192,192,41848,128,0,41952:0:0:0:0:
64,192,41952,128,0,42262:0:0:0:0:
448,192,41952,128,0,42159:0:0:0:0:
320,192,42159,128,0,42365:0:0:0:0:
64,192,42365,1,0,0:0:0:0:
192,192,42365,1,0,0:0:0:0:
448,192,42365,1,0,0:0:0:0:
448,192,42469,1,0,0:0:0:0:
64,192,42469,1,0,0:0:0:0:
192,192,42469,1,0,0:0:0:0:
320,192,42676,1,0,0:0:0:0:
448,192,42676,1,0,0:0:0:0:
64,192,42676,1,0,0:0:0:0:
448,192,42883,1,0,0:0:0:0:
64,192,42883,1,0,0:0:0:0:
192,192,42883,1,0,0:0:0:0:
64,192,43090,1,0,0:0:0:0:
448,192,43090,1,0,0:0:0:0:
320,192,43090,1,0,0:0:0:0:
320,192,43193,1,0,0:0:0:0:
448,192,43193,1,0,0:0:0:0:
64,192,43193,1,0,0:0:0:0:
64,192,43607,128,0,43917:0:0:0:0:
64,192,44021,1,0,0:0:0:0:
448,192,44021,1,0,0:0:0:0:
192,192,44124,1,0,0:0:0:0:
64,192,44228,1,0,0:0:0:0:
192,192,44331,1,0,0:0:0:0:
448,192,44434,1,0,0:0:0:0:
64,192,44434,1,0,0:0:0:0:
320,192,44434,1,0,0:0:0:0:
192,192,44538,1,0,0:0:0:0:
448,192,44641,1,0,0:0:0:0:
192,192,44745,1,0,0:0:0:0:
448,192,44848,1,0,0:0:0:0:
64,192,44848,128,0,45159:0:0:0:0:
192,192,45055,1,0,0:0:0:0:
320,192,45159,1,0,0:0:0:0:
448,192,45262,128,0,45572:0:0:0:0:
192,192,45262,1,0,0:0:0:0:
64,192,45262,1,0,0:0:0:0:
64,192,45469,128,0,45572:0:0:0:0:
448,192,45676,128,0,45779:0:0:0:0:
64,192,45676,128,0,45986:0:0:0:0:
448,192,45883,128,0,46090:0:0:0:0:
320,192,46090,1,0,0:0:0:0:
192,192,46090,1,0,0:0:0:0:
64,192,46090,128,0,46400:0:0:0:0:
448,192,46297,128,0,46503:0:0:0:0:
64,192,46503,1,0,0:0:0:0:
192,192,46503,1,0,0:0:0:0:
320,192,46710,1,0,0:0:0:0:
320,192,46917,1,0,0:0:0:0:
64,192,46917,1,0,0:0:0:0:
448,192,46917,128,0,47228:0:0:0:0:
448,192,47331,1,0,0:0:0:0:
192,192,47331,1,0,0:0:0:0:
320,192,47434,1,0,0:0:0:0:
448,192,47538,1,0,0:0:0:0:
320,192,47641,1,0,0:0:0:0:
192,192,47745,1,0,0:0:0:0:
64,192,47745,1,0,0:0:0:0:
448,192,47745,1,0,0:0:0:0:
320,192,47848,1,0,0:0:0:0:
192,192,47952,1,0,0:0:0:0:
320,192,48055,1,0,0:0:0:0:
448,192,48159,1,0,0:0:0:0:
64,192,48159,1,0,0:0:0:0:
320,192,48365,1,0,0:0:0:0:
64,192,48469,1,0,0:0:0:0:
192,192,48572,1,0,0:0:0:0:
320,192,48572,1,0,0:0:0:0:
448,192,48572,1,0,0:0:0:0:
320,192,48779,128,0,48883:0:0:0:0:
320,192,48986,1,0,0:0:0:0:
448,192,48986,128,0,49400:0:0:0:0:
192,192,49193,128,0,49297:0:0:0:0:
192,192,49400,1,0,0:0:0:0:
320,192,49400,1,0,0:0:0:0:
64,192,49400,128,0,49814:0:0:0:0:
192,192,49607,128,0,49814:0:0:0:0:
320,192,49814,1,0,0:0:0:0:
448,192,49814,1,0,0:0:0:0:
192,192,50021,1,0,0:0:0:0:
448,192,50021,1,0,0:0:0:0:
192,192,50228,1,0,0:0:0:0:
448,192,50228,1,0,0:0:0:0:
64,192,50228,128,0,50538:0:0:0:0:
64,192,50641,1,0,0:0:0:0:
320,192,50641,1,0,0:0:0:0:
192,192,50745,1,0,0:0:0:0:
320,192,50848,1,0,0:0:0:0:
192,192,50952,1,0,0:0:0:0:
64,192,51055,1,0,0:0:0:0:
320,192,51055,1,0,0:0:0:0:
448,192,51055,1,0,0:0:0:0:
192,192,51159,1,0,0:0:0:0:
448,192,51262,1,0,0:0:0:0:
192,192,51365,1,0,0:0:0:0:
448,192,51469,1,0,0:0:0:0:
64,192,51469,1,0,0:0:0:0:
320,192,51572,1,0,0:0:0:0:
64,192,51676,1,0,0:0:0:0:
320,192,51779,1,0,0:0:0:0:
448,192,51883,1,0,0:0:0:0:
64,192,51883,1,0,0:0:0:0:
192,192,51883,1,0,0:0:0:0:
320,192,51986,1,0,0:0:0:0:
192,192,52090,128,0,52297:0:0:0:0:
320,192,52297,1,0,0:0:0:0:
448,192,52297,1,0,0:0:0:0:
320,192,52503,128,0,52710:0:0:0:0:
448,192,52710,1,0,0:0:0:0:
64,192,52710,1,0,0:0:0:0:
192,192,52710,1,0,0:0:0:0:
320,192,52917,128,0,53124:0:0:0:0:
192,192,53124,1,0,0:0:0:0:
64,192,53124,1,0,0:0:0:0:
192,192,53331,1,0,0:0:0:0:
448,192,53331,1,0,0:0:0:0:
192,192,53538,1,0,0:0:0:0:
64,192,53538,1,0,0:0:0:0:
448,192,53538,128,0,53848:0:0:0:0:
320,192,53952,1,0,0:0:0:0:
448,192,53952,1,0,0:0:0:0:
64,192,53952,1,0,0:0:0:0:
192,192,54055,1,0,0:0:0:0:
320,192,54159,1,0,0:0:0:0:
192,192,54262,1,0,0:0:0:0:
64,192,54365,1,0,0:0:0:0:
320,192,54365,1,0,0:0:0:0:
448,192,54365,1,0,0:0:0:0:
192,192,54469,1,0,0:0:0:0:
448,192,54572,1,0,0:0:0:0:
192,192,54676,1,0,0:0:0:0:
64,192,54779,1,0,0:0:0:0:
320,192,54779,1,0,0:0:0:0:
320,192,54986,1,0,0:0:0:0:
192,192,55090,1,0,0:0:0:0:
320,192,55193,1,0,0:0:0:0:
448,192,55193,1,0,0:0:0:0:
64,192,55193,1,0,0:0:0:0:
192,192,55297,1,0,0:0:0:0:
320,192,55400,128,0,55607:0:0:0:0:
192,192,55607,1,0,0:0:0:0:
64,192,55607,1,0,0:0:0:0:
448,192,55607,1,0,0:0:0:0:
192,192,55814,1,0,0:0:0:0:
320,192,55814,1,0,0:0:0:0:
64,192,55814,1,0,0:0:0:0:
64,192,56021,1,0,0:0:0:0:
448,192,56021,1,0,0:0:0:0:
320,192,56021,1,0,0:0:0:0:
192,192,56228,1,0,0:0:0:0:
320,192,56228,1,0,0:0:0:0:
448,192,56228,1,0,0:0:0:0:
448,192,56434,1,0,0:0:0:0:
64,192,56434,128,0,56641:0:0:0:0:
320,192,56434,1,0,0:0:0:0:
192,192,56538,128,0,56745:0:0:0:0:
320,192,56641,128,0,56848:0:0:0:0:
448,192,56745,128,0,56848:0:0:0:0:
64,192,56848,1,0,0:0:0:0:
192,192,56848,1,0,0:0:0:0:
320,192,56952,1,0,0:0:0:0:
448,192,56952,1,0,0:0:0:0:
64,192,57055,1,0,0:0:0:0:
192,192,57055,1,0,0:0:0:0:
320,192,57159,1,0,0:0:0:0:
448,192,57159,1,0,0:0:0:0:
64,192,57262,1,0,0:0:0:0:
192,192,57262,128,0,57469:0:0:0:0:
320,192,57469,1,0,0:0:0:0:
192,192,57572,1,0,0:0:0:0:
64,192,57676,1,0,0:0:0:0:
320,192,57676,1,0,0:0:0:0:
448,192,57676,1,0,0:0:0:0:
192,192,57883,128,0,58090:0:0:0:0:
320,192,57986,128,0,58193:0:0:0:0:
448,192,58090,128,0,58297:0:0:0:0:
64,192,58090,1,0,0:0:0:0:
320,192,58297,128,0,58503:0:0:0:0:
192,192,58400,128,0,58607:0:0:0:0:
448,192,58503,1,0,0:0:0:0:
64,192,58503,128,0,58710:0:0:0:0:
320,192,58710,1,0,0:0:0:0:
448,192,58710,128,0,58917:0:0:0:0:
192,192,58917,1,0,0:0:0:0:
64,192,58917,128,0,59228:0:0:0:0:
320,192,59124,1,0,0:0:0:0:
192,192,59228,1,0,0:0:0:0:
64,192,59331,128,0,59641:0:0:0:0:
320,192,59331,1,0,0:0:0:0:
448,192,59331,1,0,0:0:0:0:
192,192,59538,1,0,0:0:0:0:
320,192,59641,1,0,0:0:0:0:
64,192,59745,128,0,60055:0:0:0:0:
448,192,59745,1,0,0:0:0:0:
320,192,59952,1,0,0:0:0:0:
448,192,59952,1,0,0:0:0:0:
192,192,60055,1,0,0:0:0:0:
64,192,60159,1,0,0:0:0:0:
320,192,60159,1,0,0:0:0:0:
448,192,60159,1,0,0:0:0:0:
192,192,60365,128,0,60572:0:0:0:0:
320,192,60572,1,0,0:0:0:0:
448,192,60572,128,0,60779:0:0:0:0:
192,192,60779,1,0,0:0:0:0:
320,192,60883,1,0,0:0:0:0:
448,192,60986,1,0,0:0:0:0:
64,192,60986,1,0,0:0:0:0:
192,192,60986,1,0,0:0:0:0:
448,192,61193,128,0,61400:0:0:0:0:
320,192,61297,128,0,61503:0:0:0:0:
192,192,61400,128,0,61607:0:0:0:0:
64,192,61400,1,0,0:0:0:0:
320,192,61607,128,0,61814:0:0:0:0:
192,192,61710,128,0,61917:0:0:0:0:
64,192,61814,128,0,62021:0:0:0:0:
448,192,61814,1,0,0:0:0:0:
192,192,62021,128,0,62228:0:0:0:0:
320,192,62021,1,0,0:0:0:0:
448,192,62228,128,0,62538:0:0:0:0:
64,192,62228,1,0,0:0:0:0:
64,192,62434,1,0,0:0:0:0:
192,192,62538,1,0,0:0:0:0:
448,192,62641,128,0,62952:0:0:0:0:
320,192,62641,1,0,0:0:0:0:
64,192,62641,1,0,0:0:0:0:
320,192,62848,1,0,0:0:0:0:
192,192,62952,1,0,0:0:0:0:
448,192,63055,128,0,63365:0:0:0:0:
64,192,63055,1,0,0:0:0:0:
320,192,63159,1,0,0:0:0:0:
64,192,63262,1,0,0:0:0:0:
192,192,63262,1,0,0:0:0:0:
320,192,63365,1,0,0:0:0:0:
448,192,63469,1,0,0:0:0:0:
192,192,63469,1,0,0:0:0:0:
64,192,63469,1,0,0:0:0:0:
320,192,63676,128,0,63779:0:0:0:0:
448,192,63883,1,0,0:0:0:0:
320,192,63883,128,0,64090:0:0:0:0:
64,192,63883,1,0,0:0:0:0:
192,192,64090,128,0,64297:0:0:0:0:
320,192,64193,128,0,64297:0:0:0:0:
64,192,64297,1,0,0:0:0:0:
448,192,64297,1,0,0:0:0:0:
320,192,64503,128,0,64710:0:0:0:0:
192,192,64607,128,0,64814:0:0:0:0:
448,192,64710,1,0,0:0:0:0:
64,192,64710,128,0,64917:0:0:0:0:
448,192,64917,1,0,0:0:0:0:
320,192,64917,1,0,0:0:0:0:
192,192,65021,1,0,0:0:0:0:
64,192,65021,1,0,0:0:0:0:
320,192,65124,1,0,0:0:0:0:
448,192,65124,1,0,0:0:0:0:
320,192,65331,1,0,0:0:0:0:
448,192,65331,1,0,0:0:0:0:
192,192,65538,1,0,0:0:0:0:
64,192,65538,128,0,65952:0:0:0:0:
320,192,65745,1,0,0:0:0:0:
320,192,65952,1,0,0:0:0:0:
448,192,65952,128,0,66365:0:0:0:0:
192,192,66159,128,0,66365:0:0:0:0:
320,192,66365,1,0,0:0:0:0:
64,192,66365,1,0,0:0:0:0:
192,192,66572,1,0,0:0:0:0:
448,192,66572,1,0,0:0:0:0:
192,192,66779,1,0,0:0:0:0:
448,192,66779,1,0,0:0:0:0:
64,192,66779,128,0,67090:0:0:0:0:
64,192,67193,1,0,0:0:0:0:
192,192,67193,1,0,0:0:0:0:
320,192,67193,1,0,0:0:0:0:
64,192,67400,1,0,0:0:0:0:
320,192,67400,1,0,0:0:0:0:
192,192,67400,1,0,0:0:0:0:
64,192,67503,1,0,0:0:0:0:
192,192,67503,1,0,0:0:0:0:
320,192,67503,1,0,0:0:0:0:
448,192,67607,1,0,0:0:0:0:
448,192,67814,1,0,0:0:0:0:
320,192,67917,1,0,0:0:0:0:
192,192,68021,1,0,0:0:0:0:
64,192,68021,1,0,0:0:0:0:
320,192,68228,1,0,0:0:0:0:
448,192,68228,1,0,0:0:0:0:
64,192,68331,1,0,0:0:0:0:
192,192,68331,1,0,0:0:0:0:
320,192,68434,1,0,0:0:0:0:
448,192,68434,1,0,0:0:0:0:
192,192,68538,1,0,0:0:0:0:
64,192,68641,1,0,0:0:0:0:
448,192,68641,1,0,0:0:0:0:
320,192,68745,1,0,0:0:0:0:
64,192,68848,128,0,69469:0:0:0:0:
192,192,68848,128,0,69469:0:0:0:0:
320,192,69676,1,0,0:0:0:0:
448,192,69676,1,0,0:0:0:0:
320,192,69883,1,0,0:0:0:0:
448,192,69883,1,0,0:0:0:0:
448,192,69986,1,0,0:0:0:0:
320,192,69986,1,0,0:0:0:0:
320,192,70090,1,0,0:0:0:0:
448,192,70090,1,0,0:0:0:0:
448,192,70297,1,0,0:0:0:0:
320,192,70297,1,0,0:0:0:0:
192,192,70503,1,0,0:0:0:0:
64,192,70503,128,0,70917:0:0:0:0:
448,192,70503,1,0,0:0:0:0:
320,192,70710,128,0,70814:0:0:0:0:
448,192,70710,128,0,70814:0:0:0:0:
192,192,70917,1,0,0:0:0:0:
320,192,70917,1,0,0:0:0:0:
448,192,70917,128,0,71331:0:0:0:0:
192,192,71124,128,0,71228:0:0:0:0:
64,192,71124,128,0,71228:0:0:0:0:
64,192,71331,1,0,0:0:0:0:
192,192,71331,1,0,0:0:0:0:
192,192,71538,1,0,0:0:0:0:
320,192,71641,1,0,0:0:0:0:
448,192,71745,1,0,0:0:0:0:
192,192,71745,1,0,0:0:0:0:
64,192,71745,1,0,0:0:0:0:
448,192,71952,128,0,72159:0:0:0:0:
192,192,71952,128,0,72159:0:0:0:0:
64,192,72159,128,0,72572:0:0:0:0:
320,192,72159,1,0,0:0:0:0:
320,192,72365,128,0,72469:0:0:0:0:
448,192,72365,128,0,72469:0:0:0:0:
192,192,72572,128,0,72986:0:0:0:0:
320,192,72572,1,0,0:0:0:0:
448,192,72572,1,0,0:0:0:0:
320,192,72779,128,0,72883:0:0:0:0:
448,192,72779,128,0,72883:0:0:0:0:
320,192,72986,128,0,73400:0:0:0:0:
448,192,72986,1,0,0:0:0:0:
64,192,73193,128,0,73297:0:0:0:0:
192,192,73193,128,0,73297:0:0:0:0:
64,192,73400,1,0,0:0:0:0:
192,192,73400,1,0,0:0:0:0:
448,192,73400,1,0,0:0:0:0:
192,192,73607,128,0,73814:0:0:0:0:
448,192,73607,128,0,73814:0:0:0:0:
320,192,73814,1,0,0:0:0:0:
64,192,73814,1,0,0:0:0:0:
192,192,73917,1,0,0:0:0:0:
448,192,73917,1,0,0:0:0:0:
448,192,74124,1,0,0:0:0:0:
192,192,74124,1,0,0:0:0:0:
320,192,74228,1,0,0:0:0:0:
64,192,74228,1,0,0:0:0:0:
448,192,74228,1,0,0:0:0:0:
192,192,74331,1,0,0:0:0:0:
64,192,74331,1,0,0:0:0:0:
64,192,74538,1,0,0:0:0:0:
192,192,74538,1,0,0:0:0:0:
320,192,74641,1,0,0:0:0:0:
448,192,74641,1,0,0:0:0:0:
192,192,74745,1,0,0:0:0:0:
64,192,74745,1,0,0:0:0:0:
64,192,74952,1,0,0:0:0:0:
192,192,74952,1,0,0:0:0:0:
192,192,75055,1,0,0:0:0:0:
320,192,75055,1,0,0:0:0:0:
448,192,75055,1,0,0:0:0:0:
320,192,75159,1,0,0:0:0:0:
64,192,75159,1,0,0:0:0:0:
448,192,75262,128,0,75469:0:0:0:0:
192,192,75262,128,0,75469:0:0:0:0:
64,192,75469,128,0,75779:0:0:0:0:
320,192,75469,1,0,0:0:0:0:
192,192,75676,1,0,0:0:0:0:
320,192,75676,128,0,75986:0:0:0:0:
192,192,75883,1,0,0:0:0:0:
448,192,75883,128,0,76193:0:0:0:0:
64,192,75883,128,0,76193:0:0:0:0:
192,192,76090,128,0,76297:0:0:0:0:
320,192,76090,128,0,76297:0:0:0:0:
64,192,76297,1,0,0:0:0:0:
448,192,76297,1,0,0:0:0:0:
64,192,76503,1,0,0:0:0:0:
320,192,76503,1,0,0:0:0:0:
448,192,76503,1,0,0:0:0:0:
448,192,76710,1,0,0:0:0:0:
320,192,76710,1,0,0:0:0:0:
64,192,76710,1,0,0:0:0:0:
320,192,76917,128,0,77124:0:0:0:0:
192,192,76917,128,0,77124:0:0:0:0:
448,192,77124,128,0,77538:0:0:0:0:
64,192,77124,1,0,0:0:0:0:
64,192,77331,128,0,77434:0:0:0:0:
192,192,77331,128,0,77434:0:0:0:0:
64,192,77538,1,0,0:0:0:0:
320,192,77538,1,0,0:0:0:0:
192,192,77538,128,0,77952:0:0:0:0:
448,192,77745,128,0,77848:0:0:0:0:
320,192,77745,128,0,77848:0:0:0:0:
448,192,77952,1,0,0:0:0:0:
320,192,77952,1,0,0:0:0:0:
448,192,78159,1,0,0:0:0:0:
320,192,78262,1,0,0:0:0:0:
448,192,78365,1,0,0:0:0:0:
192,192,78365,1,0,0:0:0:0:
64,192,78365,1,0,0:0:0:0:
64,192,78572,128,0,78779:0:0:0:0:
448,192,78572,128,0,78779:0:0:0:0:
320,192,78779,128,0,79193:0:0:0:0:
192,192,78779,1,0,0:0:0:0:
64,192,78986,128,0,79090:0:0:0:0:
192,192,78986,128,0,79090:0:0:0:0:
192,192,79193,128,0,79607:0:0:0:0:
64,192,79193,1,0,0:0:0:0:
448,192,79193,1,0,0:0:0:0:
320,192,79400,128,0,79503:0:0:0:0:
448,192,79400,128,0,79503:0:0:0:0:
64,192,79607,128,0,80021:0:0:0:0:
448,192,79607,1,0,0:0:0:0:
192,192,79814,128,0,79917:0:0:0:0:
320,192,79814,128,0,79917:0:0:0:0:
192,192,80021,1,0,0:0:0:0:
320,192,80021,1,0,0:0:0:0:
448,192,80021,1,0,0:0:0:0:
192,192,80228,128,0,80434:0:0:0:0:
448,192,80228,128,0,80434:0:0:0:0:
320,192,80434,1,0,0:0:0:0:
64,192,80434,1,0,0:0:0:0:
64,192,80641,1,0,0:0:0:0:
320,192,80641,1,0,0:0:0:0:
192,192,80745,1,0,0:0:0:0:
448,192,80745,1,0,0:0:0:0:
64,192,80848,1,0,0:0:0:0:
320,192,80848,1,0,0:0:0:0:
448,192,80848,1,0,0:0:0:0:
320,192,81055,1,0,0:0:0:0:
448,192,81055,1,0,0:0:0:0:
192,192,81159,1,0,0:0:0:0:
64,192,81159,1,0,0:0:0:0:
320,192,81262,1,0,0:0:0:0:
448,192,81262,1,0,0:0:0:0:
320,192,81469,1,0,0:0:0:0:
448,192,81469,1,0,0:0:0:0:
192,192,81572,1,0,0:0:0:0:
64,192,81572,1,0,0:0:0:0:
64,192,81676,1,0,0:0:0:0:
320,192,81676,1,0,0:0:0:0:
448,192,81676,1,0,0:0:0:0:
64,192,81883,128,0,82090:0:0:0:0:
320,192,81883,128,0,82090:0:0:0:0:
192,192,82090,1,0,0:0:0:0:
448,192,82090,1,0,0:0:0:0:
192,192,82193,1,0,0:0:0:0:
320,192,82297,1,0,0:0:0:0:
448,192,82400,1,0,0:0:0:0:
320,192,82503,1,0,0:0:0:0:
192,192,82503,1,0,0:0:0:0:
64,192,82503,1,0,0:0:0:0:
320,192,82607,1,0,0:0:0:0:
192,192,82710,1,0,0:0:0:0:
64,192,82814,1,0,0:0:0:0:
320,192,82917,1,0,0:0:0:0:
448,192,82917,1,0,0:0:0:0:
64,192,83021,1,0,0:0:0:0:
192,192,83124,1,0,0:0:0:0:
320,192,83228,1,0,0:0:0:0:
448,192,83331,1,0,0:0:0:0:
192,192,83331,1,0,0:0:0:0:
64,192,83331,1,0,0:0:0:0:
320,192,83434,1,0,0:0:0:0:
192,192,83538,1,0,0:0:0:0:
64,192,83641,1,0,0:0:0:0:
320,192,83745,1,0,0:0:0:0:
448,192,83745,1,0,0:0:0:0:
448,192,83952,1,0,0:0:0:0:
448,192,84055,1,0,0:0:0:0:
192,192,84159,1,0,0:0:0:0:
64,192,84159,1,0,0:0:0:0:
448,192,84365,1,0,0:0:0:0:
320,192,84469,1,0,0:0:0:0:
192,192,84572,1,0,0:0:0:0:
64,192,84572,1,0,0:0:0:0:
448,192,84779,1,0,0:0:0:0:
448,192,84883,1,0,0:0:0:0:
192,192,84986,1,0,0:0:0:0:
64,192,84986,1,0,0:0:0:0:
320,192,85090,1,0,0:0:0:0:
448,192,85193,1,0,0:0:0:0:
448,192,85297,1,0,0:0:0:0:
192,192,85400,1,0,0:0:0:0:
64,192,85400,1,0,0:0:0:0:
192,192,85607,128,0,85710:0:0:0:0:
64,192,85607,128,0,85814:0:0:0:0:
320,192,85814,128,0,85917:0:0:0:0:
192,192,85814,128,0,86021:0:0:0:0:
448,192,86021,128,0,86124:0:0:0:0:
320,192,86021,128,0,86228:0:0:0:0:
64,192,86228,128,0,86952:0:0:0:0:
192,192,86228,128,0,86331:0:0:0:0:
192,192,86434,128,0,86745:0:0:0:0:
320,192,86434,128,0,86538:0:0:0:0:
320,192,86641,128,0,86745:0:0:0:0:
448,192,86641,128,0,87055:0:0:0:0:
192,192,86848,128,0,86952:0:0:0:0:
320,192,86848,128,0,87055:0:0:0:0:
192,192,87055,1,0,0:0:0:0:
64,192,87055,1,0,0:0:0:0:
64,192,87261,1,0,0:0:0:0:
320,192,87365,1,0,0:0:0:0:
448,192,87365,1,0,0:0:0:0:
320,192,87572,1,0,0:0:0:0:
448,192,87572,1,0,0:0:0:0:
192,192,87675,1,0,0:0:0:0:
64,192,87675,1,0,0:0:0:0:
192,192,87882,1,0,0:0:0:0:
64,192,87986,1,0,0:0:0:0:
448,192,87986,1,0,0:0:0:0:
448,192,88192,1,0,0:0:0:0:
64,192,88192,1,0,0:0:0:0:
192,192,88296,1,0,0:0:0:0:
320,192,88296,1,0,0:0:0:0:
320,192,88503,1,0,0:0:0:0:
192,192,88606,1,0,0:0:0:0:
64,192,88606,1,0,0:0:0:0:
64,192,88813,1,0,0:0:0:0:
192,192,88813,1,0,0:0:0:0:
320,192,88917,1,0,0:0:0:0:
448,192,88917,1,0,0:0:0:0:
448,192,89123,1,0,0:0:0:0:
320,192,89227,1,0,0:0:0:0:
64,192,89227,1,0,0:0:0:0:
64,192,89434,1,0,0:0:0:0:
320,192,89434,1,0,0:0:0:0:
192,192,89537,1,0,0:0:0:0:
448,192,89537,1,0,0:0:0:0:
192,192,89744,1,0,0:0:0:0:
320,192,89848,1,0,0:0:0:0:
448,192,89848,1,0,0:0:0:0:
320,192,90055,1,0,0:0:0:0:
448,192,90055,1,0,0:0:0:0:
192,192,90158,1,0,0:0:0:0:
64,192,90158,1,0,0:0:0:0:
64,192,90365,1,0,0:0:0:0:
192,192,90468,1,0,0:0:0:0:
320,192,90468,1,0,0:0:0:0:
192,192,90675,1,0,0:0:0:0:
320,192,90675,1,0,0:0:0:0:
448,192,90779,1,0,0:0:0:0:
64,192,90779,1,0,0:0:0:0:
448,192,90986,1,0,0:0:0:0:
320,192,91089,1,0,0:0:0:0:
64,192,91089,1,0,0:0:0:0:
64,192,91296,1,0,0:0:0:0:
320,192,91296,1,0,0:0:0:0:
192,192,91399,1,0,0:0:0:0:
448,192,91399,1,0,0:0:0:0:
192,192,91606,1,0,0:0:0:0:
320,192,91710,1,0,0:0:0:0:
448,192,91710,1,0,0:0:0:0:
320,192,91917,1,0,0:0:0:0:
448,192,91917,1,0,0:0:0:0:
192,192,92020,1,0,0:0:0:0:
64,192,92020,1,0,0:0:0:0:
64,192,92227,1,0,0:0:0:0:
192,192,92330,1,0,0:0:0:0:
320,192,92330,1,0,0:0:0:0:
448,192,92330,1,0,0:0:0:0:
320,192,92537,1,0,0:0:0:0:
448,192,92537,1,0,0:0:0:0:
192,192,92641,1,0,0:0:0:0:
64,192,92641,1,0,0:0:0:0:
192,192,92848,1,0,0:0:0:0:
64,192,92951,1,0,0:0:0:0:
320,192,92951,1,0,0:0:0:0:
448,192,92951,1,0,0:0:0:0:
448,192,93158,1,0,0:0:0:0:
64,192,93158,1,0,0:0:0:0:
192,192,93261,1,0,0:0:0:0:
320,192,93261,1,0,0:0:0:0:
320,192,93468,1,0,0:0:0:0:
192,192,93572,1,0,0:0:0:0:
64,192,93572,1,0,0:0:0:0:
448,192,93572,1,0,0:0:0:0:
192,192,93779,1,0,0:0:0:0:
64,192,93779,1,0,0:0:0:0:
320,192,93882,1,0,0:0:0:0:
448,192,93882,1,0,0:0:0:0:
448,192,94089,1,0,0:0:0:0:
320,192,94192,1,0,0:0:0:0:
192,192,94192,1,0,0:0:0:0:
64,192,94192,1,0,0:0:0:0:
192,192,94399,1,0,0:0:0:0:
320,192,94399,1,0,0:0:0:0:
448,192,94503,1,0,0:0:0:0:
64,192,94503,1,0,0:0:0:0:
64,192,94710,1,0,0:0:0:0:
192,192,94813,1,0,0:0:0:0:
320,192,94813,1,0,0:0:0:0:
448,192,94813,1,0,0:0:0:0:
192,192,95020,1,0,0:0:0:0:
448,192,95020,1,0,0:0:0:0:
320,192,95123,1,0,0:0:0:0:
64,192,95123,1,0,0:0:0:0:
64,192,95330,1,0,0:0:0:0:
192,192,95434,1,0,0:0:0:0:
320,192,95434,1,0,0:0:0:0:
448,192,95434,1,0,0:0:0:0:
448,192,95641,1,0,0:0:0:0:
320,192,95641,1,0,0:0:0:0:
192,192,95744,1,0,0:0:0:0:
64,192,95744,1,0,0:0:0:0:
192,192,95951,1,0,0:0:0:0:
320,192,96055,1,0,0:0:0:0:
448,192,96055,1,0,0:0:0:0:
64,192,96055,1,0,0:0:0:0:
64,192,96261,1,0,0:0:0:0:
320,192,96261,1,0,0:0:0:0:
192,192,96365,1,0,0:0:0:0:
448,192,96365,1,0,0:0:0:0:
192,192,96572,1,0,0:0:0:0:
64,192,96675,1,0,0:0:0:0:
320,192,96675,1,0,0:0:0:0:
448,192,96675,1,0,0:0:0:0:
448,192,96882,1,0,0:0:0:0:
320,192,96882,1,0,0:0:0:0:
192,192,96986,1,0,0:0:0:0:
64,192,96986,1,0,0:0:0:0:
192,192,97192,1,0,0:0:0:0:
320,192,97296,1,0,0:0:0:0:
448,192,97296,1,0,0:0:0:0:
64,192,97296,1,0,0:0:0:0:
320,192,97503,1,0,0:0:0:0:
448,192,97503,1,0,0:0:0:0:
192,192,97606,1,0,0:0:0:0:
64,192,97606,1,0,0:0:0:0:
64,192,97813,1,0,0:0:0:0:
192,192,97917,1,0,0:0:0:0:
320,192,97917,1,0,0:0:0:0:
448,192,97917,1,0,0:0:0:0:
192,192,98123,1,0,0:0:0:0:
320,192,98123,1,0,0:0:0:0:
448,192,98227,1,0,0:0:0:0:
64,192,98227,1,0,0:0:0:0:
448,192,98434,1,0,0:0:0:0:
320,192,98537,1,0,0:0:0:0:
192,192,98537,1,0,0:0:0:0:
64,192,98537,1,0,0:0:0:0:
64,192,98744,1,0,0:0:0:0:
320,192,98744,1,0,0:0:0:0:
192,192,98848,1,0,0:0:0:0:
448,192,98848,1,0,0:0:0:0:
192,192,99055,1,0,0:0:0:0:
320,192,99158,1,0,0:0:0:0:
448,192,99158,1,0,0:0:0:0:
64,192,99158,1,0,0:0:0:0:
64,192,99365,1,0,0:0:0:0:
448,192,99365,1,0,0:0:0:0:
320,192,99468,1,0,0:0:0:0:
192,192,99468,1,0,0:0:0:0:
320,192,99675,1,0,0:0:0:0:
192,192,99779,1,0,0:0:0:0:
64,192,99779,1,0,0:0:0:0:
448,192,99779,1,0,0:0:0:0:
192,192,99986,1,0,0:0:0:0:
448,192,99986,1,0,0:0:0:0:
320,192,100089,1,0,0:0:0:0:
64,192,100089,1,0,0:0:0:0:
320,192,100296,1,0,0:0:0:0:
192,192,100399,1,0,0:0:0:0:
64,192,100399,1,0,0:0:0:0:
448,192,100399,1,0,0:0:0:0:
64,192,100606,1,0,0:0:0:0:
192,192,100606,1,0,0:0:0:0:
320,192,100710,1,0,0:0:0:0:
448,192,100710,1,0,0:0:0:0:
320,192,100917,1,0,0:0:0:0:
192,192,101020,1,0,0:0:0:0:
64,192,101020,1,0,0:0:0:0:
448,192,101020,1,0,0:0:0:0:
448,192,101227,1,0,0:0:0:0:
64,192,101227,1,0,0:0:0:0:
192,192,101330,1,0,0:0:0:0:
320,192,101330,1,0,0:0:0:0:
320,192,101537,1,0,0:0:0:0:
192,192,101641,1,0,0:0:0:0:
64,192,101641,1,0,0:0:0:0:
448,192,101641,1,0,0:0:0:0:
192,192,101848,1,0,0:0:0:0:
64,192,101848,1,0,0:0:0:0:
320,192,101951,1,0,0:0:0:0:
448,192,101951,1,0,0:0:0:0:
64,192,102158,1,0,0:0:0:0:
64,192,102261,1,0,0:0:0:0:
192,192,102261,1,0,0:0:0:0:
448,192,102261,1,0,0:0:0:0:
320,192,102468,1,0,0:0:0:0:
192,192,102468,1,0,0:0:0:0:
320,192,102572,1,0,0:0:0:0:
64,192,102572,1,0,0:0:0:0:
448,192,102779,1,0,0:0:0:0:
448,192,102882,1,0,0:0:0:0:
320,192,102882,1,0,0:0:0:0:
64,192,102882,1,0,0:0:0:0:
192,192,103089,1,0,0:0:0:0:
320,192,103089,1,0,0:0:0:0:
192,192,103192,1,0,0:0:0:0:
448,192,103192,1,0,0:0:0:0:
320,192,103399,1,0,0:0:0:0:
320,192,103503,1,0,0:0:0:0:
192,192,103503,1,0,0:0:0:0:
448,192,103503,1,0,0:0:0:0:
64,192,103710,1,0,0:0:0:0:
448,192,103710,1,0,0:0:0:0:
64,192,103813,1,0,0:0:0:0:
192,192,103813,1,0,0:0:0:0:
320,192,104020,1,0,0:0:0:0:
448,192,104020,1,0,0:0:0:0:
448,192,104123,1,0,0:0:0:0:
320,192,104123,1,0,0:0:0:0:
64,192,104123,1,0,0:0:0:0:
192,192,104330,1,0,0:0:0:0:
64,192,104330,1,0,0:0:0:0:
192,192,104434,1,0,0:0:0:0:
64,192,104434,1,0,0:0:0:0:
320,192,104641,1,0,0:0:0:0:
320,192,104744,1,0,0:0:0:0:
64,192,104744,1,0,0:0:0:0:
448,192,104744,1,0,0:0:0:0:
192,192,104951,1,0,0:0:0:0:
448,192,104951,1,0,0:0:0:0:
192,192,105055,1,0,0:0:0:0:
64,192,105055,1,0,0:0:0:0:
448,192,105261,1,0,0:0:0:0:
448,192,105365,1,0,0:0:0:0:
192,192,105365,1,0,0:0:0:0:
64,192,105365,1,0,0:0:0:0:
320,192,105572,1,0,0:0:0:0:
64,192,105572,1,0,0:0:0:0:
320,192,105675,1,0,0:0:0:0:
448,192,105675,1,0,0:0:0:0:
64,192,105882,1,0,0:0:0:0:
64,192,105986,1,0,0:0:0:0:
320,192,105986,1,0,0:0:0:0:
448,192,105986,1,0,0:0:0:0:
192,192,106192,1,0,0:0:0:0:
320,192,106192,1,0,0:0:0:0:
192,192,106296,1,0,0:0:0:0:
448,192,106296,1,0,0:0:0:0:
64,192,106503,1,0,0:0:0:0:
448,192,106503,1,0,0:0:0:0:
448,192,106606,1,0,0:0:0:0:
64,192,106606,1,0,0:0:0:0:
320,192,106606,1,0,0:0:0:0:
192,192,106813,1,0,0:0:0:0:
320,192,106813,1,0,0:0:0:0:
192,192,106917,1,0,0:0:0:0:
320,192,106917,1,0,0:0:0:0:
320,192,107124,1,0,0:0:0:0:
320,192,107227,1,0,0:0:0:0:
64,192,107227,1,0,0:0:0:0:
192,192,107227,1,0,0:0:0:0:
448,192,107434,1,0,0:0:0:0:
64,192,107434,1,0,0:0:0:0:
448,192,107537,1,0,0:0:0:0:
320,192,107537,1,0,0:0:0:0:
192,192,107744,1,0,0:0:0:0:
192,192,107848,1,0,0:0:0:0:
320,192,107848,1,0,0:0:0:0:
448,192,107848,1,0,0:0:0:0:
64,192,108055,1,0,0:0:0:0:
320,192,108055,1,0,0:0:0:0:
64,192,108158,1,0,0:0:0:0:
192,192,108158,1,0,0:0:0:0:
320,192,108365,1,0,0:0:0:0:
320,192,108468,1,0,0:0:0:0:
64,192,108468,1,0,0:0:0:0:
448,192,108468,1,0,0:0:0:0:
192,192,108675,1,0,0:0:0:0:
448,192,108675,1,0,0:0:0:0:
192,192,108779,1,0,0:0:0:0:
64,192,108779,1,0,0:0:0:0:
64,192,108986,1,0,0:0:0:0:
320,192,108986,1,0,0:0:0:0:
320,192,109089,1,0,0:0:0:0:
64,192,109089,1,0,0:0:0:0:
448,192,109089,1,0,0:0:0:0:
192,192,109296,1,0,0:0:0:0:
448,192,109296,1,0,0:0:0:0:
448,192,109399,1,0,0:0:0:0:
192,192,109399,1,0,0:0:0:0:
448,192,109606,1,0,0:0:0:0:
448,192,109710,1,0,0:0:0:0:
192,192,109710,1,0,0:0:0:0:
64,192,109710,1,0,0:0:0:0:
320,192,109917,1,0,0:0:0:0:
64,192,109917,1,0,0:0:0:0:
320,192,110020,1,0,0:0:0:0:
448,192,110020,1,0,0:0:0:0:
192,192,110227,1,0,0:0:0:0:
192,192,110330,1,0,0:0:0:0:
448,192,110330,1,0,0:0:0:0:
64,192,110330,1,0,0:0:0:0:
320,192,110537,1,0,0:0:0:0:
64,192,110537,1,0,0:0:0:0:
320,192,110641,1,0,0:0:0:0:
448,192,110641,1,0,0:0:0:0:
64,192,110744,1,0,0:0:0:0:
192,192,110848,1,0,0:0:0:0:
192,192,110951,1,0,0:0:0:0:
320,192,110951,1,0,0:0:0:0:
448,192,110951,1,0,0:0:0:0:
64,192,111158,1,0,0:0:0:0:
448,192,111158,1,0,0:0:0:0:
64,192,111261,1,0,0:0:0:0:
192,192,111261,1,0,0:0:0:0:
320,192,111468,1,0,0:0:0:0:
448,192,111468,1,0,0:0:0:0:
320,192,111572,1,0,0:0:0:0:
448,192,111572,1,0,0:0:0:0:
64,192,111572,1,0,0:0:0:0:
192,192,111779,1,0,0:0:0:0:
64,192,111779,1,0,0:0:0:0:
320,192,111882,1,0,0:0:0:0:
448,192,111882,1,0,0:0:0:0:
320,192,111986,1,0,0:0:0:0:
448,192,111986,1,0,0:0:0:0:
448,192,112089,1,0,0:0:0:0:
320,192,112089,1,0,0:0:0:0:
192,192,112192,1,0,0:0:0:0:
64,192,112192,1,0,0:0:0:0:
192,192,112399,1,0,0:0:0:0:
64,192,112399,1,0,0:0:0:0:
192,192,112503,1,0,0:0:0:0:
64,192,112503,1,0,0:0:0:0:
192,192,112606,1,0,0:0:0:0:
64,192,112606,1,0,0:0:0:0:
320,192,112710,1,0,0:0:0:0:
448,192,112710,1,0,0:0:0:0:
64,192,113124,1,0,0:0:0:0:
448,192,113124,128,0,113434:0:0:0:0:
64,192,113537,1,0,0:0:0:0:
64,192,113950,1,0,0:0:0:0:
64,192,114364,1,0,0:0:0:0:
64,192,114778,1,0,0:0:0:0:
448,192,115192,1,0,0:0:0:0:
192,192,115192,1,0,0:0:0:0:
448,192,115605,1,0,0:0:0:0:
448,192,116019,1,0,0:0:0:0:
448,192,116433,128,0,116743:0:0:0:0:
320,192,116847,1,0,0:0:0:0:
192,192,116847,1,0,0:0:0:0:
192,192,117261,1,0,0:0:0:0:
192,192,117674,1,0,0:0:0:0:
192,192,118088,1,0,0:0:0:0:
64,192,118502,1,0,0:0:0:0:
320,192,118502,1,0,0:0:0:0:
320,192,118916,1,0,0:0:0:0:
320,192,119330,1,0,0:0:0:0:
64,192,119537,1,0,0:0:0:0:
448,192,119537,1,0,0:0:0:0:
64,192,119743,1,0,0:0:0:0:
448,192,119743,128,0,120054:0:0:0:0:
320,192,120157,1,0,0:0:0:0:
320,192,120571,1,0,0:0:0:0:
320,192,120985,1,0,0:0:0:0:
320,192,121399,1,0,0:0:0:0:
192,192,121812,1,0,0:0:0:0:
64,192,121812,1,0,0:0:0:0:
64,192,122226,1,0,0:0:0:0:
64,192,122640,1,0,0:0:0:0:
64,192,123054,1,0,0:0:0:0:
192,192,123468,1,0,0:0:0:0:
448,192,123468,1,0,0:0:0:0:
448,192,123881,1,0,0:0:0:0:
448,192,124295,1,0,0:0:0:0:
448,192,124709,1,0,0:0:0:0:
320,192,125123,1,0,0:0:0:0:
192,192,125123,1,0,0:0:0:0:
320,192,125330,1,0,0:0:0:0:
448,192,125330,1,0,0:0:0:0:
320,192,125537,1,0,0:0:0:0:
192,192,125537,1,0,0:0:0:0:
192,192,125743,1,0,0:0:0:0:
64,192,125743,1,0,0:0:0:0:
448,192,125950,128,0,126157:0:0:0:0:
320,192,126054,128,0,126261:0:0:0:0:
192,192,126157,128,0,126364:0:0:0:0:
64,192,126261,128,0,126364:0:0:0:0:
320,192,126364,1,0,0:0:0:0:
448,192,126364,1,0,0:0:0:0:
192,192,126468,1,0,0:0:0:0:
64,192,126468,1,0,0:0:0:0:
320,192,126571,1,0,0:0:0:0:
448,192,126571,1,0,0:0:0:0:
192,192,126674,1,0,0:0:0:0:
64,192,126674,1,0,0:0:0:0:
448,192,126778,128,0,127088:0:0:0:0:
320,192,126778,1,0,0:0:0:0:
64,192,126985,1,0,0:0:0:0:
192,192,127088,1,0,0:0:0:0:
64,192,127192,1,0,0:0:0:0:
448,192,127192,128,0,127502:0:0:0:0:
320,192,127192,1,0,0:0:0:0:
192,192,127399,1,0,0:0:0:0:
64,192,127399,1,0,0:0:0:0:
320,192,127502,1,0,0:0:0:0:
448,192,127605,128,0,127916:0:0:0:0:
192,192,127605,1,0,0:0:0:0:
320,192,127812,1,0,0:0:0:0:
64,192,127812,1,0,0:0:0:0:
192,192,127916,1,0,0:0:0:0:
448,192,128019,128,0,128330:0:0:0:0:
64,192,128019,1,0,0:0:0:0:
320,192,128019,1,0,0:0:0:0:
192,192,128226,128,0,128330:0:0:0:0:
64,192,128226,1,0,0:0:0:0:
448,192,128433,128,0,128743:0:0:0:0:
320,192,128433,1,0,0:0:0:0:
64,192,128640,1,0,0:0:0:0:
320,192,128743,1,0,0:0:0:0:
448,192,128847,128,0,129157:0:0:0:0:
192,192,128847,1,0,0:0:0:0:
64,192,128847,1,0,0:0:0:0:
192,192,129054,1,0,0:0:0:0:
320,192,129054,1,0,0:0:0:0:
64,192,129157,1,0,0:0:0:0:
448,192,129261,128,0,129571:0:0:0:0:
320,192,129261,1,0,0:0:0:0:
192,192,129468,1,0,0:0:0:0:
64,192,129468,1,0,0:0:0:0:
320,192,129571,1,0,0:0:0:0:
64,192,129674,1,0,0:0:0:0:
192,192,129674,1,0,0:0:0:0:
448,192,129674,1,0,0:0:0:0:
192,192,129881,128,0,129985:0:0:0:0:
64,192,130088,128,0,130399:0:0:0:0:
192,192,130088,1,0,0:0:0:0:
448,192,130295,1,0,0:0:0:0:
320,192,130399,1,0,0:0:0:0:
64,192,130502,128,0,130812:0:0:0:0:
192,192,130502,1,0,0:0:0:0:
448,192,130502,1,0,0:0:0:0:
448,192,130709,1,0,0:0:0:0:
320,192,130812,1,0,0:0:0:0:
64,192,130916,128,0,131226:0:0:0:0:
192,192,130916,1,0,0:0:0:0:
320,192,131123,1,0,0:0:0:0:
448,192,131123,1,0,0:0:0:0:
192,192,131226,1,0,0:0:0:0:
64,192,131330,128,0,131640:0:0:0:0:
320,192,131330,1,0,0:0:0:0:
448,192,131330,1,0,0:0:0:0:
320,192,131537,128,0,131640:0:0:0:0:
192,192,131537,1,0,0:0:0:0:
64,192,131743,128,0,132054:0:0:0:0:
448,192,131743,1,0,0:0:0:0:
192,192,131950,1,0,0:0:0:0:
320,192,132054,1,0,0:0:0:0:
64,192,132157,128,0,132468:0:0:0:0:
448,192,132157,1,0,0:0:0:0:
192,192,132157,1,0,0:0:0:0:
192,192,132364,1,0,0:0:0:0:
320,192,132364,1,0,0:0:0:0:
448,192,132468,1,0,0:0:0:0:
64,192,132571,128,0,132881:0:0:0:0:
320,192,132571,1,0,0:0:0:0:
192,192,132674,1,0,0:0:0:0:
448,192,132778,1,0,0:0:0:0:
320,192,132778,1,0,0:0:0:0:
192,192,132881,1,0,0:0:0:0:
320,192,132985,1,0,0:0:0:0:
448,192,132985,1,0,0:0:0:0:
64,192,132985,1,0,0:0:0:0:
448,192,133192,128,0,133295:0:0:0:0:
192,192,133192,128,0,133295:0:0:0:0:
64,192,133399,1,0,0:0:0:0:
320,192,133399,1,0,0:0:0:0:
448,192,133399,128,0,133709:0:0:0:0:
64,192,133605,128,0,133709:0:0:0:0:
192,192,133605,128,0,133709:0:0:0:0:
320,192,133709,1,0,0:0:0:0:
64,192,133812,1,0,0:0:0:0:
448,192,133812,1,0,0:0:0:0:
192,192,133812,1,0,0:0:0:0:
192,192,134019,128,0,134226:0:0:0:0:
320,192,134123,128,0,134330:0:0:0:0:
448,192,134226,128,0,134950:0:0:0:0:
64,192,134226,1,0,0:0:0:0:
320,192,134433,128,0,134640:0:0:0:0:
64,192,134433,1,0,0:0:0:0:
192,192,134537,128,0,134743:0:0:0:0:
64,192,134640,128,0,134950:0:0:0:0:
192,192,134847,128,0,135054:0:0:0:0:
320,192,134847,128,0,135054:0:0:0:0:
448,192,135054,1,0,0:0:0:0:
64,192,135054,1,0,0:0:0:0:
448,192,135261,128,0,136605:0:0:0:0:
192,192,135468,1,0,0:0:0:0:
320,192,135468,1,0,0:0:0:0:
64,192,135468,1,0,0:0:0:0:
320,192,135674,128,0,136605:0:0:0:0:
64,192,135674,1,0,0:0:0:0:
192,192,135778,1,0,0:0:0:0:
64,192,135881,1,0,0:0:0:0:
64,192,136088,1,0,0:0:0:0:
192,192,136088,1,0,0:0:0:0:
64,192,136295,128,0,136605:0:0:0:0:
192,192,136295,128,0,136605:0:0:0:0:
64,192,136709,1,0,0:0:0:0:
320,192,136709,1,0,0:0:0:0:
448,192,136709,1,0,0:0:0:0:
448,192,136916,1,0,0:0:0:0:
320,192,136916,1,0,0:0:0:0:
64,192,136916,1,0,0:0:0:0:
64,192,137019,1,0,0:0:0:0:
320,192,137019,1,0,0:0:0:0:
448,192,137019,1,0,0:0:0:0:
192,192,137123,1,0,0:0:0:0:
192,192,137330,1,0,0:0:0:0:
320,192,137433,1,0,0:0:0:0:
64,192,137537,1,0,0:0:0:0:
448,192,137537,1,0,0:0:0:0:
448,192,137743,1,0,0:0:0:0:
64,192,137743,1,0,0:0:0:0:
320,192,137847,1,0,0:0:0:0:
192,192,137847,1,0,0:0:0:0:
448,192,137950,1,0,0:0:0:0:
64,192,137950,1,0,0:0:0:0:
192,192,138054,1,0,0:0:0:0:
448,192,138157,1,0,0:0:0:0:
320,192,138157,1,0,0:0:0:0:
192,192,138261,1,0,0:0:0:0:
448,192,138364,128,0,138985:0:0:0:0:
64,192,138364,128,0,138985:0:0:0:0:
448,192,139192,1,0,0:0:0:0:
64,192,139192,1,0,0:0:0:0:
448,192,139399,1,0,0:0:0:0:
64,192,139399,1,0,0:0:0:0:
64,192,139502,1,0,0:0:0:0:
448,192,139502,1,0,0:0:0:0:
448,192,139605,1,0,0:0:0:0:
64,192,139605,1,0,0:0:0:0:
64,192,139812,1,0,0:0:0:0:
448,192,139812,1,0,0:0:0:0:
448,192,140019,1,0,0:0:0:0:
320,192,140019,128,0,140433:0:0:0:0:
192,192,140019,1,0,0:0:0:0:
64,192,140226,128,0,140330:0:0:0:0:
192,192,140226,128,0,140330:0:0:0:0:
448,192,140433,1,0,0:0:0:0:
64,192,140433,1,0,0:0:0:0:
192,192,140433,128,0,140847:0:0:0:0:
448,192,140640,128,0,140743:0:0:0:0:
320,192,140640,128,0,140743:0:0:0:0:
320,192,140847,1,0,0:0:0:0:
448,192,140847,1,0,0:0:0:0:
448,192,141054,1,0,0:0:0:0:
320,192,141157,1,0,0:0:0:0:
192,192,141261,1,0,0:0:0:0:
448,192,141261,1,0,0:0:0:0:
64,192,141261,1,0,0:0:0:0:
192,192,141468,128,0,141674:0:0:0:0:
448,192,141468,128,0,141674:0:0:0:0:
320,192,141674,128,0,142088:0:0:0:0:
64,192,141674,1,0,0:0:0:0:
64,192,141881,128,0,141985:0:0:0:0:
192,192,141881,128,0,141985:0:0:0:0:
448,192,142088,128,0,142502:0:0:0:0:
64,192,142088,1,0,0:0:0:0:
192,192,142088,1,0,0:0:0:0:
64,192,142295,128,0,142399:0:0:0:0:
192,192,142295,128,0,142399:0:0:0:0:
64,192,142502,128,0,142916:0:0:0:0:
192,192,142502,1,0,0:0:0:0:
320,192,142709,128,0,142812:0:0:0:0:
448,192,142709,128,0,142812:0:0:0:0:
320,192,142916,1,0,0:0:0:0:
448,192,142916,1,0,0:0:0:0:
192,192,142916,1,0,0:0:0:0:
448,192,143123,128,0,143330:0:0:0:0:
192,192,143123,128,0,143330:0:0:0:0:
64,192,143330,1,0,0:0:0:0:
320,192,143330,1,0,0:0:0:0:
448,192,143433,1,0,0:0:0:0:
192,192,143433,1,0,0:0:0:0:
192,192,143640,1,0,0:0:0:0:
448,192,143640,1,0,0:0:0:0:
64,192,143743,1,0,0:0:0:0:
320,192,143743,1,0,0:0:0:0:
192,192,143743,1,0,0:0:0:0:
448,192,143847,1,0,0:0:0:0:
320,192,143847,1,0,0:0:0:0:
320,192,144054,1,0,0:0:0:0:
448,192,144054,1,0,0:0:0:0:
64,192,144157,1,0,0:0:0:0:
192,192,144157,1,0,0:0:0:0:
448,192,144261,1,0,0:0:0:0:
320,192,144261,1,0,0:0:0:0:
320,192,144468,1,0,0:0:0:0:
448,192,144468,1,0,0:0:0:0:
448,192,144571,1,0,0:0:0:0:
64,192,144571,1,0,0:0:0:0:
192,192,144571,1,0,0:0:0:0:
64,192,144674,1,0,0:0:0:0:
320,192,144674,1,0,0:0:0:0:
192,192,144778,128,0,144985:0:0:0:0:
448,192,144778,128,0,144985:0:0:0:0:
320,192,144985,128,0,145295:0:0:0:0:
64,192,144985,1,0,0:0:0:0:
448,192,145192,1,0,0:0:0:0:
64,192,145192,128,0,145502:0:0:0:0:
448,192,145399,1,0,0:0:0:0:
192,192,145399,128,0,145709:0:0:0:0:
320,192,145399,128,0,145709:0:0:0:0:
448,192,145605,128,0,145812:0:0:0:0:
64,192,145605,128,0,145812:0:0:0:0:
320,192,145812,1,0,0:0:0:0:
192,192,145812,1,0,0:0:0:0:
320,192,146019,1,0,0:0:0:0:
64,192,146019,1,0,0:0:0:0:
192,192,146019,1,0,0:0:0:0:
192,192,146226,1,0,0:0:0:0:
64,192,146226,1,0,0:0:0:0:
320,192,146226,1,0,0:0:0:0:
64,192,146433,128,0,146640:0:0:0:0:
448,192,146433,128,0,146640:0:0:0:0:
192,192,146640,128,0,147054:0:0:0:0:
320,192,146640,1,0,0:0:0:0:
320,192,146847,128,0,146950:0:0:0:0:
448,192,146847,128,0,146950:0:0:0:0:
320,192,147054,1,0,0:0:0:0:
64,192,147054,1,0,0:0:0:0:
448,192,147054,128,0,147468:0:0:0:0:
192,192,147261,128,0,147364:0:0:0:0:
64,192,147261,128,0,147364:0:0:0:0:
192,192,147468,1,0,0:0:0:0:
64,192,147468,1,0,0:0:0:0:
192,192,147674,1,0,0:0:0:0:
448,192,147778,1,0,0:0:0:0:
192,192,147881,1,0,0:0:0:0:
64,192,147881,1,0,0:0:0:0:
320,192,147881,1,0,0:0:0:0:
320,192,148088,128,0,148295:0:0:0:0:
192,192,148088,128,0,148295:0:0:0:0:
64,192,148295,128,0,148709:0:0:0:0:
448,192,148295,1,0,0:0:0:0:
320,192,148502,128,0,148605:0:0:0:0:
448,192,148502,128,0,148605:0:0:0:0:
448,192,148709,128,0,149123:0:0:0:0:
320,192,148709,1,0,0:0:0:0:
192,192,148709,1,0,0:0:0:0:
64,192,148916,128,0,149019:0:0:0:0:
192,192,148916,128,0,149019:0:0:0:0:
320,192,149123,128,0,149537:0:0:0:0:
192,192,149123,1,0,0:0:0:0:
192,192,149330,128,0,149433:0:0:0:0:
64,192,149330,128,0,149433:0:0:0:0:
448,192,149537,1,0,0:0:0:0:
64,192,149537,1,0,0:0:0:0:
192,192,149537,1,0,0:0:0:0:
448,192,149743,128,0,149950:0:0:0:0:
192,192,149743,128,0,149950:0:0:0:0:
64,192,149950,1,0,0:0:0:0:
320,192,149950,1,0,0:0:0:0:
320,192,150157,1,0,0:0:0:0:
64,192,150157,1,0,0:0:0:0:
448,192,150261,1,0,0:0:0:0:
192,192,150261,1,0,0:0:0:0:
320,192,150364,1,0,0:0:0:0:
64,192,150364,1,0,0:0:0:0:
192,192,150364,1,0,0:0:0:0:
64,192,150571,1,0,0:0:0:0:
192,192,150571,1,0,0:0:0:0:
448,192,150674,1,0,0:0:0:0:
320,192,150674,1,0,0:0:0:0:
64,192,150778,1,0,0:0:0:0:
192,192,150778,1,0,0:0:0:0:
64,192,150985,1,0,0:0:0:0:
192,192,150985,1,0,0:0:0:0:
448,192,151088,1,0,0:0:0:0:
320,192,151088,1,0,0:0:0:0:
320,192,151192,1,0,0:0:0:0:
64,192,151192,1,0,0:0:0:0:
192,192,151192,1,0,0:0:0:0:
320,192,151399,128,0,151605:0:0:0:0:
64,192,151399,128,0,151605:0:0:0:0:
448,192,151605,1,0,0:0:0:0:
192,192,151605,1,0,0:0:0:0:
192,192,151709,1,0,0:0:0:0:
320,192,151812,1,0,0:0:0:0:
192,192,151916,1,0,0:0:0:0:
64,192,152019,1,0,0:0:0:0:
320,192,152019,1,0,0:0:0:0:
320,192,152123,1,0,0:0:0:0:
192,192,152226,1,0,0:0:0:0:
320,192,152330,1,0,0:0:0:0:
64,192,152433,1,0,0:0:0:0:
448,192,152433,1,0,0:0:0:0:
448,192,152640,1,0,0:0:0:0:
64,192,152640,1,0,0:0:0:0:
448,192,152743,1,0,0:0:0:0:
64,192,152743,1,0,0:0:0:0:
448,192,152847,1,0,0:0:0:0:
64,192,152847,1,0,0:0:0:0:
64,192,153054,1,0,0:0:0:0:
448,192,153054,1,0,0:0:0:0:
64,192,153261,1,0,0:0:0:0:
192,192,153261,1,0,0:0:0:0:
448,192,153468,128,0,154088:0:0:0:0:
320,192,153674,1,0,0:0:0:0:
192,192,153674,1,0,0:0:0:0:
64,192,153674,1,0,0:0:0:0:
320,192,153881,128,0,154088:0:0:0:0:
64,192,154088,1,0,0:0:0:0:
192,192,154088,1,0,0:0:0:0:
448,192,154295,1,0,0:0:0:0:
320,192,154399,1,0,0:0:0:0:
192,192,154502,1,0,0:0:0:0:
64,192,154502,1,0,0:0:0:0:
448,192,154502,1,0,0:0:0:0:
448,192,154709,128,0,154916:0:0:0:0:
320,192,154916,1,0,0:0:0:0:
192,192,154916,1,0,0:0:0:0:
64,192,155123,128,0,155743:0:0:0:0:
320,192,155330,1,0,0:0:0:0:
192,192,155330,1,0,0:0:0:0:
448,192,155330,1,0,0:0:0:0:
448,192,155537,128,0,155743:0:0:0:0:
320,192,155743,1,0,0:0:0:0:
192,192,155743,1,0,0:0:0:0:
448,192,155950,128,0,156157:0:0:0:0:
320,192,156157,1,0,0:0:0:0:
192,192,156157,1,0,0:0:0:0:
64,192,156157,1,0,0:0:0:0:
448,192,156364,128,0,156571:0:0:0:0:
64,192,156571,1,0,0:0:0:0:
320,192,156571,1,0,0:0:0:0:
320,192,156778,1,0,0:0:0:0:
192,192,156881,1,0,0:0:0:0:
64,192,156985,1,0,0:0:0:0:
448,192,156985,1,0,0:0:0:0:
320,192,156985,1,0,0:0:0:0:
320,192,157088,1,0,0:0:0:0:
192,192,157295,1,0,0:0:0:0:
64,192,157399,1,0,0:0:0:0:
320,192,157399,1,0,0:0:0:0:
320,192,157502,1,0,0:0:0:0:
192,192,157709,1,0,0:0:0:0:
320,192,157812,1,0,0:0:0:0:
448,192,157812,1,0,0:0:0:0:
64,192,157812,1,0,0:0:0:0:
320,192,157916,1,0,0:0:0:0:
192,192,158019,128,0,158226:0:0:0:0:
320,192,158226,1,0,0:0:0:0:
448,192,158226,128,0,158950:0:0:0:0:
64,192,158433,128,0,158950:0:0:0:0:
320,192,158640,128,0,158950:0:0:0:0:
192,192,158640,1,0,0:0:0:0:
192,192,158847,128,0,158950:0:0:0:0:
320,192,159054,1,0,0:0:0:0:
448,192,159054,1,0,0:0:0:0:
192,192,159261,1,0,0:0:0:0:
64,192,159261,1,0,0:0:0:0:
448,192,159261,1,0,0:0:0:0:
448,192,159468,1,0,0:0:0:0:
192,192,159468,1,0,0:0:0:0:
64,192,159468,1,0,0:0:0:0:
192,192,159674,128,0,159881:0:0:0:0:
448,192,159881,1,0,0:0:0:0:
320,192,159881,1,0,0:0:0:0:
64,192,160088,128,0,160709:0:0:0:0:
192,192,160295,1,0,0:0:0:0:
320,192,160295,1,0,0:0:0:0:
448,192,160295,1,0,0:0:0:0:
192,192,160502,128,0,160709:0:0:0:0:
448,192,160709,1,0,0:0:0:0:
320,192,160709,1,0,0:0:0:0:
320,192,160916,1,0,0:0:0:0:
192,192,161019,1,0,0:0:0:0:
320,192,161123,1,0,0:0:0:0:
448,192,161123,1,0,0:0:0:0:
64,192,161123,1,0,0:0:0:0:
64,192,161330,128,0,161537:0:0:0:0:
192,192,161537,1,0,0:0:0:0:
320,192,161537,1,0,0:0:0:0:
448,192,161743,128,0,162364:0:0:0:0:
192,192,161950,1,0,0:0:0:0:
320,192,161950,1,0,0:0:0:0:
64,192,161950,1,0,0:0:0:0:
64,192,162157,128,0,162364:0:0:0:0:
192,192,162364,1,0,0:0:0:0:
320,192,162364,1,0,0:0:0:0:
64,192,162571,128,0,162778:0:0:0:0:
192,192,162778,1,0,0:0:0:0:
320,192,162778,1,0,0:0:0:0:
448,192,162778,1,0,0:0:0:0:
64,192,162985,128,0,163192:0:0:0:0:
448,192,163192,1,0,0:0:0:0:
192,192,163192,1,0,0:0:0:0:
192,192,163399,1,0,0:0:0:0:
192,192,163502,1,0,0:0:0:0:
448,192,163605,1,0,0:0:0:0:
64,192,163605,1,0,0:0:0:0:
320,192,163605,1,0,0:0:0:0:
192,192,163709,1,0,0:0:0:0:
320,192,163812,1,0,0:0:0:0:
320,192,163916,1,0,0:0:0:0:
448,192,164019,1,0,0:0:0:0:
192,192,164019,1,0,0:0:0:0:
192,192,164123,1,0,0:0:0:0:
192,192,164330,1,0,0:0:0:0:
192,192,164433,1,0,0:0:0:0:
64,192,164433,1,0,0:0:0:0:
448,192,164433,1,0,0:0:0:0:
320,192,164537,1,0,0:0:0:0:
192,192,164640,128,0,164847:0:0:0:0:
448,192,164847,1,0,0:0:0:0:
64,192,164847,1,0,0:0:0:0:
448,192,164950,1,0,0:0:0:0:
64,192,165054,1,0,0:0:0:0:
448,192,165157,1,0,0:0:0:0:
64,192,165261,1,0,0:0:0:0:
320,192,165261,1,0,0:0:0:0:
64,192,165364,1,0,0:0:0:0:
448,192,165468,1,0,0:0:0:0:
64,192,165571,1,0,0:0:0:0:
192,192,165674,1,0,0:0:0:0:
448,192,165674,1,0,0:0:0:0:
448,192,165881,1,0,0:0:0:0:
192,192,165881,1,0,0:0:0:0:
192,192,165985,1,0,0:0:0:0:
448,192,165985,1,0,0:0:0:0:
448,192,166088,1,0,0:0:0:0:
192,192,166088,1,0,0:0:0:0:
448,192,166295,1,0,0:0:0:0:
192,192,166295,1,0,0:0:0:0:
320,192,166502,1,0,0:0:0:0:
192,192,166502,1,0,0:0:0:0:
192,192,166709,1,0,0:0:0:0:
192,192,166812,1,0,0:0:0:0:
320,192,166916,1,0,0:0:0:0:
448,192,166916,1,0,0:0:0:0:
448,192,167123,1,0,0:0:0:0:
320,192,167226,1,0,0:0:0:0:
192,192,167330,1,0,0:0:0:0:
64,192,167330,1,0,0:0:0:0:
192,192,167537,1,0,0:0:0:0:
192,192,167640,1,0,0:0:0:0:
320,192,167743,1,0,0:0:0:0:
448,192,167743,1,0,0:0:0:0:
320,192,167847,1,0,0:0:0:0:
192,192,167950,1,0,0:0:0:0:
192,192,168054,1,0,0:0:0:0:
320,192,168157,1,0,0:0:0:0:
64,192,168157,1,0,0:0:0:0:
320,192,168364,128,0,168468:0:0:0:0:
448,192,168364,128,0,168468:0:0:0:0:
320,192,168571,128,0,168674:0:0:0:0:
448,192,168571,128,0,168985:0:0:0:0:
192,192,168778,128,0,168881:0:0:0:0:
320,192,168778,128,0,168881:0:0:0:0:
64,192,168985,128,0,169709:0:0:0:0:
192,192,168985,1,0,0:0:0:0:
192,192,169192,128,0,169709:0:0:0:0:
320,192,169192,1,0,0:0:0:0:
320,192,169399,128,0,169709:0:0:0:0:
448,192,169399,1,0,0:0:0:0:
448,192,169605,128,0,169709:0:0:0:0:
192,192,169812,1,0,0:0:0:0:
64,192,169812,1,0,0:0:0:0:
448,192,169916,128,0,170123:0:0:0:0:
320,192,170019,128,0,170226:0:0:0:0:
192,192,170123,128,0,170330:0:0:0:0:
64,192,170226,128,0,170640:0:0:0:0:
448,192,170330,128,0,170537:0:0:0:0:
320,192,170433,1,0,0:0:0:0:
192,192,170537,128,0,170743:0:0:0:0:
320,192,170640,128,0,170847:0:0:0:0:
448,192,170743,128,0,170950:0:0:0:0:
64,192,170847,128,0,171261:0:0:0:0:
192,192,170950,128,0,171157:0:0:0:0:
320,192,171054,1,0,0:0:0:0:
448,192,171157,128,0,171364:0:0:0:0:
320,192,171261,128,0,171468:0:0:0:0:
192,192,171364,128,0,171468:0:0:0:0:
448,192,171468,128,0,171778:0:0:0:0:
64,192,171468,1,0,0:0:0:0:
192,192,171674,1,0,0:0:0:0:
64,192,171674,128,0,171985:0:0:0:0:
448,192,171881,1,0,0:0:0:0:
320,192,171881,128,0,172192:0:0:0:0:
64,192,172088,1,0,0:0:0:0:
192,192,172088,128,0,172295:0:0:0:0:
64,192,172295,1,0,0:0:0:0:
320,192,172295,1,0,0:0:0:0:
448,192,172295,1,0,0:0:0:0:
448,192,172605,1,0,0:0:0:0:
64,192,172605,1,0,0:0:0:0:
64,192,172709,1,0,0:0:0:0:
448,192,172709,1,0,0:0:0:0:
448,192,172916,1,0,0:0:0:0:
64,192,172916,1,0,0:0:0:0:
192,192,173123,1,0,0:0:0:0:
64,192,173123,1,0,0:0:0:0:
320,192,173330,128,0,173537:0:0:0:0:
64,192,173537,1,0,0:0:0:0:
192,192,173537,1,0,0:0:0:0:
448,192,173537,1,0,0:0:0:0:
320,192,173743,128,0,173950:0:0:0:0:
192,192,173950,128,0,174157:0:0:0:0:
448,192,173950,1,0,0:0:0:0:
192,192,174261,128,0,174468:0:0:0:0:
320,192,174364,1,0,0:0:0:0:
448,192,174364,1,0,0:0:0:0:
64,192,174364,1,0,0:0:0:0:
192,192,174571,128,0,174778:0:0:0:0:
320,192,174778,1,0,0:0:0:0:
448,192,174778,1,0,0:0:0:0:
64,192,174985,128,0,175192:0:0:0:0:
192,192,175192,1,0,0:0:0:0:
320,192,175192,1,0,0:0:0:0:
448,192,175192,1,0,0:0:0:0:
64,192,175399,128,0,175605:0:0:0:0:
320,192,175605,128,0,176019:0:0:0:0:
192,192,175605,1,0,0:0:0:0:
192,192,175812,1,0,0:0:0:0:
64,192,175812,1,0,0:0:0:0:
448,192,175812,1,0,0:0:0:0:
448,192,176019,1,0,0:0:0:0:
192,192,176019,1,0,0:0:0:0:
64,192,176019,1,0,0:0:0:0:
320,192,176226,128,0,176433:0:0:0:0:
64,192,176433,128,0,176743:0:0:0:0:
448,192,176433,1,0,0:0:0:0:
192,192,176640,128,0,176847:0:0:0:0:
64,192,176847,128,0,177157:0:0:0:0:
320,192,176847,1,0,0:0:0:0:
448,192,176847,1,0,0:0:0:0:
192,192,176950,128,0,177157:0:0:0:0:
448,192,177157,128,0,177364:0:0:0:0:
64,192,177261,1,0,0:0:0:0:
320,192,177261,128,0,177571:0:0:0:0:
448,192,177468,128,0,177674:0:0:0:0:
320,192,177674,128,0,177881:0:0:0:0:
192,192,177674,1,0,0:0:0:0:
64,192,177674,1,0,0:0:0:0:
448,192,177778,128,0,177985:0:0:0:0:
320,192,177985,1,0,0:0:0:0:
192,192,178088,1,0,0:0:0:0:
64,192,178088,1,0,0:0:0:0:
448,192,178295,128,0,178812:0:0:0:0:
64,192,178502,1,0,0:0:0:0:
192,192,178502,1,0,0:0:0:0:
320,192,178605,1,0,0:0:0:0:
192,192,178709,1,0,0:0:0:0:
64,192,178812,1,0,0:0:0:0:
448,192,178916,1,0,0:0:0:0:
320,192,178916,128,0,179330:0:0:0:0:
64,192,179123,1,0,0:0:0:0:
192,192,179123,1,0,0:0:0:0:
448,192,179123,1,0,0:0:0:0:
448,192,179330,1,0,0:0:0:0:
192,192,179330,1,0,0:0:0:0:
64,192,179330,1,0,0:0:0:0:
320,192,179433,1,0,0:0:0:0:
192,192,179537,1,0,0:0:0:0:
320,192,179640,1,0,0:0:0:0:
64,192,179743,1,0,0:0:0:0:
448,192,179743,1,0,0:0:0:0:
192,192,179950,128,0,180157:0:0:0:0:
320,192,180157,1,0,0:0:0:0:
448,192,180157,1,0,0:0:0:0:
64,192,180157,1,0,0:0:0:0:
192,192,180364,128,0,180571:0:0:0:0:
448,192,180571,128,0,180778:0:0:0:0:
320,192,180571,1,0,0:0:0:0:
448,192,180881,128,0,181088:0:0:0:0:
320,192,180985,1,0,0:0:0:0:
192,192,180985,1,0,0:0:0:0:
64,192,180985,1,0,0:0:0:0:
448,192,181192,128,0,181399:0:0:0:0:
64,192,181399,1,0,0:0:0:0:
192,192,181399,1,0,0:0:0:0:
320,192,181605,128,0,181812:0:0:0:0:
64,192,181812,1,0,0:0:0:0:
192,192,181812,1,0,0:0:0:0:
448,192,181812,1,0,0:0:0:0:
320,192,182019,128,0,182226:0:0:0:0:
64,192,182226,128,0,182640:0:0:0:0:
192,192,182226,1,0,0:0:0:0:
192,192,182433,1,0,0:0:0:0:
320,192,182433,1,0,0:0:0:0:
448,192,182433,1,0,0:0:0:0:
192,192,182640,1,0,0:0:0:0:
448,192,182640,1,0,0:0:0:0:
320,192,182640,1,0,0:0:0:0:
320,192,182847,128,0,183054:0:0:0:0:
64,192,183054,128,0,183364:0:0:0:0:
192,192,183054,1,0,0:0:0:0:
192,192,183261,128,0,183468:0:0:0:0:
64,192,183468,128,0,183881:0:0:0:0:
320,192,183468,1,0,0:0:0:0:
448,192,183468,1,0,0:0:0:0:
192,192,183571,128,0,183778:0:0:0:0:
448,192,183778,128,0,183985:0:0:0:0:
320,192,183881,128,0,184192:0:0:0:0:
192,192,183881,1,0,0:0:0:0:
448,192,184088,128,0,184295:0:0:0:0:
320,192,184295,128,0,184605:0:0:0:0:
192,192,184295,1,0,0:0:0:0:
64,192,184295,1,0,0:0:0:0:
448,192,184399,128,0,184709:0:0:0:0:
64,192,184605,128,0,184709:0:0:0:0:
320,192,184709,1,0,0:0:0:0:
192,192,184709,128,0,185019:0:0:0:0:
64,192,184812,128,0,185123:0:0:0:0:
448,192,185019,128,0,185123:0:0:0:0:
192,192,185123,1,0,0:0:0:0:
320,192,185123,128,0,185433:0:0:0:0:
448,192,185226,128,0,185433:0:0:0:0:
64,192,185433,128,0,185537:0:0:0:0:
192,192,185537,1,0,0:0:0:0:
320,192,185537,1,0,0:0:0:0:
448,192,185537,1,0,0:0:0:0:
320,192,185743,1,0,0:0:0:0:
320,192,185847,1,0,0:0:0:0:
64,192,185950,1,0,0:0:0:0:
320,192,186054,1,0,0:0:0:0:
320,192,186157,1,0,0:0:0:0:
320,192,186261,1,0,0:0:0:0:
64,192,186364,128,0,186674:0:0:0:0:
192,192,186364,128,0,186571:0:0:0:0:
448,192,186364,128,0,186674:0:0:0:0:
320,192,186571,128,0,186881:0:0:0:0:
192,192,186674,128,0,187088:0:0:0:0:
64,192,186778,128,0,187088:0:0:0:0:
448,192,186778,128,0,187295:0:0:0:0:
320,192,186985,128,0,187502:0:0:0:0:
192,192,187192,128,0,187399:0:0:0:0:
64,192,187192,128,0,187502:0:0:0:0:
448,192,187399,128,0,187709:0:0:0:0:
192,192,187502,128,0,188123:0:0:0:0:
64,192,187605,128,0,187916:0:0:0:0:
320,192,187605,128,0,187916:0:0:0:0:
448,192,187812,128,0,188330:0:0:0:0:
320,192,188019,128,0,188330:0:0:0:0:
64,192,188019,128,0,188226:0:0:0:0:
192,192,188226,128,0,188537:0:0:0:0:
64,192,188330,128,0,188743:0:0:0:0:
448,192,188433,128,0,188743:0:0:0:0:
320,192,188433,128,0,189054:0:0:0:0:
192,192,188640,128,0,188950:0:0:0:0:
64,192,188847,128,0,189157:0:0:0:0:
448,192,188847,128,0,189157:0:0:0:0:
192,192,189054,128,0,189571:0:0:0:0:
320,192,189157,128,0,189364:0:0:0:0:
64,192,189261,128,0,189571:0:0:0:0:
448,192,189261,128,0,189985:0:0:0:0:
320,192,189468,128,0,189778:0:0:0:0:
192,192,189674,128,0,189985:0:0:0:0:
64,192,189674,128,0,189881:0:0:0:0:
320,192,189881,128,0,190192:0:0:0:0:
64,192,189985,128,0,190399:0:0:0:0:
448,192,190088,128,0,190399:0:0:0:0:
192,192,190088,128,0,190709:0:0:0:0:
320,192,190295,128,0,190605:0:0:0:0:
448,192,190502,128,0,190812:0:0:0:0:
64,192,190502,128,0,190812:0:0:0:0:
320,192,190709,128,0,191019:0:0:0:0:
192,192,190812,128,0,191226:0:0:0:0:
448,192,190916,128,0,191226:0:0:0:0:
64,192,190916,128,0,191433:0:0:0:0:
320,192,191123,128,0,191640:0:0:0:0:
192,192,191330,128,0,191537:0:0:0:0:
448,192,191330,128,0,191640:0:0:0:0:
64,192,191537,128,0,191847:0:0:0:0:
192,192,191640,128,0,192054:0:0:0:0:
320,192,191743,128,0,192054:0:0:0:0:
448,192,191743,128,0,192261:0:0:0:0:
64,192,191950,128,0,192468:0:0:0:0:
192,192,192157,128,0,192468:0:0:0:0:
320,192,192157,128,0,192364:0:0:0:0:
448,192,192364,128,0,192674:0:0:0:0:
320,192,192468,128,0,192881:0:0:0:0:
192,192,192571,128,0,192881:0:0:0:0:
64,192,192571,128,0,192881:0:0:0:0:
448,192,192778,128,0,193295:0:0:0:0:
192,192,192985,128,0,193192:0:0:0:0:
320,192,192985,128,0,193295:0:0:0:0:
64,192,192985,128,0,193088:0:0:0:0:
64,192,193192,128,0,193709:0:0:0:0:
192,192,193295,128,0,193502:0:0:0:0:
448,192,193399,128,0,193709:0:0:0:0:
320,192,193399,128,0,193916:0:0:0:0:
192,192,193605,128,0,194019:0:0:0:0:
64,192,193812,128,0,194123:0:0:0:0:
448,192,193812,128,0,194123:0:0:0:0:
320,192,194019,128,0,194537:0:0:0:0:
192,192,194123,128,0,194330:0:0:0:0:
448,192,194226,128,0,194537:0:0:0:0:
64,192,194226,128,0,194950:0:0:0:0:
192,192,194433,128,0,194743:0:0:0:0:
320,192,194640,128,0,194950:0:0:0:0:
448,192,194640,128,0,194847:0:0:0:0:
192,192,194847,128,0,195157:0:0:0:0:
448,192,194950,128,0,195364:0:0:0:0:
64,192,195054,128,0,195364:0:0:0:0:
320,192,195054,128,0,195674:0:0:0:0:
192,192,195261,128,0,195571:0:0:0:0:
448,192,195468,128,0,195778:0:0:0:0:
64,192,195468,128,0,195778:0:0:0:0:
192,192,195674,128,0,196192:0:0:0:0:
320,192,195778,128,0,195985:0:0:0:0:
64,192,195881,128,0,196192:0:0:0:0:
448,192,195881,128,0,196399:0:0:0:0:
320,192,196088,128,0,196605:0:0:0:0:
192,192,196295,128,0,196605:0:0:0:0:
64,192,196295,128,0,196502:0:0:0:0:
448,192,196502,128,0,196812:0:0:0:0:
64,192,196605,128,0,197019:0:0:0:0:
192,192,196709,128,0,197019:0:0:0:0:
320,192,196709,128,0,197226:0:0:0:0:
448,192,196916,128,0,197330:0:0:0:0:
64,192,197123,128,0,197433:0:0:0:0:
192,192,197123,128,0,197433:0:0:0:0:
320,192,197330,128,0,197640:0:0:0:0:
448,192,197433,128,0,197847:0:0:0:0:
64,192,197537,128,0,197847:0:0:0:0:
192,192,197537,128,0,197847:0:0:0:0:
320,192,197743,128,0,197847:0:0:0:0:
448,192,197950,1,0,0:0:0:0:
64,192,197950,1,0,0:0:0:0:
192,192,197950,1,0,0:0:0:0:
192,192,198054,1,0,0:0:0:0:
64,192,198054,1,0,0:0:0:0:
448,192,198054,1,0,0:0:0:0:
64,192,198261,1,0,0:0:0:0:
320,192,198261,1,0,0:0:0:0:
448,192,198261,1,0,0:0:0:0:
192,192,198468,1,0,0:0:0:0:
64,192,198468,1,0,0:0:0:0:
448,192,198468,1,0,0:0:0:0:
64,192,198674,1,0,0:0:0:0:
320,192,198674,1,0,0:0:0:0:
448,192,198674,1,0,0:0:0:0:
448,192,198778,1,0,0:0:0:0:
320,192,198778,1,0,0:0:0:0:
64,192,198778,1,0,0:0:0:0:
192,192,198881,1,0,0:0:0:0:
192,192,198985,1,0,0:0:0:0:
320,192,199088,1,0,0:0:0:0:
448,192,199088,1,0,0:0:0:0:
320,192,199192,1,0,0:0:0:0:
448,192,199192,1,0,0:0:0:0:
64,192,199295,1,0,0:0:0:0:
64,192,199399,1,0,0:0:0:0:
64,192,199502,1,0,0:0:0:0:
192,192,199605,1,0,0:0:0:0:
320,192,199605,1,0,0:0:0:0:
448,192,199605,1,0,0:0:0:0:
192,192,199709,1,0,0:0:0:0:
320,192,199709,1,0,0:0:0:0:
448,192,199709,1,0,0:0:0:0:
320,192,199916,1,0,0:0:0:0:
192,192,199916,1,0,0:0:0:0:
64,192,199916,1,0,0:0:0:0:
192,192,200123,1,0,0:0:0:0:
320,192,200123,1,0,0:0:0:0:
448,192,200123,1,0,0:0:0:0:
320,192,200330,1,0,0:0:0:0:
192,192,200330,1,0,0:0:0:0:
64,192,200330,1,0,0:0:0:0:
320,192,200433,1,0,0:0:0:0:
192,192,200433,1,0,0:0:0:0:
64,192,200433,1,0,0:0:0:0:
