osu file format v14

[General]
AudioFilename: audio.mp3
AudioLeadIn: 0
PreviewTime: 45252
Countdown: 0
SampleSet: Soft
StackLeniency: 0.5
Mode: 0
LetterboxInBreaks: 0
WidescreenStoryboard: 0

[Editor]
Bookmarks: 45261
DistanceSpacing: 1
BeatDivisor: 4
GridSize: 32
TimelineZoom: 3.099999

[Metadata]
Title:Le zoo (TV Size)
TitleUnicode:Le zoo (TV Size)
Artist:YURiKA
ArtistUnicode:YURiKA
Creator:-Keitaro
Version:Mindmaster's Le predateur
Source:BEASTARS
Tags:ending ed anime japanese mindmaster107 ビースターズ legosi legoshi louis studio orange itagaki
BeatmapID:2199558
BeatmapSetID:1052509

[Difficulty]
HPDrainRate:5
CircleSize:4
OverallDifficulty:8
ApproachRate:9
SliderMultiplier:2
SliderTickRate:1

[Events]
//Background and Video events
Video,-696,"beasat.mp4"
0,0,"bggggggg.jpg",0,0
//Break Periods
//Storyboard Layer 0 (Background)
//Storyboard Layer 1 (Fail)
//Storyboard Layer 2 (Pass)
//Storyboard Layer 3 (Foreground)
//Storyboard Layer 4 (Overlay)
//Storyboard Sound Samples

[TimingPoints]
526,538.116591928251,4,2,22,50,1,0
526,-83.3333333333334,4,2,22,50,0,0
1627,545.454545454546,4,2,22,50,1,0
1627,-90.9090909090909,4,2,22,50,0,0
8164,545.454545454546,4,2,22,50,1,0
8164,-90.9090909090909,4,2,22,50,0,0
10343,545.454545454546,4,2,22,45,1,0
10343,-90.9090909090909,4,2,22,45,0,0
10888,-111.111111111111,4,2,22,45,0,0
27797,-111.111111111111,4,2,22,50,0,0
28070,-90.9090909090909,4,2,22,50,0,0
40888,-83.3333333333333,4,2,22,55,0,0
43343,-100,4,2,22,55,0,0
45252,-100,4,2,22,60,0,1
45525,-71.4285714285714,4,2,22,60,0,1
69275,545.454545454546,4,2,22,60,1,1
70365,-71.4285714285714,4,2,22,60,0,1
70888,545.454545454546,4,2,22,60,1,1
71433,545.454545454546,4,2,22,60,1,1
71433,-71.4285714285714,4,2,22,60,0,1
77978,-100,4,2,22,60,0,0
79614,-100,4,2,22,60,0,0
80168,545.454545454546,4,2,22,60,1,0
80168,-90.9090909090909,4,2,22,60,0,0
88758,-90.9090909090909,4,2,22,5,0,0

[Colours]
Combo1 : 113,188,67
Combo2 : 0,128,255
Combo3 : 13,157,157
Combo4 : 118,102,73

[HitObjects]
59,192,526,6,0,P|38:232|36:278,1,60.2359981689454,12|4,2:0|2:3,2:0:0:0:
194,282,795,2,0,P|209:307|217:336,1,60.2359981689454,4|4,2:3|2:3,2:0:0:0:
33,360,1064,1,8,2:0:0:0:
112,382,1198,2,0,L|119:259,1,120.025996337891,4|0,2:3|2:0,2:0:0:0:
146,104,1627,6,0,P|175:179|269:184,1,165.000005035401,4|0,2:0|2:0,2:0:0:0:
288,27,2172,2,0,P|243:57|227:109,1,110.293336690267,8|0,2:0|2:0,2:0:0:0:
390,48,2717,1,0,1:0:0:0:
390,48,2854,1,8,2:0:0:0:
390,48,2990,1,0,1:0:0:0:
147,76,3263,1,8,2:0:0:0:
304,134,3536,1,0,1:0:0:0:
473,67,3808,6,0,P|523:127|497:202,1,165.036671702068,0|0,1:0|2:0,2:0:0:0:
335,154,4354,2,0,P|383:130|435:142,1,110.293336690267,8|0,2:0|2:0,2:0:0:0:
496,287,4899,1,0,1:0:0:0:
496,287,5036,1,8,2:0:0:0:
496,287,5172,1,0,1:0:0:0:
317,298,5445,1,8,0:0:0:0:
315,310,5581,1,0,1:0:0:0:
313,322,5717,1,0,1:0:0:0:
392,209,5990,5,0,1:0:0:0:
421,360,6263,2,0,B|412:306,2,55.1466683451335,0|0|8,1:0|1:0|2:0,2:0:0:0:
317,298,6808,1,0,1:0:0:0:
297,277,6945,1,0,1:0:0:0:
288,252,7081,1,0,1:0:0:0:
286,225,7217,1,8,2:0:0:0:
294,199,7354,1,0,1:0:0:0:
268,358,7627,6,0,P|213:349|151:321,1,110.293336690267,8|0,2:0|2:0,2:0:0:0:
107,211,8036,1,0,1:0:0:0:
173,153,8164,2,0,P|192:205|199:272,1,110.293336690267,0|0,1:0|2:0,2:0:0:0:
27,279,8709,2,0,P|7:331|0:398,1,110.293336690267,8|0,2:0|1:0,2:0:0:0:
87,124,9118,1,8,2:0:0:0:
2,185,9254,2,0,P|54:204|116:208,1,110.293336690267,8|4,2:0|3:0,2:0:0:0:
279,128,9800,1,8,2:0:0:0:
187,157,9936,1,0,1:0:0:0:
282,374,10343,5,4,2:0:0:0:
282,374,10888,2,0,L|275:325,1,45.119998626709,10|0,2:0|2:0,2:0:0:0:
352,302,11161,2,0,L|322:262,1,45.119998626709,2|2,2:0|2:0,2:0:0:0:
377,204,11434,2,0,L|332:184,1,45.119998626709,2|0,1:2|2:0,2:0:0:0:
349,106,11706,1,2,2:0:0:0:
349,106,11843,2,0,L|300:111,1,45.119998626709,2|8,2:0|2:0,2:0:0:0:
468,217,12252,2,0,L|516:222,2,45.119998626709,0|0|2,2:0|2:0|1:2,2:0:0:0:
146,25,13070,6,0,L|150:74,1,45.119998626709,10|0,2:0|2:0,2:0:0:0:
241,161,13343,2,0,L|195:140,1,45.119998626709,2|2,2:0|2:0,2:0:0:0:
75,175,13616,1,2,1:2:0:0:
266,41,13888,1,2,2:0:0:0:
266,41,14025,2,0,L|229:67,1,45.119998626709,2|8,2:0|2:0,2:0:0:0:
75,175,14297,2,0,L|111:148,1,45.119998626709,2|0,2:0|2:0,2:0:0:0:
36,376,14706,5,2,1:2:0:0:
36,376,15252,2,0,L|84:382,1,45.119998626709,10|0,2:0|2:0,2:0:0:0:
108,306,15525,2,0,L|147:335,1,45.119998626709,2|2,2:0|2:0,2:0:0:0:
206,281,15797,2,0,L|225:325,1,45.119998626709,2|0,1:2|2:0,2:0:0:0:
304,309,16070,1,2,2:0:0:0:
304,309,16206,2,0,L|298:357,1,45.119998626709,2|8,2:0|2:0,2:0:0:0:
472,376,16616,5,2,2:0:0:0:
472,376,16752,1,2,2:0:0:0:
471,375,16888,2,0,P|470:322|456:256,1,90.2399972534182,2|2,1:2|2:0,2:0:0:0:
351,304,17297,1,2,2:0:0:0:
404,241,17434,2,0,L|411:118,1,90.2399972534182,8|0,2:0|2:0,2:0:0:0:
298,39,17843,2,0,L|300:83,1,45.119998626709,2|0,2:0|1:0,2:0:0:0:
302,190,18252,5,2,2:0:0:0:
439,13,18525,1,10,2:0:0:0:
437,37,18661,1,0,2:0:0:0:
436,62,18797,1,2,2:0:0:0:
147,26,19070,5,0,1:0:0:0:
147,26,19616,2,0,L|145:75,1,45.119998626709,10|2,2:0|2:0,2:0:0:0:
65,84,19888,2,0,L|87:128,1,45.119998626709,2|2,2:0|2:0,2:0:0:0:
23,176,20161,2,0,L|63:203,1,45.119998626709,2|0,1:2|2:0,2:0:0:0:
34,278,20434,1,2,2:0:0:0:
34,278,20570,2,0,L|83:281,1,45.119998626709,2|8,2:0|2:0,2:0:0:0:
199,368,20979,2,0,L|151:373,2,45.119998626709,2|2|2,2:0|2:0|1:2,2:0:0:0:
334,381,21525,5,2,2:0:0:0:
334,381,21661,2,0,L|329:327,1,45.119998626709,2|8,2:0|2:0,2:0:0:0:
279,225,21934,1,2,2:0:0:0:
279,225,22070,2,0,L|329:248,2,45.119998626709,2|0|0,2:0|2:0|1:0,2:0:0:0:
440,255,22616,2,0,L|394:287,1,45.119998626709,2|0,2:0|2:0,2:0:0:0:
334,381,22888,2,0,L|329:327,1,45.119998626709,10|0,2:0|2:0,2:0:0:0:
279,225,23161,1,2,2:0:0:0:
512,125,23434,5,0,1:0:0:0:
512,125,23979,2,0,L|463:122,1,45.119998626709,10|2,2:0|2:0,2:0:0:0:
453,43,24252,2,0,L|409:64,1,45.119998626709,2|2,2:0|2:0,2:0:0:0:
361,1,24525,2,0,L|334:41,1,45.119998626709,2|0,1:2|2:0,2:0:0:0:
259,12,24797,1,2,2:0:0:0:
259,12,24934,2,0,L|256:60,1,45.119998626709,2|8,2:0|2:0,2:0:0:0:
0,129,25343,5,2,2:0:0:0:
0,129,25479,1,2,2:0:0:0:
1,128,25616,2,0,P|54:127|120:113,1,90.2399972534182,2|2,1:2|2:0,2:0:0:0:
131,219,26025,2,0,P|104:218|71:211,1,45.119998626709,2|8,2:0|2:0,2:0:0:0:
180,144,26297,2,0,P|206:143|239:136,1,45.119998626709,2|0,2:0|2:0,2:0:0:0:
229,313,26570,5,2,2:0:0:0:
229,313,26706,2,0,P|222:269|224:206,1,90.2399972534182,2|2,1:2|1:2,2:0:0:0:
319,295,27116,1,8,2:0:0:0:
319,295,27252,1,10,2:0:0:0:
318,325,27388,1,0,1:0:0:0:
313,355,27525,1,2,2:0:0:0:
505,148,27797,5,4,1:2:0:0:
448,368,28070,2,0,L|441:241,1,110.293336690267,0|10,1:0|2:0,2:0:0:0:
441,258,28888,2,0,P|401:300|317:327,1,110.293336690267,2|0,1:2|2:0,2:0:0:0:
293,232,29297,2,0,P|279:288|220:353,1,110.293336690267,2|0,1:2|2:0,2:0:0:0:
101,223,29706,2,0,P|183:186|173:276,1,220.183340047201,2|2,1:2|1:2,2:0:0:0:
318,58,30525,1,10,2:0:0:0:
156,112,30797,1,2,1:2:0:0:
156,112,30934,1,0,1:0:0:0:
156,112,31070,2,0,P|233:132|288:133,1,110.293336690267,10|0,2:0|2:0,2:0:0:0:
284,212,31479,1,0,1:0:0:0:
335,84,31616,2,0,P|412:64|467:63,1,110.293336690267,10|0,2:0|1:0,2:0:0:0:
7,148,32161,5,0,1:0:0:0:
64,368,32434,2,0,L|71:241,1,110.293336690267,0|10,1:0|2:0,2:0:0:0:
70,258,33252,2,0,P|110:300|194:327,1,110.293336690267,2|0,1:2|2:0,2:0:0:0:
291,177,33661,2,0,P|234:190|169:249,1,110.293336690267,2|0,1:2|2:0,2:0:0:0:
351,310,34070,2,0,P|268:272|278:362,1,220.183340047201,2|2,1:2|1:2,2:0:0:0:
458,222,34888,1,10,2:0:0:0:
458,222,35025,1,0,1:0:0:0:
458,222,35161,2,0,P|448:183|447:156,1,55.1466683451335,2|0,2:0|1:0,2:0:0:0:
490,384,35434,2,0,P|510:307|511:252,1,110.293336690267,10|0,2:0|2:0,2:0:0:0:
438,68,35843,1,0,1:0:0:0:
364,149,35979,2,0,P|369:203|385:256,1,110.293336690267,10|0,2:0|1:0,2:0:0:0:
256,0,36525,5,4,1:2:0:0:
256,224,36797,2,0,L|256:96,1,110.293336690267,0|10,1:0|2:0,2:0:0:0:
256,114,37616,2,0,P|233:96|209:83,1,55.1466683451335,2|0,1:2|2:0,2:0:0:0:
141,142,37888,1,2,2:0:0:0:
141,142,38025,2,0,P|82:139|4:179,1,110.293336690267,2|0,1:2|2:0,2:0:0:0:
73,287,38434,1,2,1:2:0:0:
73,287,38570,1,2,2:0:0:0:
73,287,38706,2,0,P|70:236|119:220,1,110.293336690267,2|2,2:0|1:2,2:0:0:0:
4,349,39252,2,0,P|53:360|129:399,1,110.293336690267,10|2,2:0|1:2,2:0:0:0:
261,252,39797,5,10,2:0:0:0:
446,210,40070,1,2,2:0:0:0:
190,185,40343,1,10,2:0:0:0:
512,283,40616,1,2,1:2:0:0:
512,283,40752,1,0,1:0:0:0:
512,283,40888,6,0,L|354:298,2,120.099996337891,4|0|8,1:2|1:0|2:0,2:0:0:0:
256,224,41706,1,0,1:0:0:0:
0,283,41979,6,0,L|158:298,1,120.319996337891,0|0,1:0|1:0,2:0:0:0:
221,376,42388,1,0,1:0:0:0:
221,376,42525,2,0,L|101:364,1,120.319996337891,8|0,2:0|1:0,2:0:0:0:
254,97,43070,5,8,2:0:0:0:
254,97,43206,1,4,3:0:0:0:
254,97,43343,2,0,L|245:212,1,100.266666666667,4|8,3:0|2:0,2:0:0:0:
256,224,43752,1,4,3:0:0:0:
396,50,44025,5,8,2:0:0:0:
423,134,44161,1,8,2:0:0:0:
83,127,44434,5,8,2:0:0:0:
75,142,44570,1,4,3:0:0:0:
70,157,44706,1,4,3:0:0:0:
66,174,44843,1,4,2:3:0:0:
64,190,44979,1,4,3:0:0:0:
63,207,45116,1,4,2:3:0:0:
64,223,45252,5,6,1:2:0:0:
68,227,45525,2,0,P|101:213|135:206,1,70.1866645304363,2|0,1:2|1:0,2:0:0:0:
221,279,45797,2,0,P|253:292|287:299,1,70.1866645304363,10|0,2:0|2:0,2:0:0:0:
129,310,46070,1,2,1:2:0:0:
342,197,46206,2,0,P|369:261|382:329,1,140.373329060872,2|0,1:2|2:0,2:0:0:0:
271,382,46616,5,2,1:2:0:0:
441,184,46888,1,10,2:0:0:0:
193,118,47161,1,2,1:2:0:0:
322,197,47297,2,0,P|253:192|231:185,1,70.1866645304363,2|0,1:2|1:0,2:0:0:0:
480,45,47706,1,0,1:0:0:0:
480,45,47843,1,0,1:0:0:0:
480,45,47979,2,0,P|445:44|410:50,1,70.1866645304363,8|0,2:0|2:0,2:0:0:0:
357,118,48252,6,0,P|287:119|218:107,1,140.373329060872,2|0,1:2|1:0,2:0:0:0:
410,190,48797,1,2,1:2:0:0:
193,118,49070,2,0,P|158:122|123:129,1,70.1866645304363,10|0,2:0|2:0,2:0:0:0:
13,173,49343,1,2,1:2:0:0:
127,48,49479,1,2,1:2:0:0:
66,279,49616,5,0,1:0:0:0:
66,279,49888,2,0,P|33:265|-1:258,1,70.1866645304363,2|0,1:2|1:0,2:0:0:0:
139,221,50161,2,0,P|171:208|205:201,1,70.1866645304363,10|0,2:0|2:0,2:0:0:0:
158,346,50434,1,2,1:2:0:0:
279,230,50570,2,0,P|306:294|319:362,1,140.373329060872,2|0,1:2|2:0,2:0:0:0:
164,338,50979,2,0,P|185:310|211:287,1,70.1866645304363,2|0,1:2|2:0,2:0:0:0:
440,174,51252,6,0,P|413:238|400:306,1,140.373329060872,10|2,2:0|1:2,2:0:0:0:
512,265,51661,1,2,1:2:0:0:
372,93,51797,2,0,P|316:134|271:187,1,140.373329060872,0|0,1:0|1:0,2:0:0:0:
270,188,52206,1,0,1:0:0:0:
270,188,52343,1,8,2:0:0:0:
136,32,52616,5,2,1:2:0:0:
136,32,52752,1,0,1:0:0:0:
136,32,52888,2,0,P|171:45|206:53,1,70.1866645304363,0|0,1:0|2:0,2:0:0:0:
366,65,53161,2,0,P|335:87|303:104,1,70.1866645304363,2|0,1:2|2:0,2:0:0:0:
88,125,53434,2,0,P|112:154|138:178,1,70.1866645304363,10|0,2:0|2:0,2:0:0:0:
380,49,53706,1,2,1:2:0:0:
428,146,53843,2,0,P|412:180|392:211,1,70.1866645304363,2|0,1:2|1:0,2:0:0:0:
495,360,54252,6,0,P|467:338|437:320,1,70.1866645304363,2|0,1:2|1:0,2:0:0:0:
210,362,54525,2,0,P|239:343|267:322,1,70.1866645304363,10|0,2:0|2:0,2:0:0:0:
179,272,54797,1,2,1:2:0:0:
352,373,54934,2,0,P|345:303|318:239,1,140.373329060872,2|0,1:2|2:0,2:0:0:0:
61,205,55343,2,0,P|33:269|27:338,1,140.373329060872,2|8,1:2|2:0,2:0:0:0:
186,279,55888,1,0,1:0:0:0:
186,279,56025,1,0,1:0:0:0:
186,279,56161,1,0,1:0:0:0:
217,48,56434,6,0,P|246:29|274:8,1,70.1866645304363,2|0,1:2|1:0,2:0:0:0:
91,93,56706,2,0,P|61:74|33:53,1,70.1866645304363,10|0,2:0|2:0,2:0:0:0:
353,38,56979,1,2,1:2:0:0:
303,166,57116,2,0,P|302:131|292:95,1,70.1866645304363,2|0,1:2|2:0,2:0:0:0:
179,127,57388,1,2,2:0:0:0:
179,272,57525,2,0,P|179:237|213:127,1,140.373329060872,2|8,1:2|2:0,2:0:0:0:
463,57,58070,5,2,1:2:0:0:
460,100,58206,1,2,1:2:0:0:
458,144,58343,2,0,P|474:179|505:220,1,70.1866645304363,2|0,1:2|2:0,2:0:0:0:
338,155,58616,5,2,1:2:0:0:
409,243,58752,2,0,P|440:265|487:285,1,70.1866645304363,2|8,1:2|2:0,2:0:0:0:
347,128,59025,5,2,2:0:0:0:
309,292,59161,2,0,P|400:343|504:353,1,210.046660257976,2|0,1:2|1:0,2:0:0:0:
405,215,59706,5,2,1:2:0:0:
231,361,59979,1,8,2:0:0:0:
30,57,60252,5,0,1:0:0:0:
33,100,60388,1,0,1:0:0:0:
35,144,60525,2,0,P|19:179|-12:220,1,70.1866645304363,8|4,2:0|2:3,2:0:0:0:
155,155,60797,5,4,2:3:0:0:
84,243,60934,2,0,P|52:265|5:285,1,70.1866645304363,4|8,2:3|2:0,2:0:0:0:
192,256,61206,5,4,2:3:0:0:
324,12,61479,1,4,2:3:0:0:
246,51,61616,2,0,P|246:120|267:187,1,140.373329060872,8|4,2:0|2:3,2:0:0:0:
435,162,62025,1,4,2:3:0:0:
435,162,62161,1,8,2:0:0:0:
415,191,62297,1,0,1:0:0:0:
400,222,62434,1,0,1:0:0:0:
390,256,62570,1,0,1:0:0:0:
385,290,62706,5,6,1:2:0:0:
389,294,62979,2,0,P|356:308|322:315,1,70.1866645304363,2|0,1:2|1:0,2:0:0:0:
234,348,63252,2,0,P|202:335|168:328,1,70.1866645304363,10|0,2:0|2:0,2:0:0:0:
219,262,63525,1,2,1:2:0:0:
55,245,63661,2,0,P|67:313|95:378,1,140.373329060872,2|0,1:2|2:0,2:0:0:0:
225,237,64070,5,2,1:2:0:0:
44,230,64343,1,10,2:0:0:0:
183,48,64616,1,2,1:2:0:0:
107,106,64752,2,0,P|112:175|119:197,1,70.1866645304363,2|0,1:2|1:0,2:0:0:0:
325,20,65161,1,0,1:0:0:0:
325,20,65297,1,0,1:0:0:0:
325,20,65434,2,0,P|326:55|320:90,1,70.1866645304363,8|0,2:0|2:0,2:0:0:0:
416,216,65706,6,0,P|404:147|405:77,1,140.373329060872,2|0,1:2|1:0,2:0:0:0:
249,155,66252,1,2,1:2:0:0:
498,242,66525,2,0,P|504:276|508:311,1,70.1866645304363,10|0,2:0|2:0,2:0:0:0:
312,274,66797,1,2,1:2:0:0:
410,329,66934,1,2,1:2:0:0:
230,357,67070,6,0,P|158:352|94:330,1,140.373329060872,0|0,1:0|1:0,2:0:0:0:
81,254,67479,1,0,1:0:0:0:
46,384,67616,2,0,P|21:359|0:331,1,70.1866645304363,8|0,2:0|2:0,2:0:0:0:
17,167,67888,5,2,1:2:0:0:
298,240,68161,1,2,2:0:0:0:
0,165,68434,1,2,1:2:0:0:
361,114,68706,1,10,2:0:0:0:
116,0,68979,6,0,P|100:115|182:26,1,291.806658121745,6|0,1:2|1:0,2:0:0:0:
31,169,69820,1,8,2:0:0:0:
274,38,70093,1,0,1:0:0:0:
274,38,70229,1,0,1:0:0:0:
273,37,70365,2,0,P|283:70|286:105,3,70.0155534193252,0|0|0|0,1:0|1:0|1:0|1:0,2:0:0:0:
177,30,70888,5,10,2:0:0:0:
392,69,71160,1,2,1:2:0:0:
214,175,71433,6,0,P|220:212|239:260,1,70.1866645304363,2|0,1:2|2:0,2:0:0:0:
313,268,71705,5,2,1:2:0:0:
142,232,71842,2,0,P|138:269|144:320,1,70.1866645304363,2|8,1:2|2:0,2:0:0:0:
232,148,72114,5,2,2:0:0:0:
57,181,72251,2,0,P|19:279|0:381,1,210.046660257976,2|0,1:2|2:0,2:0:0:0:
160,309,72796,1,2,1:2:0:0:
128,40,73069,1,10,2:0:0:0:
311,187,73342,1,2,1:2:0:0:
0,128,73614,6,0,P|53:125|101:135,1,70.1866645304363,2|0,1:2|2:0,2:0:0:0:
150,37,73887,6,0,P|197:61|234:94,1,70.1866645304363,2|0,1:2|1:0,2:0:0:0:
325,34,74160,6,0,P|353:79|369:125,1,70.1866645304363,10|0,2:0|2:0,2:0:0:0:
73,209,74433,6,0,P|-2:274|97:233,1,280.233324788412,6|0,1:2|1:0,2:0:0:0:
312,26,75251,5,10,2:0:0:0:
207,129,75523,5,0,1:2:0:0:
207,129,75660,1,0,1:2:0:0:
303,159,75796,2,0,P|297:196|278:244,1,70.1866645304363,2|0,1:2|2:0,2:0:0:0:
204,252,76069,5,2,1:2:0:0:
375,216,76205,2,0,P|379:253|373:304,1,70.1866645304363,2|8,1:2|2:0,2:0:0:0:
285,132,76478,5,2,2:0:0:0:
452,160,76614,2,0,P|479:224|498:291,1,140.373329060872,2|8,1:2|2:0,2:0:0:0:
296,314,77160,1,0,1:0:0:0:
296,314,77296,1,0,1:0:0:0:
296,314,77433,2,0,P|286:359|288:398,2,70.1866645304363,8|0|0,2:0|1:0|1:0,2:0:0:0:
0,257,77978,6,0,B|48:289|48:289|38:345|38:345|84:309|84:309|135:335|135:335|115:281|115:281|155:241|155:241|97:243|97:243|71:192|71:192|61:231,1,500,4|4,2:0|2:3,2:0:0:0:
157,162,79433,1,4,2:3:0:0:
157,162,79523,1,4,2:3:0:0:
157,162,79614,2,0,P|217:196|218:288,1,150.033333333333,4|0,2:3|2:0,2:0:0:0:
75,147,80168,6,0,P|150:118|150:12,1,165.000005035401,4|0,2:0|2:0,2:0:0:0:
4,1,80713,2,0,P|34:46|86:62,1,110.293336690267,8|0,2:0|2:0,2:0:0:0:
267,7,81259,1,0,1:0:0:0:
267,7,81395,1,8,2:0:0:0:
267,7,81531,1,0,1:0:0:0:
55,144,81804,1,8,2:0:0:0:
237,100,82077,1,0,2:0:0:0:
342,292,82350,6,0,P|293:316|241:303,1,110.293336690267,0|0,1:0|2:0,2:0:0:0:
368,209,82759,1,0,1:0:0:0:
368,209,82895,2,0,P|412:238|428:290,1,110.293336690267,8|0,2:0|2:0,2:0:0:0:
337,124,83441,1,0,1:0:0:0:
337,124,83577,1,8,2:0:0:0:
337,124,83713,1,0,1:0:0:0:
226,297,83986,1,8,2:0:0:0:
160,162,84259,1,0,2:0:0:0:
471,125,84531,5,4,1:3:0:0:
498,180,84668,1,4,2:3:0:0:
512,243,84804,1,4,2:3:0:0:
510,307,84941,1,4,2:3:0:0:
490,368,85077,1,4,2:0:0:0:
256,192,85213,12,0,88759,2:0:0:0:
