osu file format v14

[General]
AudioFilename: audio.mp3
AudioLeadIn: 0
PreviewTime: 45252
Countdown: 0
SampleSet: Soft
StackLeniency: 0.7
Mode: 0
LetterboxInBreaks: 0
WidescreenStoryboard: 0

[Editor]
DistanceSpacing: 1.3
BeatDivisor: 4
GridSize: 32
TimelineZoom: 3.299999

[Metadata]
Title:Le zoo (TV Size)
TitleUnicode:Le zoo (TV Size)
Artist:YURiKA
ArtistUnicode:YURiKA
Creator:-Keitaro
Version:Normal
Source:BEASTARS
Tags:ending ed anime japanese mindmaster107 ビースターズ legosi legoshi louis studio orange itagaki
BeatmapID:2199554
BeatmapSetID:1052509

[Difficulty]
HPDrainRate:4
CircleSize:3.5
OverallDifficulty:4
ApproachRate:5
SliderMultiplier:1.4
SliderTickRate:1

[Events]
//Background and Video events
0,0,"bggggggg.jpg",0,0
Video,-696,"beasat.mp4"
//Break Periods
//Storyboard Layer 0 (Background)
//Storyboard Layer 1 (Fail)
//Storyboard Layer 2 (Pass)
//Storyboard Layer 3 (Foreground)
//Storyboard Layer 4 (Overlay)
//Storyboard Sound Samples

[TimingPoints]
526,538.116591928251,4,2,22,50,1,0
1627,545.454545454546,4,2,22,50,1,0
8164,545.454545454546,4,2,22,50,1,0
10343,545.454545454546,4,2,22,45,1,0
10343,-100,4,2,22,45,0,0
27797,-100,4,2,22,50,0,0
40888,-100,4,2,22,55,0,0
45252,-100,4,2,22,60,0,1
69275,545.454545454546,4,2,22,60,1,1
70888,545.454545454546,4,2,22,60,1,1
71433,545.454545454546,4,2,22,60,1,1
77978,-100,4,2,22,60,0,0
80168,545.454545454546,4,2,22,60,1,0
88758,-100,4,2,22,5,0,0

[Colours]
Combo1 : 113,188,67
Combo2 : 0,128,255
Combo3 : 13,157,157
Combo4 : 118,102,73

[HitObjects]
41,82,1627,6,0,P|102:63|170:118,1,140.116666666667,4|8,2:0|2:0,2:0:0:0:
206,181,2445,1,0,1:0:0:0:
269,116,2717,2,0,L|371:103,1,70.1866666666667,0|0,1:0|2:0,2:0:0:0:
428,89,3263,1,8,2:0:0:0:
493,258,3808,6,0,L|325:245,1,140.116666666667,0|8,1:0|2:0,2:0:0:0:
262,240,4627,1,0,1:0:0:0:
171,233,4899,2,0,L|179:315,1,70.1866666666667,0|0,1:0|2:0,2:0:0:0:
87,317,5445,2,0,L|92:357,2,35.0933333333334,8|0|0,2:0|1:0|1:0,2:0:0:0:
18,256,5990,6,0,L|34:110,1,140.116666666667,0|8,1:0|2:0,2:0:0:0:
84,41,6808,1,0,1:0:0:0:
138,113,7081,2,0,L|224:104,1,70.1866666666667,0|0,1:0|2:0,2:0:0:0:
281,51,7627,1,8,2:0:0:0:
461,25,8164,6,0,P|494:91|459:159,1,140.116666666667,0|8,1:0|2:0,2:0:0:0:
403,209,8982,2,0,L|420:272,2,35.0933333333334,0|8|8,1:0|2:0|2:0,2:0:0:0:
325,161,9528,1,4,3:0:0:0:
250,212,9800,2,0,P|204:215|168:193,1,70.1866666666667,8|0,2:0|1:0,2:0:0:0:
106,155,10343,6,0,B|133:193|133:193|122:300,1,140.116666666667,4|10,2:0|2:0,2:0:0:0:
170,363,11161,1,2,2:0:0:0:
239,304,11434,2,0,P|296:294|330:316,1,70.1866666666667,2|2,1:2|2:0,2:0:0:0:
380,350,11979,1,8,2:0:0:0:
494,207,12525,6,0,P|494:143|418:90,1,140.116666666667,2|10,1:2|2:0,2:0:0:0:
355,126,13343,1,2,2:0:0:0:
282,71,13616,2,0,L|184:65,1,70.1866666666667,2|2,1:2|2:0,2:0:0:0:
121,61,14161,2,0,L|110:150,1,70.1866666666667,8|0,2:0|2:0,2:0:0:0:
36,181,14706,6,0,P|98:180|133:270,1,140.116666666667,2|10,1:2|2:0,2:0:0:0:
89,317,15525,1,2,2:0:0:0:
161,371,15797,2,0,L|254:361,1,70.1866666666667,2|2,1:2|2:0,2:0:0:0:
321,353,16343,2,0,L|314:276,1,70.1866666666667,8|2,2:0|2:0,2:0:0:0:
301,193,16888,6,0,P|347:164|430:212,1,140.116666666667,2|8,1:2|2:0,2:0:0:0:
442,282,17706,1,2,2:0:0:0:
388,356,17979,2,0,L|296:352,1,70.1866666666667,0|2,1:0|2:0,2:0:0:0:
263,279,18525,1,10,2:0:0:0:
81,283,19070,6,0,L|70:130,1,140.116666666667,0|10,1:0|2:0,2:0:0:0:
84,54,19888,1,2,2:0:0:0:
161,102,20161,2,0,P|227:103|249:88,1,70.1866666666667,2|2,1:2|2:0,2:0:0:0:
299,44,20706,1,8,2:0:0:0:
361,110,20979,1,2,2:0:0:0:
441,67,21252,6,0,L|452:219,1,140.116666666667,2|8,1:2|2:0,2:0:0:0:
491,288,22070,2,0,P|449:240|358:252,1,140.116666666667,2|2,2:0|2:0,2:0:0:0:
300,289,22888,1,10,2:0:0:0:
121,323,23434,6,0,P|96:266|137:189,1,140.116666666667,0|10,1:0|2:0,2:0:0:0:
211,168,24252,1,2,2:0:0:0:
175,84,24525,2,0,L|39:95,2,105.023333333333,2|2|2,1:2|2:0|2:0,2:0:0:0:
245,26,25616,2,0,L|338:34,1,70.1866666666667,2|2,1:2|2:0,2:0:0:0:
379,95,26161,2,0,L|465:89,1,70.1866666666667,8|0,2:0|2:0,2:0:0:0:
498,166,26706,1,2,1:2:0:0:
438,235,26979,2,0,L|448:281,2,35.0933333333334,2|8|10,1:2|2:0|2:0,2:0:0:0:
359,188,27525,1,2,2:0:0:0:
299,256,27797,6,0,L|215:248,1,70.1866666666667,4|0,1:2|1:0,2:0:0:0:
138,240,28343,1,10,2:0:0:0:
70,71,28888,2,0,B|118:76|118:76|135:91|135:91|196:100,2,105.023333333333,2|2|2,1:2|1:2|1:2,2:0:0:0:
8,138,29979,2,0,P|2:184|75:236,1,140.116666666667,2|10,2:0|2:0,2:0:0:0:
156,208,30797,1,2,1:2:0:0:
136,297,31070,2,0,L|305:282,1,140.116666666667,10|10,2:0|2:0,2:0:0:0:
453,323,32161,6,0,B|464:286|464:286|456:256,1,70.1866666666667,0|0,1:0|1:0,2:0:0:0:
400,183,32706,1,10,2:0:0:0:
464,12,33252,2,0,P|476:61|518:104,2,105.023333333333,2|2|2,1:2|1:2|1:2,2:0:0:0:
385,58,34343,2,0,P|322:102|236:88,1,140.116666666667,2|10,2:0|2:0,2:0:0:0:
181,56,35161,1,2,2:0:0:0:
105,107,35434,2,0,B|98:167|98:167|106:186|106:186|99:264,1,140.116666666667,10|10,2:0|2:0,2:0:0:0:
245,354,36525,6,0,L|252:262,1,70.1866666666667,4|0,1:2|1:0,2:0:0:0:
257,193,37070,1,10,2:0:0:0:
419,274,37616,2,0,P|466:250|480:176,2,105.023333333333,2|2|2,1:2|1:2|1:2,2:0:0:0:
348,330,38706,2,0,L|256:323,1,70.1866666666667,2|2,2:0|1:2,2:0:0:0:
204,270,39252,1,10,2:0:0:0:
129,322,39525,1,2,1:2:0:0:
66,255,39797,2,0,P|43:181|78:129,1,140.116666666667,10|10,2:0|2:0,2:0:0:0:
238,52,40888,6,0,L|401:61,1,140.116666666667,4|8,1:2|2:0,2:0:0:0:
468,60,41706,1,0,1:0:0:0:
419,137,41979,2,0,P|409:194|418:228,1,70.1866666666667,0|0,1:0|1:0,2:0:0:0:
469,275,42525,2,0,P|468:337|457:365,1,70.1866666666667,8|0,2:0|1:0,2:0:0:0:
377,365,43070,6,0,L|224:352,1,140.116666666667,8|8,2:0|2:0,2:0:0:0:
55,346,44161,2,0,L|62:262,1,70.1866666666667,8|8,2:0|2:0,2:0:0:0:
78,186,44706,2,0,L|35:181,2,35.0933333333334,4|0|4,3:0|1:0|3:0,2:0:0:0:
143,250,45252,6,0,P|202:249|241:195,1,105.023333333333,6|0,1:2|1:0,2:0:0:0:
257,180,45797,2,0,L|251:79,1,70.1866666666667,10|2,2:0|1:2,2:0:0:0:
307,37,46343,1,0,1:0:0:0:
378,93,46616,1,2,1:2:0:0:
433,21,46888,2,0,L|520:27,1,70.1866666666667,10|2,2:0|1:2,2:0:0:0:
496,116,47434,6,0,P|502:191|469:227,1,105.023333333333,0|0,1:0|1:0,2:0:0:0:
453,243,47979,1,8,2:0:0:0:
366,215,48252,2,0,P|281:202|232:260,1,140.116666666667,2|2,1:2|1:2,2:0:0:0:
185,302,49070,1,10,2:0:0:0:
101,264,49343,1,2,1:2:0:0:
50,188,49616,6,0,L|56:59,1,105.023333333333,0|0,1:0|1:0,2:0:0:0:
61,38,50161,2,0,P|108:30|155:48,1,70.1866666666667,10|2,2:0|1:2,2:0:0:0:
206,82,50706,1,0,1:0:0:0:
282,32,50979,1,2,1:2:0:0:
358,81,51252,2,0,L|352:184,1,70.1866666666667,10|2,2:0|1:2,2:0:0:0:
387,235,51797,6,0,P|341:206|269:225,1,105.023333333333,0|0,1:0|1:0,2:0:0:0:
254,235,52343,1,8,2:0:0:0:
173,278,52616,2,0,P|125:268|84:166,1,140.116666666667,2|2,1:2|1:2,2:0:0:0:
20,127,53434,1,10,2:0:0:0:
19,36,53706,1,2,1:2:0:0:
111,34,53979,6,0,L|243:25,1,105.023333333333,0|0,1:0|1:0,2:0:0:0:
261,22,54525,2,0,L|251:105,1,70.1866666666667,10|2,2:0|1:2,2:0:0:0:
177,142,55070,1,0,1:0:0:0:
221,221,55343,1,2,1:2:0:0:
265,300,55616,2,0,L|367:285,1,70.1866666666667,8|0,2:0|1:0,2:0:0:0:
423,272,56161,6,0,P|446:217|416:157,1,105.023333333333,0|0,1:0|1:0,2:0:0:0:
398,146,56706,2,0,P|386:102|399:63,1,70.1866666666667,10|2,2:0|1:2,2:0:0:0:
324,15,57252,1,0,1:0:0:0:
245,61,57525,1,2,1:2:0:0:
164,19,57797,2,0,L|74:26,1,70.1866666666667,8|2,2:0|1:2,2:0:0:0:
39,97,58343,6,0,P|10:167|35:220,1,105.023333333333,2|2,1:2|1:2,2:0:0:0:
34,234,58888,1,8,2:0:0:0:
120,204,59161,2,0,P|181:218|207:303,1,140.116666666667,2|2,1:2|1:2,2:0:0:0:
266,355,59979,1,8,2:0:0:0:
348,317,60252,1,0,1:0:0:0:
429,358,60525,6,0,L|439:267,1,70.1866666666667,8|4,2:0|2:3,2:0:0:0:
493,216,61070,2,0,L|484:134,1,70.1866666666667,8|4,2:0|2:3,2:0:0:0:
458,58,61616,2,0,P|415:48|336:97,1,140.116666666667,8|8,2:0|2:0,2:0:0:0:
315,275,62706,6,0,P|240:325|198:318,1,105.023333333333,6|0,1:2|1:0,2:0:0:0:
185,310,63252,2,0,P|130:296|93:314,1,70.1866666666667,10|2,2:0|1:2,2:0:0:0:
56,232,63797,2,0,P|78:177|75:142,1,70.1866666666667,0|2,1:0|1:2,2:0:0:0:
32,88,64343,1,10,2:0:0:0:
98,26,64616,1,2,1:2:0:0:
169,82,64888,6,0,P|223:103|292:71,1,105.023333333333,0|0,1:0|1:0,2:0:0:0:
304,66,65434,1,8,2:0:0:0:
390,37,65706,2,0,L|384:187,1,140.116666666667,2|2,1:2|1:2,2:0:0:0:
425,258,66525,2,0,P|380:272|345:261,1,70.1866666666667,10|2,2:0|1:2,2:0:0:0:
281,218,67070,6,0,P|240:199|144:247,1,140.116666666667,0|8,1:0|2:0,2:0:0:0:
91,294,67888,1,2,1:2:0:0:
163,348,68161,2,0,L|248:340,2,70.0583333333334,2|2|10,2:0|1:2|2:0,2:0:0:0:
91,294,68979,6,0,P|49:232|74:144,1,145.903333333333,6|0,1:2|1:0,2:0:0:0:
61,79,69820,1,8,2:0:0:0:
140,123,70093,2,0,L|306:113,1,140,0|0,1:0|1:0,2:0:0:0:
370,107,70888,1,10,2:0:0:0:
335,191,71160,1,2,1:2:0:0:
403,251,71433,6,0,P|412:306|394:357,2,105.151666666667,2|2|2,1:2|1:2|1:2,2:0:0:0:
335,191,72523,1,0,1:0:0:0:
244,190,72796,1,2,1:2:0:0:
169,242,73069,2,0,L|85:248,1,70.4433333333334,10|2,2:0|1:2,2:0:0:0:
71,159,73614,6,0,P|20:161|-16:192,2,70.3150000000001,2|2|10,1:2|1:2|2:0,2:0:0:0:
93,70,74433,2,0,P|138:74|216:-11,1,140.373333333333,6|0,1:2|1:0,2:0:0:0:
285,67,75251,1,10,2:0:0:0:
351,4,75523,1,2,1:2:0:0:
434,40,75796,6,0,L|446:169,1,105.28,2|2,1:2|1:2,2:0:0:0:
478,173,76342,2,0,L|470:270,1,70,8|2,2:0|1:2,2:0:0:0:
444,329,76887,1,8,2:0:0:0:
361,289,77160,1,0,1:0:0:0:
275,319,77433,2,0,L|193:328,1,70,8|0,2:0|1:0,2:0:0:0:
119,296,77978,5,4,2:0:0:0:
41,28,79614,5,4,2:3:0:0:
145,176,80168,6,0,P|191:169|238:79,1,140.373333333333,4|8,2:0|2:0,2:0:0:0:
309,36,80986,1,0,1:0:0:0:
373,100,81259,2,0,L|376:194,1,70,0|0,1:0|2:0,2:0:0:0:
381,260,81804,1,8,2:0:0:0:
229,360,82350,6,0,P|169:304|108:316,1,140.373333333333,0|8,1:0|2:0,2:0:0:0:
39,360,83168,1,0,1:0:0:0:
11,273,83441,2,0,L|27:171,1,70,0|0,1:0|2:0,2:0:0:0:
40,114,83986,1,8,2:0:0:0:
220,140,84531,1,4,1:3:0:0:
202,320,85077,1,4,2:0:0:0:
256,192,85213,12,0,88759,2:0:0:0:
